osu file format v12

[General]
AudioFilename: NEW 2013 Pop Megamix (25 Songs) - DJ Penetration [Mashup].mp3
AudioLeadIn: 0
PreviewTime: 177537
Countdown: 0
SampleSet: Soft
StackLeniency: 0.7
Mode: 0
LetterboxInBreaks: 0
WidescreenStoryboard: 1

[Editor]
Bookmarks: 31334,64615,65084,94146,95084,124615,125084,139146,155084,177115,177584,192115,192584,207584,230084,244615,245084,258209
DistanceSpacing: 0.9
BeatDivisor: 4
GridSize: 4

[Metadata]
Title:2013 Pop Megamix (Mashup)
TitleUnicode:2013 Pop Megamix (Mashup)
Artist:DJ Penetration
ArtistUnicode:DJ Penetration
Creator:Lally
Version:Collab Easy
Source:
Tags:I'm all yours jay sean pitbull seek bromance tim berg turn me on david guetta nicki minaj just dance lady gaga akon colby o'donis psy gangnam style tonight enrique iglesias ludacris rihanna you da one party rock anthem lmfao lauren bennett goonrock where have been blow ke$ha sexy and know it till the world ends britney spears love like song selena gomez scene part katy perry give everything afrojack nayer ne-yo spectrum zedd matthew koma titanium this one direction what makes beautiful luvin' madonna m.i.a. die young starships Xinely Garven Stefan TheNutritiousGuy HeatKai heatwave95 Darksonic Kodora Saten Saten-san No_Gu Sekai-nyan Sekai -Sekai- Roxas Dark_Ai -Bakari- Andrea osuplayer111 [Luanny] [Luanny PhNyx] Gabe Scorpiour Irreversible Gero Byakugan249 Chewin Amamiya Yuko Skystar alacat Nemis Leader BounceBabe collab
BeatmapID:317550
BeatmapSetID:124596

[Difficulty]
HPDrainRate:2
CircleSize:3
OverallDifficulty:2
ApproachRate:3
SliderMultiplier:1
SliderTickRate:1

[Events]
//Background and Video events
0,0,"o3o.jpg",0,0
//Break Periods
2,139346,153644
2,207784,224894
//Storyboard Layer 0 (Background)
//Storyboard Layer 1 (Fail)
//Storyboard Layer 2 (Pass)
//Storyboard Layer 3 (Foreground)
Sprite,Foreground,Centre,"SB\Names\Lally.png",320,240 M,0,34849,35084,320,520,320,300 F,0,35084,,1 M,0,35084,38365,320,300 M,0,38365,38599,320,300,320,520
Sprite,Foreground,Centre,"SB\Names\Lally.png",320,240 M,0,38365,38599,320,-42,320,180 M,0,38599,45865,320,180 M,0,45865,46099,320,180,320,-42
Sprite,Foreground,Centre,"SB\Names\Lally.png",320,240 M,0,46099,46334,320,520,320,300 M,0,46334,53365,320,300 M,0,53365,53599,320,300 M,0,53599,53834,320,300,320,520
Sprite,Foreground,Centre,"SB\Names\Lally.png",320,240 M,0,53599,53834,320,-42,320,180 M,0,53834,60865,320,180 M,0,60865,61099,320,180,320,-42
Sprite,Foreground,Centre,"SB\Names\Lally.png",320,240 M,0,61099,61334,320,520,320,300 M,0,61334,64615,320,300 M,0,64615,64849,320,300,320,520
Sprite,Foreground,Centre,"SB\Names\Leader.png",320,240 M,0,64849,65084,320,-42,320,180 M,0,65084,72115,320,180 M,0,72115,72349,320,180,320,-42
Sprite,Foreground,Centre,"SB\Names\Leader.png",320,240 M,0,72349,72584,320,520,320,300 M,0,72584,87115,320,300 M,0,87115,87349,320,300,320,520
Sprite,Foreground,Centre,"SB\Names\Leader.png",320,240 M,0,87349,87584,320,-42,320,180 M,0,87584,94615,320,180 M,0,94615,94849,320,180,320,-42
Sprite,Foreground,Centre,"SB\Names\Lally.png",320,240 M,0,94849,95084,320,520,320,300 M,0,95084,102115,320,300 M,0,102115,102349,320,300,320,520
Sprite,Foreground,Centre,"SB\Names\Lally.png",320,240 M,0,102349,102584,320,-42,320,180 M,0,102584,109615,320,180 M,0,109615,109849,320,180,320,-42
Sprite,Foreground,Centre,"SB\Names\Lally.png",320,240 M,0,109849,110084,320,520,320,300 M,0,110084,117115,320,300 M,0,117115,117349,320,300,320,520
Sprite,Foreground,Centre,"SB\Names\Lally.png",320,240 M,0,117349,117584,320,-42,320,180 M,0,117584,124615,320,180 M,0,124615,124849,320,180,320,-42
Sprite,Foreground,Centre,"SB\Names\Leader.png",320,240 M,0,124849,125084,320,520,320,300 M,0,125084,132115,320,300 M,0,132115,132349,320,300,320,520
Sprite,Foreground,Centre,"SB\Names\Leader.png",320,240 M,0,132349,132584,320,-42,320,180 M,0,132584,139615,320,180 M,0,139615,139849,320,180,320,-42
Sprite,Foreground,Centre,"SB\Names\Lally.png",320,240 M,0,155084,155318,320,520,320,300 M,0,155318,162115,320,300 M,0,162115,162349,320,300,320,520
Sprite,Foreground,Centre,"SB\Names\Lally.png",320,240 M,0,162349,162584,320,-42,320,180 M,0,162584,169615,320,180 M,0,169615,169849,320,180,320,-42
Sprite,Foreground,Centre,"SB\Names\Lally.png",320,240 M,0,169849,170084,320,520,320,300 M,0,170084,177115,320,300 M,0,177115,177349,320,300,320,520
Sprite,Foreground,Centre,"SB\Names\Leader.png",320,240 M,0,177349,177584,320,520,320,300 M,0,177584,184615,320,300 M,0,184615,184849,320,300,320,520
Sprite,Foreground,Centre,"SB\Names\Leader.png",320,240 M,0,184849,185084,320,-42,320,180 M,0,185084,192115,320,180 M,0,192115,192349,320,180,320,-42
Sprite,Foreground,Centre,"SB\Names\Lally.png",320,240 M,0,192349,192584,320,520,320,300 M,0,192584,199615,320,300 M,0,199615,199849,320,300,320,520
Sprite,Foreground,Centre,"SB\Names\Lally.png",320,240 M,0,199849,200084,320,-42,320,180 M,0,200084,207115,320,180 M,0,207115,207349,320,180,320,-42
Sprite,Foreground,Centre,"SB\Names\Leader.png",320,240 M,0,226802,227037,320,520,320,300 M,0,227037,237115,320,300 M,0,237115,237349,320,300,320,520
Sprite,Foreground,Centre,"SB\Names\Leader.png",320,240 M,0,237349,237584,320,-42,320,180 M,0,237584,244615,320,180 M,0,244615,244849,320,180,320,-42
Sprite,Foreground,Centre,"SB\Names\Lally.png",320,240 M,0,244849,245084,320,520,320,300 M,0,245084,252115,320,300 M,0,252115,252349,320,300,320,520
Sprite,Foreground,Centre,"SB\Names\Lally.png",320,240 M,0,252349,252584,320,520,320,430 F,0,252584,259380,1
//Storyboard Sound Samples
//Background Colour Transformations
3,100,163,162,255

[TimingPoints]
31334,468.75,4,1,1,60,1,0
34615,-100,4,2,3,70,0,0
35084,-100,4,1,1,70,0,0
38834,-100,4,2,3,70,0,0
38951,-100,4,1,1,70,0,0
40709,-100,4,2,3,70,0,0
40826,-100,4,1,1,70,0,0
42584,-100,4,2,1,70,0,0
42701,-100,4,1,1,70,0,0
46334,-100,4,2,1,70,0,0
46451,-100,4,1,1,70,0,0
48209,-100,4,2,1,70,0,0
48326,-100,4,1,1,70,0,0
52662,-100,4,2,2,70,0,0
53834,-100,4,2,3,70,0,0
53951,-100,4,1,1,70,0,0
55709,-100,4,2,3,70,0,0
55826,-100,4,1,1,70,0,0
58521,-100,4,2,2,70,0,0
58638,-100,4,1,1,70,0,0
65084,-100,4,2,1,70,0,0
65201,-100,4,2,2,70,0,0
80084,-100,4,1,2,70,0,0
95084,-100,4,2,3,70,0,0
110084,-100,4,2,1,70,0,0
125201,-100,4,1,1,70,0,0
126373,-100,4,2,1,70,0,0
128951,-100,4,1,1,70,0,0
130123,-100,4,2,1,70,0,0
132701,-100,4,1,1,70,0,0
133873,-100,4,2,1,70,0,0
139146,-100,4,2,3,70,0,0
155084,-100,4,1,2,70,0,0
177584,-100,4,2,1,90,0,1
192115,-100,4,2,1,90,0,0
192584,-100,4,2,1,90,0,1
207584,-100,4,1,2,50,0,0
230084,-100,4,1,2,90,0,1
244146,-100,4,1,2,80,0,0
245084,-100,4,1,2,90,0,1
258209,-100,4,1,2,50,0,0
259380,-100,4,1,2,5,0,0

[Colours]
Combo1 : 220,154,196
Combo2 : 253,100,72
Combo3 : 234,189,9
Combo4 : 133,234,57
Combo5 : 109,228,172
Combo6 : 100,189,215
Combo7 : 104,85,213
Combo8 : 186,88,207

[HitObjects]
256,192,31334,12,0,34615,0:0:0:0:
144,244,35084,6,0,P|172:164|216:148,1,100,4|8,0:0|0:0,0:0:0:0:
260,112,36021,2,0,L|368:88,1,100,0|8,0:0|0:0,0:0:0:0:
444,72,36959,2,0,P|460:120|456:180,1,100,0|8,0:0|0:0,0:0:0:0:
428,204,37662,2,0,L|384:296,2,100,0|0|0,0:0|0:0|0:0,0:0:0:0:
396,172,38834,6,0,P|356:136|220:180,1,200,4|0,0:0|0:0,0:0:0:0:
164,232,40240,1,8,0:0:0:0:
97,298,40709,2,0,B|145:342|201:324|229:302|229:302|297:318,1,200,4|0,0:0|0:0,0:0:0:0:
372,336,42115,1,8,0:0:0:0:
440,276,42584,6,0,B|404:216|464:136|412:76,1,200,4|0,0:0|0:0,0:0:0:0:
340,36,43990,1,8,0:0:0:0:
284,104,44459,2,0,P|224:128|96:56,1,200,0|0,0:0|0:0,0:0:0:0:
32,28,45865,1,8,0:0:0:0:
20,116,46334,6,0,L|20:232,2,100,4|8|0,0:0|0:0|0:0,0:0:0:0:
96,64,47740,1,8,0:0:0:0:
184,84,48209,2,0,L|188:192,2,100,4|8|0,0:0|0:0|0:0,0:0:0:0:
258,34,49615,1,8,0:0:0:0:
300,116,50084,6,0,P|336:176|380:188,1,100,4|8,2:0|0:0,0:0:0:0:
432,132,51021,2,0,P|376:196|384:312,1,200,0|0,0:0|0:0,0:0:0:0:
256,356,52662,2,0,L|140:360,2,100,2|2|2,0:0|0:0|0:0,0:0:0:0:
288,324,53834,6,0,P|344:264|336:136,1,200,4|0,0:0|0:0,0:0:0:0:
292,76,55240,1,8,0:0:0:0:
204,64,55709,2,0,P|144:60|108:40,2,100,4|8|0,0:0|0:0|0:0,0:0:0:0:
380,32,57584,6,0,P|400:80|372:240,1,200,4|2,2:0|0:0,0:0:0:0:
316,284,58990,1,8,0:0:0:0:
248,340,59459,2,0,P|192:348|152:328,1,100,4|8,2:0|0:0,0:0:0:0:
92,264,60396,2,0,L|72:148,1,100,0|8,0:0|0:0,0:0:0:0:
76,76,61334,6,0,P|124:40|180:36,2,100,0|8|0,0:0|0:0|0:0,0:0:0:0:
148,240,63209,2,0,P|196:204|252:200,2,100,4|8|0,2:0|0:0|0:0,0:0:0:0:
160,328,64615,1,8,0:0:0:0:
252,344,65084,5,4,0:0:0:0:
336,316,65552,2,0,P|384:308|452:324,2,100,8|10|8,0:0|0:0|0:0,0:0:0:0:
252,344,66959,2,0,P|160:368|64:336,1,200,10|10,0:0|0:0,0:0:0:0:
72,156,68834,6,0,L|92:48,2,100,10|8|10,0:0|0:0|0:0,0:0:0:0:
132,224,70240,1,8,0:0:0:0:
220,200,70709,2,0,B|312:248|312:160|424:200,1,200,10|8,0:0|0:0,0:0:0:0:
456,276,72115,1,8,0:0:0:0:
404,348,72584,6,0,L|184:328,1,200,4|8,0:1|0:0,0:0:0:0:
56,228,74459,2,0,P|104:217|156:236,1,100,10|8,0:0|0:0,0:0:0:0:
236,268,75396,5,8,0:0:0:0:
336,184,76099,1,0,0:0:0:0:
348,320,76802,1,0,0:0:0:0:
336,184,77505,1,0,0:0:0:0:
460,236,78209,1,0,0:0:0:0:
336,184,78912,1,0,0:0:0:0:
440,100,79615,1,0,0:0:0:0:
364,56,80084,6,0,B|276:96|276:32|168:64,1,200,4|0,0:0|0:0,0:0:0:0:
108,132,81490,1,2,0:0:0:0:
20,124,81959,2,0,P|52:204|176:192,1,200,4|0,0:0|0:0,0:0:0:0:
244,188,83365,5,2,0:0:0:0:
332,172,83834,2,0,P|388:164|488:200,2,150,4|2|2,0:0|0:0|0:0,0:0:0:0:
244,188,85709,2,0,P|172:248|88:196,1,200,4|0,0:0|0:0,0:0:0:0:
56,120,87115,5,2,0:0:0:0:
91,202,87584,2,0,P|99:262|83:318,1,100,4|2,0:0|0:0,0:0:0:0:
164,352,88521,2,0,L|264:344,1,100,0|2,0:0|0:0,0:0:0:0:
352,332,89459,2,0,P|376:256|344:140,1,200,4|0,0:0|0:0,0:0:0:0:
264,100,90865,6,0,L|156:88,2,100,2|4|2,0:0|0:0|0:0,0:0:0:0:
288,188,92271,2,0,P|296:236|280:296,1,100,0|2,0:0|0:0,0:0:0:0:
220,348,93209,2,0,P|132:372|88:288,1,200,4|2,0:0|0:0,0:0:0:0:
124,112,95084,6,0,B|184:124|212:180|212:180|276:168|288:128,1,200,4|2,0:1|0:0,0:0:0:0:
336,68,96490,1,8,0:0:0:0:
372,152,96959,2,0,P|340:208|304:240,2,100,4|8|2,0:0|0:0|0:0,0:0:0:0:
424,80,98365,1,8,0:0:0:0:
464,160,98834,6,0,P|416:260|344:320,1,200,4|2,0:0|0:0,0:0:0:0:
268,352,100240,1,8,0:0:0:0:
180,332,100709,2,0,L|64:292,2,100,4|8|2,0:0|0:0|0:0,0:0:0:0:
244,268,102115,1,8,0:0:0:0:
304,204,102584,6,0,P|348:148|296:36,2,200,4|2|4,0:0|0:0|0:0,0:0:0:0:
224,248,104927,1,8,0:0:0:0:
148,200,105396,1,2,0:0:0:0:
176,116,105865,1,8,0:0:0:0:
264,104,106334,6,0,P|320:104|404:220,1,200,4|2,0:0|0:0,0:0:0:0:
424,296,107740,1,4,0:0:0:0:
348,344,108209,2,0,P|296:364|236:348,2,100,4|4|4,0:0|0:0|0:0,0:0:0:0:
256,224,110084,6,0,P|220:148|192:132,1,100,4|8,0:0|0:0,0:0:0:0:
120,132,111021,2,0,P|216:140|312:80,2,200,2|2|2,0:0|0:0|0:0,0:0:0:0:
56,72,113365,1,8,0:0:0:0:
36,160,113834,2,0,L|36:264,1,100,4|8,0:0|0:0,0:0:0:0:
92,328,114771,2,0,P|144:332|208:304,1,100,2|8,0:0|0:0,0:0:0:0:
252,253,115709,5,4,0:0:0:0:
315,189,116177,1,8,0:0:0:0:
378,125,116646,2,0,L|456:48,1,100,2|8,0:0|0:0,0:0:0:0:
480,140,117584,6,0,L|336:284,1,200,4|2,0:0|0:0,0:0:0:0:
256,320,118990,1,8,0:0:0:0:
173,281,119459,2,0,L|32:140,1,200,4|2,0:0|0:0,0:0:0:0:
52,52,120865,1,8,0:0:0:0:
124,104,121334,2,0,P|176:124|240:112,1,100,4|8,0:0|0:0,0:0:0:0:
308,96,122271,6,0,P|336:148|336:208,1,100,2|8,0:0|0:0,0:0:0:0:
256,220,123209,2,0,P|204:228|140:216,1,100,4|8,0:0|0:0,0:0:0:0:
76,180,124146,1,2,0:0:0:0:
4,236,124615,1,8,0:0:0:0:
56,312,125084,6,0,B|200:380|200:264|364:336,1,300,4|8,0:0|0:0,0:0:0:0:
436,344,126959,1,2,0:0:0:0:
404,260,127427,2,0,P|368:168|412:72,1,200,8|8,0:0|0:0,0:0:0:0:
328,28,128834,6,0,B|280:76|276:156|276:156|208:92|120:88,1,300,6|8,0:0|0:0,0:0:0:0:
72,152,130709,2,0,P|80:208|64:268,3,100,2|8|2|8,0:0|0:0|0:0|0:0,0:0:0:0:
40,336,132584,6,0,B|188:396|188:272|336:344,1,300,6|8,0:0|0:0,0:0:0:0:
420,360,134459,2,0,P|436:312|428:252,1,100,2|8,0:0|0:0,0:0:0:0:
376,192,135396,2,0,L|384:128,2,50,6|0|8,0:0|0:0|0:0,0:0:0:0:
256,192,136099,12,0,139146,0:0:0:0:
184,164,155084,6,0,P|176:104|108:48,2,150,4|2|2,0:0|0:0|0:0,0:0:0:0:
172,252,156959,2,0,P|228:312|352:304,1,200,4|8,0:0|0:0,0:0:0:0:
420,276,158365,1,2,0:0:0:0:
448,188,158834,6,0,P|468:88|496:32,2,150,4|2|2,0:0|0:0|0:0,0:0:0:0:
420,276,160709,2,0,B|404:344|364:352|240:344,1,200,4|8,0:0|0:0,0:0:0:0:
164,336,162115,1,2,0:0:0:0:
128,252,162584,6,0,P|168:184|240:160,2,150,4|2|2,0:0|0:0|0:0,0:0:0:0:
72,324,164459,2,0,P|24:232|64:132,1,200,4|8,0:0|0:0,0:0:0:0:
116,80,165865,1,2,0:0:0:0:
204,52,166334,6,0,L|372:32,2,150,4|2|2,0:0|0:0|0:0,0:0:0:0:
116,80,168209,2,0,P|152:124|168:268,1,200,4|8,0:0|0:0,0:0:0:0:
256,192,170084,12,2,177115,0:0:0:0:
24,236,177584,5,6,0:0:0:0:
104,196,178052,2,0,P|188:188|280:260,1,200,8|8,0:0|0:0,0:0:0:0:
332,328,179459,2,0,L|432:316,1,100,2|8,0:0|0:0,0:0:0:0:
504,264,180396,2,0,P|468:236|404:228,1,100,2|8,0:0|0:0,0:0:0:0:
328,240,181334,6,0,P|392:236|464:112,1,200,2|2,0:0|0:0,0:0:0:0:
436,48,182740,1,8,0:0:0:0:
436,48,183209,2,0,B|384:68|384:68|240:48,1,200,2|2,0:0|0:0,0:0:0:0:
152,68,184615,1,10,0:0:0:0:
92,136,185084,6,0,P|100:184|88:236,1,100,6|8,0:0|0:0,0:0:0:0:
124,316,186021,2,0,L|224:324,1,100,2|8,0:0|0:0,0:0:0:0:
312,328,186959,2,0,P|368:324|408:288,1,100,4|8,0:0|0:0,0:0:0:0:
444,220,187896,1,2,0:0:0:0:
436,132,188365,1,8,0:0:0:0:
368,72,188834,6,0,P|276:52|204:120,1,200,2|2,0:0|0:0,0:0:0:0:
168,200,190240,1,8,0:0:0:0:
168,200,190709,2,0,L|64:212,2,100,2|8|2,0:0|0:0|0:0,0:0:0:0:
240,256,192115,1,8,0:0:0:0:
316,304,192584,6,0,P|384:324|468:300,2,150,4|8|8,0:0|0:0|0:0,0:0:0:0:
272,224,194459,2,0,P|236:164|192:152,1,100,2|8,0:0|0:0,0:0:0:0:
136,104,195396,2,0,L|60:40,1,100,2|8,0:0|0:0,0:0:0:0:
36,128,196334,6,0,B|108:188|108:188|144:256,2,150,2|8|8,0:0|0:0|0:0,0:0:0:0:
40,40,198209,2,0,P|80:32|152:56,1,100,2|8,0:0|0:0,0:0:0:0:
212,96,199146,2,0,P|259:109|308:101,1,100,2|8,0:0|0:0,0:0:0:0:
392,68,200084,6,0,P|444:108|432:240,1,200,6|2,0:0|0:0,0:0:0:0:
380,300,201490,1,8,0:0:0:0:
312,240,201959,2,0,P|256:204|132:232,1,200,2|2,0:0|0:0,0:0:0:0:
64,292,203365,1,8,0:0:0:0:
44,204,203834,6,0,L|36:36,2,150,2|8|8,0:0|0:0|0:0,0:0:0:0:
256,192,205709,12,2,207584,0:0:0:0:
256,192,226334,12,0,229615,0:0:0:0:
40,212,230084,5,4,0:0:0:0:
104,276,230552,2,0,P|200:304|276:248,1,200,8|8,0:0|0:0,0:0:0:0:
348,196,231959,2,0,P|380:244|384:304,1,100,2|8,0:0|0:0,0:0:0:0:
464,332,232896,2,0,P|468:228|412:136,1,200,2|2,0:0|0:0,0:0:0:0:
356,84,234302,5,8,0:0:0:0:
272,116,234771,2,0,L|168:108,1,100,2|8,0:0|0:0,0:0:0:0:
92,148,235709,2,0,P|104:200|84:256,1,100,2|8,0:0|0:0,0:0:0:0:
72,332,236646,2,0,B|176:368|176:304|272:344,1,200,2|2,0:0|0:0,0:0:0:0:
352,376,238052,5,8,0:0:0:0:
432,336,238521,2,0,P|444:288|428:232,1,100,2|8,0:0|0:0,0:0:0:0:
372,176,239459,2,0,P|360:128|376:72,1,100,2|8,0:0|0:0,0:0:0:0:
288,44,240396,2,0,P|216:96|112:72,1,200,2|2,0:0|0:0,0:0:0:0:
28,108,241802,6,0,P|16:156|28:208,1,100,8|2,0:0|0:0,0:0:0:0:
72,284,242740,1,8,0:0:0:0:
144,336,243209,2,0,L|248:344,2,100,2|8|2,0:0|0:0|0:0,0:0:0:0:
72,284,244615,1,2,0:0:0:0:
80,196,245084,6,0,P|108:148|164:128,1,100,6|8,0:0|0:0,0:0:0:0:
236,116,246021,2,0,L|344:104,1,100,2|8,0:0|0:0,0:0:0:0:
424,104,246959,2,0,P|396:176|396:260,2,150,2|2|8,0:0|0:0|0:0,0:0:0:0:
484,36,248834,1,2,0:0:0:0:
396,28,249302,6,0,L|288:32,1,100,8|2,0:0|0:0,0:0:0:0:
205,31,250240,1,8,0:0:0:0:
120,64,250709,2,0,P|148:120|144:224,2,150,2|2|8,0:0|0:0|0:0,0:0:0:0:
36,32,252584,1,2,0:0:0:0:
32,120,253052,6,0,P|44:208|56:232,1,100,8|2,0:0|0:0,0:0:0:0:
112,280,253990,1,8,0:0:0:0:
192,324,254459,2,0,L|304:328,1,100,2|8,0:0|0:0,0:0:0:0:
380,324,255396,2,0,P|412:292|416:140,1,200,2|2,0:0|0:0,0:0:0:0:
356,80,256802,2,0,L|292:48,2,50,8|0|2,0:0|0:0|0:0,0:0:0:0:
256,192,257740,12,0,259380,0:0:0:0:
