osu file format v7

[General]
AudioFilename: 02. Luv Letter (Music by DJ OKAWARI,TSUKINO SORA,TSUNENORI).mp3
AudioLeadIn: 0
PreviewTime: 92597
Countdown: 0
SampleSet: Soft
StackLeniency: 0.7
Mode: 0
LetterboxInBreaks: 1
SkinPreference:Default

[Editor]
Bookmarks: 29456,49664,64820,69872,85029,92607,112815,133024,143128,153232,163336,173440,183545,193649,203753,213857,223961,234980
DistanceSpacing: 1.20000004768372
BeatDivisor: 4
GridSize: 8

[Metadata]
Title:Luv Letter
Artist:DJ Okawari
Creator:EvianBubble
Version:Silver
Source:
Tags:piano instrumental tsukino sora tsunenori

[Difficulty]
HPDrainRate:5
CircleSize:4
OverallDifficulty:5
SliderMultiplier:1.4
SliderTickRate:1

[Events]
//Background and Video events
0,0,"cover1.png"
//Break Periods
2,83955,91713
2,133218,141924
2,173639,182345
2,214061,222766
//Storyboard Layer 0 (Background)
//Storyboard Layer 1 (Fail)
//Storyboard Layer 2 (Pass)
//Storyboard Layer 3 (Foreground)
//Storyboard Sound Samples
//Background Colour Transformations
3,100,192,192,192

[TimingPoints]
29440,631.578947368421,4,2,0,50,1,0
73493,-100,4,2,0,38,0,0
73809,-100,4,2,0,50,0,0
145492,-100,4,2,0,61,0,0
148018,-100,4,2,0,70,0,0
150538,-100,4,2,0,79,0,0
153232,-100,4,2,0,50,0,1
173440,-100,4,2,0,50,0,0
234980,812.567713976165,4,2,0,30,1,1
238230,-100,4,2,0,50,0,0

[Colours]
Combo1 : 0,128,0
Combo2 : 80,231,91
Combo3 : 252,196,65
Combo4 : 21,223,214

[HitObjects]
96,48,29440,2,0,B|96:88,3,35,2|0|0|0
96,176,30229,2,0,B|96:232,1,35
96,312,30703,1,8
256,312,31334,1,0
416,312,31966,6,0,B|416:248,3,35,2|0|0|0
416,184,32755,2,0,B|416:144,1,35
416,48,33229,1,8
256,48,34492,6,0,B|256:96,3,35,2|0|0|0
256,176,35282,2,0,B|256:216,1,35
256,312,35755,2,0,B|296:312,3,35,8|0|0|0
400,312,36545,2,0,B|440:312,1,35
440,216,37018,1,0
440,72,37650,2,0,B|336:72,1,70
280,72,38282,1,8
64,72,39545,5,0
152,72,39861,1,0
256,72,40334,2,0,B|304:72,1,35
376,72,40808,1,8
376,216,41440,1,0
216,216,42071,5,2
128,216,42387,1,0
128,88,42861,2,0,B|168:88,1,35
256,88,43334,1,8
448,88,44597,6,0,B|448:128,3,35,2|0|0|0
448,216,45387,2,0,B|448:256,1,35
352,248,45861,2,0,B|304:248,3,35,8|0|0|0
312,152,46650,2,0,B|256:152,1,35
184,152,47124,1,2
184,248,47755,2,0,B|184:336,1,70,2|0
88,320,48387,1,8
48,136,49650,6,0,B|112:48|208:152|320:64,1,280
448,72,51545,1,8
448,208,52176,1,0
448,296,52492,2,0,B|321:354|308:256|323:178,1,210
216,320,54071,1,8
64,320,54703,6,0,B|56:192|192:280|280:216|280:160,1,280
416,184,56597,1,8
416,56,57229,1,0
304,56,57545,2,0,B|288:152|168:64|144:176,1,210
72,48,59124,1,8
48,192,59755,6,0,B|176:128|136:336|288:264,1,280
408,320,61650,1,8
352,192,62282,2,0,B|296:88|168:192|104:48,1,280
440,48,64808,6,0,B|400:48,3,35,2|0|0|0
304,48,65597,2,0,B|264:48,1,35
168,48,66071,2,0,B|168:96,3,35,2|0|0|0
168,184,66861,2,0,B|208:184,1,35
296,184,67334,5,2
296,336,67966,1,8
184,336,68282,1,0
80,336,68597,2,0,B|80:296,7,35,2|0|0|0|8|0|0|0
80,256,69861,5,0
104,88,70492,1,8
240,192,71124,1,0
328,56,71755,1,8
464,160,72387,1,0
376,304,73018,1,8
312,232,73334,1,0
224,280,73650,1,4
72,48,74913,5,0
112,192,75545,1,8
264,288,76176,1,0
352,320,76492,2,0,B|376:288,1,35,2|0
424,264,76808,2,0,B|416:224,3,35,8|0|0|0
432,176,77440,5,0
328,48,78071,1,8
192,128,78703,1,0
104,96,79018,2,0,B|80:128,1,35,0|2
96,208,79492,2,0,B|112:248,1,35,0|2
64,320,79966,5,0
160,288,80282,2,0,B|208:296,1,35,0|2
264,232,80755,2,0,B|304:224,1,35,0|2
376,272,81229,1,0
472,152,81861,1,8
312,200,82492,1,0
336,104,82808,2,0,B|296:88,1,35,0|2
216,128,83282,2,0,B|184:152,3,35,0|0|0|2
80,72,92913,6,0,B|88:112,2,35,0|0|8
224,184,93861,1,0
320,48,94492,1,8
456,224,95440,2,0,B|416:256,2,35,0|0|8
288,336,96387,1,0
120,256,97018,1,8
320,200,97808,6,0,B|336:168,2,35,0|0|2
416,64,98913,1,0
328,64,99229,1,0
256,112,99545,1,8
96,40,100334,6,0,B|64:72,2,35,2|0|0
136,80,100808,2,0,B|168:128,3,35,8|0|0|0
200,192,101597,2,0,B|160:208,2,35
256,192,102071,1,8
256,192,102387,1,6
448,48,103334,5,8
312,112,103966,1,0
392,240,104597,2,0,B|352:320,1,70,8|0
144,336,105861,5,8
176,240,106176,1,0
88,200,106492,1,0
136,48,107124,2,0,B|176:120,1,70,8|4
264,320,108387,5,8
368,200,109018,1,0
280,136,109334,2,0,B|232:152,1,35,0|2
416,48,110282,5,0
448,208,110913,1,8
288,240,111545,1,0
176,208,111861,2,0,B|208:184,1,35,0|2
240,96,112334,2,0,B|288:112,2,35,0|2|0
112,88,113124,6,0,B|128:136,2,35,0|0|8
64,248,114071,1,0
240,184,114703,1,8
456,48,115650,2,0,B|424:80,2,35,0|0|8
392,256,116913,2,0,B|352:240,2,35,0|0|8
128,320,118176,6,0,B|144:288,2,35,0|0|8
64,104,119440,2,0,B|128:112,2,35,0|0|8
296,48,120703,2,0,B|312:80,2,35,0|0|8
208,168,121650,1,2
208,168,121966,1,0
288,232,122282,1,8
288,232,122597,1,0
168,312,123071,6,0,B|136:280,2,35,2|0|0
56,288,123703,1,2
72,80,124492,2,0,B|128:56,2,35,0|0|8
160,128,125124,1,2
312,48,125597,2,0,B|328:80,2,35,2|0|0
416,72,126387,1,2
384,224,127018,2,0,B|400:264,2,35,0|0|8
320,296,127650,1,0
136,256,128282,6,0,B|104:280,2,35,0|0|8
64,96,129229,2,0,B|88:40,2,35
144,160,129861,1,8
280,248,130492,1,0
360,112,131124,1,8
192,48,131755,1,0
112,192,132387,1,8
112,192,132703,1,2
112,192,133018,1,4
112,64,143124,5,0
168,216,143755,1,8
328,288,144387,1,0
432,144,145018,1,8
264,64,145650,1,0
88,120,146282,1,8
40,280,146913,1,0
208,200,147545,1,8
288,344,148176,5,0
440,264,148808,1,8
392,176,149124,1,2
296,136,149439,1,0
224,288,150071,1,8
160,208,150387,1,0
176,112,150703,5,2
72,208,151334,2,0,B|88:240,3,35,8|0|0|0
144,224,151966,1,0
264,96,152597,2,0,B|256:144,3,35,8|0|0|0
256,192,153229,6,0,B|312:88|408:192|472:24,1,280,4|0
296,64,155124,1,8
128,40,155755,2,0,B|72:80|152:144|48:168,1,140,0|8
48,296,157018,2,0,B|104:224|120:360|184:272,1,140,0|8
296,184,158282,2,0,B|376:192|312:280|384:288,1,140,0|8
440,144,159545,1,0
288,72,160176,1,8
136,48,160808,2,0,B|72:176|264:168|208:304,1,280
368,336,162703,1,8
424,264,163018,1,0
344,216,163334,6,0,B|392:184,3,35,2|0|0|0
408,112,164124,2,0,B|400:72,1,35,0|2
296,128,164597,2,0,B|264:96,3,35,2|0|0|0
216,88,165229,2,0,B|208:144,3,35,8|0|0|0
152,120,165861,6,0,B|112:136,3,35,2|0|0|0
64,200,166650,2,0,B|80:240,1,35,0|2
72,328,167124,2,0,B|104:312,3,35,2|0|0|0
136,264,167755,2,0,B|176:272,3,35,8|0|0|0
200,320,168387,6,0,B|248:304,3,35,2|0|0|0
312,256,169176,2,0,B|352:272,1,35,0|2
416,208,169650,2,0,B|424:168,3,35,2|0|0|0
424,80,170439,2,0,B|392:96,1,35,0|2
312,48,170913,5,2
272,200,171545,1,8
208,120,171861,1,0
136,184,172176,2,0,B|104:168,7,35,2|0|0|0|8|0|0|0
72,216,173439,1,4
448,304,183545,6,0,B|480:224|360:256|432:160,1,140,0|8
360,56,184808,1,0
288,184,185439,1,8
160,88,186071,2,0,B|184:160|80:160|128:224,1,140,0|8
56,336,187334,2,0,B|96:264|136:368|208:288,1,140,0|8
368,336,188597,6,0,B|408:280|328:272|376:200,1,140,0|8
224,264,189861,1,0
72,192,190492,1,8
40,48,191124,2,0,B|144:184|336:-8|432:168,1,420
280,224,193650,6,0,B|320:248,3,35,2|0|0|0
224,304,194439,2,0,B|184:320,1,35,0|2
88,304,194913,2,0,B|120:264,3,35,2|0|0|0
88,184,195703,2,0,B|80:144,1,35,0|2
176,152,196176,6,0,B|208:168,3,35
264,248,196966,2,0,B|296:224,1,35
320,144,197439,1,0
176,80,198071,1,8
344,64,198703,6,0,B|360:96,3,35,2|0|0|0
424,168,199492,2,0,B|416:208,1,35,0|2
352,272,199966,2,0,B|320:248,3,35,2|0|0|0
256,176,200755,2,0,B|224:192,1,35,0|2
200,104,201229,1,2
80,208,201861,1,8
168,248,202176,1,0
112,320,202492,2,0,B|144:336,7,35,2|0|0|0|8|0|0|0
192,304,203755,6,0,B|232:288,3,35,2|0|0|0
288,200,204545,2,0,B|296:240,1,35,0|2
392,264,205018,1,0
432,176,205334,1,0
392,88,205650,1,8
304,128,205966,1,0
224,192,206282,6,0,B|192:160,3,35,2|0|0|0
128,96,207071,2,0,B|80:88,1,35,0|2
64,184,207545,1,2
448,96,208808,6,0,B|464:136,3,35,2|0|0|0
408,208,209597,2,0,B|368:216,1,35,0|2
288,272,210071,2,0,B|328:304,3,35,2|0|0|0
192,328,210861,2,0,B|144:328,1,35,0|2
176,232,211334,5,2
64,112,211966,1,8
160,128,212282,1,0
240,64,212597,2,0,B|256:120,7,35,2|0|0|0|8|0|0|0
280,144,213861,1,4
120,88,223966,6,0,B|152:112,3,35,2|0|0|0
104,152,224597,2,0,B|72:176,3,35,2|0|0|0
120,208,225229,2,0,B|152:240,3,35,2|0|0|0
104,272,225861,2,0,B|64:296,3,35,2|0|0|0
120,336,226492,6,0,B|168:328,1,35,2|0
168,272,226808,1,0
216,184,227124,2,0,B|256:216,1,35,2|0
224,256,227439,1,0
336,240,227755,2,0,B|376:208,1,35,2|0
320,176,228071,1,0
400,104,228387,2,0,B|352:80,1,35,2|0
312,112,228703,1,0
224,48,229018,5,2
128,88,229334,1,0
80,176,229650,1,0
176,168,229966,1,0
240,240,230282,1,2
296,160,230597,1,0
304,64,230913,1,0
408,48,231229,1,0
392,136,231545,5,4
440,272,232176,1,0
280,296,232808,1,0
128,240,233518,1,0
256,192,234980,5,4
