osu file format v7

[General]
AudioFilename: 02. Luv Letter (Music by DJ OKAWARI,TSUKINO SORA,TSUNENORI).mp3
AudioLeadIn: 0
PreviewTime: 92597
Countdown: 0
SampleSet: Soft
StackLeniency: 1
Mode: 0
LetterboxInBreaks: 1
SkinPreference:Default

[Editor]
Bookmarks: 12019,29456,49664,64820,69872,85029,92607,112815,133024,143128,153232,163336,173440,183545,193649,203753,213857,223961,234980
DistanceSpacing: 1.5
BeatDivisor: 4
GridSize: 8

[Metadata]
Title:Luv Letter
Artist:DJ Okawari
Creator:EvianBubble
Version:Gold
Source:
Tags:piano instrumental

[Difficulty]
HPDrainRate:6
CircleSize:5
OverallDifficulty:7
SliderMultiplier:1.4
SliderTickRate:1

[Events]
//Background and Video events
0,0,"cover1.png"
//Break Periods
2,83955,92013
2,133218,142224
2,173482,182645
2,214061,223066
//Storyboard Layer 0 (Background)
//Storyboard Layer 1 (Fail)
//Storyboard Layer 2 (Pass)
//Storyboard Layer 3 (Foreground)
//Storyboard Sound Samples
//Background Colour Transformations
3,100,240,227,68

[TimingPoints]
29440,631.578947368421,4,2,0,50,1,0
38129,-100,4,2,0,41,0,0
38602,-100,4,2,0,50,0,0
73493,-100,4,2,0,39,0,0
73967,-100,4,2,0,50,0,0
145492,-100,4,2,0,59,0,0
148018,-100,4,2,0,69,0,0
151176,-100,4,2,0,80,0,0
153232,-100,4,2,0,50,0,1
173440,-100,4,2,0,50,0,0
232793,705.882352941176,4,2,0,50,1,0
234980,812.567713976165,4,2,0,30,1,1
236605,-100,4,2,0,50,0,0

[Colours]
Combo1 : 0,128,0
Combo2 : 80,231,91
Combo3 : 252,196,65
Combo4 : 21,223,214

[HitObjects]
88,72,29440,6,0,B|128:72,1,35,2|0
168,72,29755,1,0
216,72,29913,1,2
320,72,30229,2,0,B|360:72,1,35,2|0
464,72,30703,1,8
464,224,31334,1,0
304,224,31966,6,0,B|304:264,1,35,2|0
304,304,32282,1,0
256,304,32440,1,2
144,304,32755,2,0,B|96:304,1,35,2|0
112,200,33229,1,8
456,304,34492,6,0,B|456:256,1,35,2|0
456,224,34808,1,0
456,176,34966,1,2
456,64,35282,2,0,B|416:64,1,35,2|0
304,64,35755,2,0,B|304:120,3,35,10|0|0|2
304,200,36545,1,2
256,200,36703,1,0
144,200,37018,5,2
208,128,37334,1,0
80,128,37650,1,2
80,264,37966,1,0
208,264,38282,1,4
424,56,39545,6,0,B|424:104,2,35,2|0|0
376,56,40018,1,2
264,56,40334,2,0,B|264:96,1,35,2|0
264,192,40808,1,8
104,192,41440,1,0
104,336,42071,6,0,B|144:336,2,35,2|0|0
104,288,42545,1,2
216,288,42861,2,0,B|256:288,1,35,2|0
360,288,43334,1,8
96,64,44597,6,0,B|144:64,3,35,2|0|0|2
232,64,45387,1,2
280,64,45545,1,0
392,64,45861,2,0,B|392:104,3,35,8|0|0|2
392,200,46650,2,0,B|392:240,1,35,2|0
272,232,47124,5,2
104,232,47755,2,0,B|104:152,1,70,2|0
104,72,48387,1,8
400,72,49650,6,0,B|288:128|336:288|224:304,1,280
88,296,51545,1,8
88,160,52176,2,0,B|128:160,3,35,0|0|0|2
232,160,52966,2,0,B|232:112,1,35,2|0
352,128,53440,1,8
80,320,54703,6,0,B|224:296|136:144|272:96,1,280,0|0
88,112,56597,1,8
88,256,57229,1,2
208,256,57545,1,0
256,144,57861,1,2
152,72,58176,1,0
48,144,58492,1,8
448,96,59755,6,0,B|304:176|232:48|168:96,1,280,0|0
120,208,61650,1,8
56,328,62282,2,0,B|176:368|240:248|336:344,1,280
440,48,64808,6,0,B|440:96,3,35,2|0|0|2
440,184,65597,2,2,B|440:224,1,35,0|2
440,312,66071,1,2
400,352,66229,1,0
360,312,66387,1,0
400,272,66545,1,2
296,272,66861,1,0
256,304,67018,1,2
152,304,67334,5,2
200,168,67966,2,0,B|104:144,1,70,8|0
80,80,68597,2,0,B|128:80,3,35,2|0|0|2
152,48,69229,2,0,B|192:32,3,35,8|0|0|2
224,64,69861,6,0,B|168:128,1,70,2|0
144,208,70492,1,8
280,280,71124,2,0,B|312:208,1,70,2|0
368,144,71755,1,8
448,280,72387,1,2
312,280,72703,1,0
312,144,73018,1,8
448,144,73334,1,0
376,216,73650,1,4
80,48,74913,6,0,B|144:96,1,70,0|0
224,48,75545,1,8
248,152,75861,1,0
144,200,76176,1,2
120,288,76492,1,0
168,288,76650,1,0
216,288,76808,2,0,B|216:248,1,35,8|0
264,256,77124,1,2
240,216,77282,1,0
240,168,77440,6,0,B|264:96,1,70,2|0
360,104,78071,2,0,B|408:192,1,70,8|0
464,120,78703,1,0
424,248,79018,1,0
456,288,79176,1,2
352,248,79492,1,0
312,280,79650,1,2
192,280,79966,5,0
80,280,80282,2,0,B|112:240,1,35,0|2
160,176,80755,2,0,B|136:208,1,35,0|2
80,104,81229,1,2
208,104,81545,1,0
208,232,81861,1,8
80,232,82176,1,0
144,336,82492,5,0
272,336,82808,1,0
248,296,82966,1,2
320,224,83282,2,0,B|304:264,3,35,0|2|0|2
344,72,92913,5,0
312,112,93071,1,0
360,120,93229,1,8
360,256,93861,1,0
272,336,94176,1,0
168,272,94492,1,8
112,48,95440,5,0
160,56,95597,1,0
200,88,95755,1,8
208,208,96387,2,0,B|128:240,1,70,0|0
200,312,97018,1,8
296,176,97808,6,0,B|344:160,2,35,2|0|2
448,320,98913,1,0
416,208,99229,1,0
312,264,99545,1,8
232,72,100334,6,0,B|192:56,2,35,0|2|0
280,72,100808,2,0,B|264:120,3,35,8|0|0|0
280,216,101597,2,0,B|336:184,2,35,2|0|0
232,208,102071,1,8
232,208,102387,1,2
232,208,102703,1,4
128,48,103334,5,8
248,48,103650,1,0
320,152,103966,1,2
256,256,104282,1,0
128,256,104597,1,8
64,144,104913,1,2
288,88,105861,5,8
296,192,106176,1,0
208,256,106492,1,2
104,216,106808,1,0
88,104,107124,1,8
192,48,107440,1,2
368,48,108071,5,0
432,152,108387,2,0,B|384:216,1,70,8|0
288,184,109018,1,0
184,216,109334,2,0,B|160:184,1,35,0|2
160,48,109966,2,0,B|200:72,1,35,0|2
224,96,110282,5,0
144,176,110597,1,0
224,256,110913,1,8
304,176,111229,1,0
432,160,111545,1,0
432,264,111861,2,0,B|400:288,1,35,2|0
296,256,112334,2,0,B|272:304,2,35,2|0|2
152,304,113124,6,0,B|120:272,2,35,2|0|8
152,168,114071,1,2
248,104,114387,1,0
368,80,114703,1,8
304,280,115650,2,0,B|272:248,2,35,2|0|8
144,248,116597,1,0
112,160,116913,2,0,B|152:128,2,35,2|0|8
408,80,118176,5,0
360,80,118334,1,0
320,48,118492,1,8
112,128,119440,1,0
160,128,119597,1,0
184,168,119755,1,8
432,176,120703,6,0,B|472:216,2,35,0|0|8
320,176,121334,1,0
384,280,121650,1,2
264,240,121966,1,0
168,320,122282,1,8
208,232,122597,1,0
184,96,123071,5,0
208,136,123229,1,2
256,128,123387,1,0
376,128,123703,1,2
376,328,124492,1,2
344,288,124650,1,0
296,304,124808,1,8
296,200,125124,1,0
128,200,125597,6,0,B|160:232,2,35,2|0|2
152,56,126387,1,0
312,72,127018,2,0,B|280:88,2,35,2|0|8
392,96,127650,1,0
424,272,128282,6,0,B|456:248,2,35,0|2|8
248,208,129229,2,0,B|208:200,2,35,0|2|0
296,304,129861,1,8
184,280,130176,1,0
136,200,130492,5,2
184,208,130650,1,0
144,48,131124,1,8
184,80,131282,1,2
288,96,131597,1,0
336,80,131755,2,0,B|296:152,1,70,2|0
240,224,132387,1,8
240,224,132703,1,2
240,224,133018,1,4
360,144,143124,6,0,B|304:96,1,70,2|0
200,96,143755,2,0,B|144:160,1,70,8|0
152,248,144387,2,0,B|208:296,1,70,2|0
304,296,145018,2,0,B|376:248,1,70,8|0
336,120,145650,5,2
256,96,145966,1,0
176,128,146282,1,8
152,200,146597,1,0
176,272,146913,1,2
256,296,147229,1,0
336,280,147545,1,8
360,200,147861,1,0
296,104,148176,5,2
216,112,148492,1,0
160,168,148808,2,0,B|160:208,3,35,8|0|0|2
160,232,149439,1,2
216,288,149755,1,0
296,296,150071,2,0,B|336:256,3,35,8|0|0|2
352,240,150703,1,2
336,160,151018,1,0
256,112,151334,6,0,B|216:128,1,35,2|0
184,152,151650,1,2
168,200,151808,1,0
176,248,151966,1,8
328,272,152597,1,10
352,224,152755,1,0
344,168,152913,1,2
312,128,153071,1,0
256,120,153229,6,0,B|168:240|48:192|56:56,1,280,4|0
208,64,155124,1,8
368,48,155755,2,0,B|408:72,1,35,2|0
424,104,156071,1,0
376,120,156229,1,2
304,200,156545,2,0,B|264:208,1,35,0|2
344,288,157018,1,2
136,64,158282,6,0,B|120:128|224:104|216:192,1,140,0|8
336,56,159545,1,2
272,192,160176,1,8
416,288,160808,5,0
256,328,161439,1,8
200,240,161755,1,0
80,256,162071,2,0,B|48:224,3,35,2|0|0|2
88,192,162703,2,0,B|136:184,3,35,8|0|0|2
112,136,163334,6,0,B|120:96,1,35,2|0
168,104,163650,1,0
200,136,163808,1,2
176,240,164124,1,0
224,232,164282,1,2
312,160,164597,2,0,B|288:128,3,35,2|0|0|2
336,112,165229,2,0,B|328:72,3,35,8|0|0|2
376,88,165861,6,0,B|424:64,3,35,2|0|0|2
392,176,166650,2,0,B|408:208,1,35,0|2
312,264,167124,2,0,B|360:256,3,35,2|0|0|2
328,216,167755,2,0,B|296:192,3,35,8|0|0|2
272,232,168387,6,0,B|224:248,3,35,2|0|0|2
160,328,169176,2,0,B|120:312,1,35,0|2
56,224,169650,2,0,B|88:200,1,35,2|0
72,160,169966,1,0
96,128,170124,1,2
192,176,170439,1,0
184,136,170597,1,2
288,72,170913,5,2
448,48,171545,1,8
368,104,171861,1,0
312,176,172176,1,2
360,192,172334,1,0
379,240,172492,1,0
360,280,172650,1,2
308,298,172808,1,8
263,279,172966,1,0
249,235,173124,1,0
267,190,173282,1,2
352,72,183545,6,0,B|320:112,1,35,2|0
288,96,183861,1,0
280,136,184018,1,2
384,176,184334,2,0,B|392:216,1,35,0|2
448,288,184808,1,0
352,328,185124,1,0
288,240,185439,1,8
120,320,186071,6,0,B|88:296,1,35,2|0
120,264,186387,1,0
160,240,186545,1,2
112,152,186861,2,0,B|160:168,1,35,0|2
248,200,187334,1,0
208,56,187966,1,8
368,128,188597,6,0,B|384:96,3,35,2|0|0|2
280,160,189387,2,0,B|328:176,1,35,0|2
352,272,189861,2,0,B|320:296,1,35,2|0
288,272,190176,1,0
248,248,190334,1,2
160,320,190650,1,0
120,336,190808,1,2
56,256,191124,5,2
120,112,191755,1,8
168,192,192071,1,0
264,160,192387,2,0,B|272:208,7,35,2|0|0|2|8|0|0|2
312,184,193650,6,0,B|352:176,3,35,2|0|0|2
408,104,194439,2,0,B|368:72,1,35,0|2
288,104,194913,1,2
208,184,195229,1,0
104,144,195545,1,8
168,296,196176,6,0,B|112:272,3,35,2|0|0|2
240,224,196966,2,0,B|280:208,1,35,0|2
320,296,197439,1,0
464,240,198071,1,8
384,96,198703,6,0,B|392:136,3,35,2|0|0|2
352,224,199492,2,0,B|392:208,1,35,0|2
288,152,199966,2,0,B|248:160,1,35,2|0
224,128,200282,1,0
200,168,200439,1,2
256,256,200755,1,0
216,240,200913,1,2
136,320,201229,5,2
72,168,201861,1,8
112,72,202176,1,0
176,152,202492,2,0,B|224:136,3,35,2|0|0|2
208,96,203124,2,0,B|192:56,3,35,8|0|0|2
240,64,203755,6,0,B|272:40,1,35,2|0
296,72,204071,1,0
344,72,204229,1,2
432,128,204545,2,0,B|472:96,1,35,0|2
448,208,205018,1,2
376,296,205334,1,0
280,216,205650,1,10
160,256,205966,1,0
72,328,206282,6,0,B|120:320,1,35,2|0
104,280,206597,1,0
72,248,206755,1,2
152,168,207071,1,0
160,128,207229,1,2
56,96,207545,1,0
224,48,208176,1,8
304,192,208808,6,0,B|328:160,3,35,2|0|0|2
424,192,209597,1,0
440,232,209755,1,2
336,304,210071,1,2
312,264,210229,1,0
272,240,210387,1,0
248,280,210545,1,2
152,336,210861,2,0,B|168:304,1,35,0|2
160,200,211334,5,2
240,64,211966,1,8
328,120,212282,1,0
240,176,212597,2,0,B|280:208,7,35,2|0|0|2|8|0|0|2
248,240,213861,1,4
144,120,223966,6,0,B|176:96,1,35,2|0
216,88,224282,1,0
248,120,224439,1,0
224,160,224597,2,0,B|184:208,1,35,2|0
168,216,224913,1,0
176,264,225071,1,0
216,280,225229,2,0,B|256:272,1,35,2|0
288,248,225545,1,0
312,208,225703,1,0
296,168,225861,2,0,B|304:112,1,35,2|0
320,96,226176,1,0
368,104,226334,1,0
384,144,226492,6,0,B|432:128,3,35,2|0|0|2
408,192,227124,2,0,B|384:232,3,35,0|0|2|0
368,256,227755,2,0,B|320:240,3,35,0|2|0|0
320,280,228387,2,0,B|272:280,3,35,2|0|2|0
248,272,229018,6,0,B|208:288,1,35,2|0
176,256,229334,1,0
88,192,229650,2,0,B|128:176,1,35,0|0
96,136,229966,1,0
208,80,230282,2,0,B|192:120,1,35,2|0
208,152,230597,1,0
336,120,230913,2,0,B|360:80,1,35,0|0
400,80,231229,1,0
416,192,231545,5,4
368,288,231861,1,2
256,328,232176,1,0
144,288,232492,1,2
104,192,232793,1,0
160,88,233145,1,2
264,64,233498,1,0
360,104,233851,1,2
256,192,234980,5,4
