osu file format v7

[General]
AudioFilename: 02. Luv Letter (Music by DJ OKAWARI,TSUKINO SORA,TSUNENORI).mp3
AudioLeadIn: 0
PreviewTime: 92597
Countdown: 0
SampleSet: Soft
StackLeniency: 0.7
Mode: 0
LetterboxInBreaks: 1
SkinPreference:Default

[Editor]
Bookmarks: 29447,49664,64820,69872,85029,92607,112815,133024,143128,153232,163336,173440,183545,193649,203753,213857,223961,234980
DistanceSpacing: 1
BeatDivisor: 4
GridSize: 8

[Metadata]
Title:Luv Letter
Artist:DJ Okawari
Creator:EvianBubble
Version:Bronze
Source:
Tags:piano instrumental tsukino sora tsunenori

[Difficulty]
HPDrainRate:3
CircleSize:4
OverallDifficulty:3
SliderMultiplier:1.4
SliderTickRate:1

[Events]
//Background and Video events
0,0,"cover1.png"
//Break Periods
2,83955,91473
2,133218,141684
2,173481,182105
2,198271,202315
2,213902,222526
//Storyboard Layer 0 (Background)
//Storyboard Layer 1 (Fail)
//Storyboard Layer 2 (Pass)
//Storyboard Layer 3 (Foreground)
//Storyboard Sound Samples
//Background Colour Transformations
3,100,128,64,0

[TimingPoints]
29440,631.578947368421,4,2,0,50,1,0
73336,-100,4,2,0,38,0,0
73967,-100,4,2,0,49,0,0
97649,-100,4,2,0,60,0,0
98280,-100,4,2,0,50,0,0
132856,-100,4,2,0,30,0,0
133334,-100,4,2,0,51,0,0
145012,-100,4,2,0,60,0,0
147538,-100,4,2,0,71,0,0
150538,-100,4,2,0,79,0,0
153232,-100,4,2,0,50,0,1
173440,-100,4,2,0,50,0,0
234980,812.567713976165,4,2,0,31,1,1
236605,-100,4,2,0,50,0,0

[Colours]
Combo1 : 0,155,0
Combo2 : 30,215,44
Combo3 : 252,196,65
Combo4 : 21,223,214

[HitObjects]
112,64,29440,5,2
184,64,29755,1,0
320,64,30387,1,0
392,64,30703,1,8
392,200,31334,1,0
248,200,31966,5,2
176,200,32282,1,0
176,40,33229,1,8
440,40,34492,5,2
440,112,34808,1,0
440,256,35440,1,0
440,328,35755,1,8
376,296,36071,1,0
224,296,36703,1,0
152,296,37018,5,2
152,144,37650,1,0
288,144,38282,1,8
448,320,39545,6,0,B|448:240,1,70,0|2
448,120,40492,1,0
392,72,40808,1,8
232,72,41440,1,0
64,72,42071,6,0,B|64:152,1,70,0|2
64,264,43018,1,0
64,336,43334,1,8
408,336,44597,5,0
408,264,44913,1,2
408,128,45545,1,0
408,56,45861,2,0,B|328:56,1,70,8|0
200,56,46808,1,0
200,128,47124,1,2
200,264,47755,2,0,B|200:344,1,70,0|0
128,336,48387,1,8
64,64,49650,6,0,B|160:32|216:168|336:64,1,280
464,72,51545,1,8
464,192,52176,1,2
464,312,52808,2,0,B|432:248|392:384|320:288,1,140,8|0
440,64,54703,6,0,B|344:64|352:248|208:232,1,280
96,232,56597,1,8
96,104,57229,1,2
240,104,57861,1,8
376,104,58492,1,0
424,320,59755,6,0,B|432:176|248:280|248:120,1,280
128,136,61650,1,8
128,256,62282,1,2
256,256,62913,2,0,B|320:208|320:296|408:248,1,140,8|0
256,192,64808,5,2
304,136,65124,1,0
392,240,65755,1,2
432,304,66071,1,2
352,304,66387,1,0
192,304,67018,1,0
120,304,67334,5,2
120,176,67966,1,8
120,104,68282,1,0
192,104,68597,2,0,B|160:168|224:184|184:216,2,105
264,104,69861,5,2
416,288,71124,1,2
120,288,72387,1,2
120,168,73018,1,8
120,48,73650,1,4
408,48,74913,5,2
320,152,75545,1,8
176,152,76176,1,2
232,200,76492,1,0
176,248,76808,1,8
120,200,77124,1,0
64,152,77440,5,2
64,296,78071,1,8
208,296,78703,1,0
280,296,79018,2,0,B|352:296,2,70,0|8|0
312,232,79966,5,2
360,176,80282,1,0
304,56,80913,1,0
256,112,81229,1,2
208,56,81545,1,0
64,56,82176,1,0
64,128,82492,5,2
136,128,82808,2,0,B|136:232,2,70,0|8|0
208,128,83755,1,0
304,136,92913,5,0
248,88,93229,1,8
112,88,93861,2,0,B|112:240,1,140,0|8
296,328,95440,5,0
368,328,95755,1,8
368,184,96387,2,0,B|440:136,1,70,2|0
424,72,97018,1,8
264,72,97808,6,0,B|224:104,2,35,0|0|2
104,72,98913,1,0
70,135,99229,1,0
141,135,99545,1,8
200,280,100176,5,0
344,280,100808,1,8
392,112,101755,1,0
328,72,102071,1,8
328,72,102387,1,6
192,224,103334,5,8
344,224,103966,1,0
264,112,104597,1,8
192,112,104913,1,0
384,112,105861,5,8
384,240,106492,1,0
240,240,107124,2,0,B|144:240,1,70,8|0
168,72,108387,5,8
296,72,109018,1,0
368,72,109334,2,0,B|368:112,1,35,2|0
368,240,110282,5,0
216,240,110913,1,8
80,176,111545,1,2
64,104,111861,2,0,B|96:80,1,35,0|2
160,104,112334,2,0,B|200:136,2,35,0|0|2
272,120,113124,5,0
336,152,113440,1,8
456,64,114071,1,0
456,216,114703,1,8
288,312,115650,6,0,B|224:256,1,70,0|8
224,56,116913,2,0,B|152:96,1,70,0|8
432,96,118176,6,0,B|392:184,1,70,0|8
400,336,119440,2,0,B|320:320,1,70,0|8
104,320,120703,6,0,B|104:232,1,70,0|8
104,120,121650,1,0
256,120,122282,1,8
328,120,122597,1,0
432,208,123071,6,0,B|360:264,2,70
432,320,124176,1,2
296,320,124808,1,8
224,320,125124,1,0
88,320,125597,6,0,B|88:280,2,35
88,200,126387,1,2
88,56,127018,2,0,B|168:96,1,70,0|8
216,120,127650,1,0
360,56,128282,5,0
424,88,128597,1,8
424,216,129229,2,0,B|456:240,2,35
352,192,129861,1,8
200,192,130492,5,0
256,64,131124,1,8
120,88,131755,2,0,B|64:152,1,70
112,200,132387,1,8
112,200,132703,1,2
112,200,133018,1,4
416,56,143124,5,2
416,328,144387,1,2
96,328,145650,1,2
96,56,146913,1,2
288,248,148176,5,0
288,120,148808,2,0,B|208:120,1,70,8|0
144,120,149439,1,0
144,248,150071,2,0,B|216:248,1,70,8|0
216,320,150703,5,0
360,320,151334,2,0,B|360:240,1,70,8|0
432,248,151966,1,0
432,112,152597,2,0,B|336:112,1,70,8|0
288,112,153229,6,0,B|208:64|216:184|144:128,1,140,4|8
64,232,154492,2,0,B|136:208|120:304|200:272,1,140,0|8
304,328,155755,1,2
424,112,157018,1,0
160,56,158282,6,0,B|72:128|272:176|144:320,1,280
304,288,160176,1,8
408,224,160808,2,0,B|376:96|224:216|192:64,1,280
328,40,162703,1,8
384,88,163018,1,0
376,160,163334,6,0,B|296:176,1,70,0|2
368,280,164282,1,0
304,232,164597,2,0,B|224:280,1,70,2|0
184,304,165229,1,8
112,288,165545,1,0
80,224,165861,6,0,B|112:160,1,70,0|2
248,208,166808,1,0
320,192,167124,2,0,B|376:136,1,70,2|0
336,80,167755,1,8
272,112,168071,1,0
208,80,168387,6,0,B|160:168,1,70,0|2
224,248,169334,1,0
288,288,169650,1,8
360,272,169966,1,0
432,160,170597,5,0
416,88,170913,1,8
280,144,171545,1,2
336,192,171861,1,0
296,248,172176,2,0,B|336:272,7,35,2|0|0|2|8|0|0|0
176,64,183545,6,0,B|96:128,1,70,0|2
56,240,184492,1,0
128,232,184808,2,0,B|208:240,1,70,2|0
256,192,185439,1,8
320,72,186071,6,0,B|408:32,1,70,0|2
456,136,187018,1,0
392,168,187334,1,2
424,288,187966,1,8
296,240,188597,5,2
328,304,188913,1,0
192,296,189545,1,2
144,240,189861,1,2
72,256,190176,1,0
88,144,190808,1,2
80,72,191124,5,2
192,128,191755,1,8
160,192,192071,1,0
216,240,192387,2,0,B|240:272|272:216|320:240,2,105
248,176,193650,5,2
296,120,193966,1,0
448,72,194597,1,0
416,136,194913,1,2
288,200,195545,1,8
416,240,196176,5,2
432,312,196492,1,0
296,336,197124,1,0
248,280,197439,1,2
176,168,198071,1,8
256,64,203755,6,0,B|176:72,1,70,0|2
64,64,204703,1,0
112,120,205018,2,0,B|200:160,1,70,2|0
208,216,205650,1,8
72,264,206282,6,0,B|160:296,1,70,0|2
264,344,207229,1,0
232,280,207545,1,2
384,240,208176,1,8
464,120,208808,5,2
416,64,209124,1,0
328,152,209755,1,2
264,120,210071,2,0,B|240:200,1,70,2|0
288,296,211018,1,2
216,312,211334,5,4
104,256,211966,1,8
120,184,212282,1,0
184,224,212597,2,0,B|224:216,7,35,2|0|0|0|8|0|0|0
440,240,223966,5,2
408,304,224282,1,0
336,288,224597,1,0
208,208,225229,1,2
136,232,225545,1,0
72,192,225861,1,0
104,80,226492,6,0,B|144:152,1,70,2|0
200,104,227124,2,0,B|288:88,1,70,0|0
328,136,227755,2,0,B|264:200,1,70,2|0
224,232,228387,2,0,B|240:328,1,70
304,280,229018,5,2
416,208,229650,1,0
352,72,230282,1,0
272,176,230913,1,0
216,304,231545,5,0
88,72,232808,1,0
256,192,234980,5,4
