osu file format v9

[General]
AudioFilename: Flower Dance.mp3
AudioLeadIn: 0
PreviewTime: 103373
Countdown: 0
SampleSet: Soft
StackLeniency: 0.7
Mode: 0
LetterboxInBreaks: 1

[Editor]
Bookmarks: 45000,70000,95000,98573,120000,145000,170000,195000,220000
DistanceSpacing: 0.8
BeatDivisor: 4
GridSize: 8

[Metadata]
Title:Flower Dance
Artist:DJ Okawari
Creator:spboxer3
Version:Yuki YukI
Source:
Tags:Yumeko Yuki

[Difficulty]
HPDrainRate:7
CircleSize:4
OverallDifficulty:7
ApproachRate:7
SliderMultiplier:1.6
SliderTickRate:0.5

[Events]
//Background and Video events
0,0,"Flower Dance.jpg"
//Break Periods
2,122782,140882
2,158782,160082
//Storyboard Layer 0 (Background)
//Storyboard Layer 1 (Fail)
//Storyboard Layer 2 (Pass)
//Storyboard Layer 3 (Foreground)
//Storyboard Sound Samples
//Background Colour Transformations
3,100,163,162,255

[TimingPoints]
26582,600,4,2,1,30,1,0
33773,-200,4,2,1,30,0,0
39923,-100,4,2,1,30,0,0
44873,-100,4,1,1,30,0,0
45773,-100,4,1,1,60,0,0
45923,-100,4,2,1,60,0,0
47123,-100,4,1,1,60,0,0
47423,-100,4,2,1,60,0,0
48173,-100,4,1,1,60,0,0
48323,-100,4,2,1,60,0,0
49523,-100,4,1,1,60,0,0
49823,-100,4,2,1,60,0,0
50573,-100,4,1,1,60,0,0
50723,-100,4,2,1,60,0,0
51923,-100,4,1,1,60,0,0
52223,-100,4,2,1,60,0,0
52823,-100,4,1,1,60,0,0
53123,-100,4,2,1,60,0,0
54323,-100,4,1,1,60,0,0
54623,-100,4,2,1,60,0,0
55223,-100,4,1,1,60,0,0
55523,-100,4,2,1,60,0,0
56723,-100,4,1,1,60,0,0
57023,-100,4,2,1,60,0,0
57773,-100,4,1,1,60,0,0
57923,-100,4,2,1,60,0,0
59123,-100,4,1,1,60,0,0
59423,-100,4,2,1,60,0,0
60173,-100,4,1,1,60,0,0
60323,-100,4,2,1,60,0,0
62573,-100,4,1,1,60,0,0
62723,-100,4,2,1,60,0,0
63923,-100,4,1,1,60,0,0
64223,-100,4,2,1,60,0,0
64373,-100,4,2,1,60,0,0
64823,-100,4,1,1,60,0,0
65123,-100,4,2,1,60,0,0
66323,-100,4,1,1,60,0,0
66623,-100,4,2,1,60,0,0
67223,-100,4,1,1,60,0,0
67523,-100,4,2,1,60,0,0
69623,-100,4,1,1,60,0,0
69923,-100,4,2,1,60,0,0
71123,-100,4,1,1,60,0,0
71373,-100,4,2,1,60,0,0
72182,-100,4,1,1,60,0,0
72482,-100,4,2,1,60,0,0
73682,-100,4,1,1,60,0,0
73982,-100,4,2,1,60,0,0
74423,-100,4,1,1,60,0,0
74723,-100,4,2,1,60,0,0
75923,-100,4,1,1,60,0,0
76223,-100,4,2,1,60,0,0
76823,-100,4,1,1,60,0,0
77123,-100,4,2,1,60,0,0
83573,-100,4,1,1,60,0,0
83873,-100,4,2,1,60,0,0
84023,-100,4,1,1,60,0,0
84323,-100,4,2,1,60,0,0
85673,-100,4,1,1,60,0,0
85973,-100,4,2,1,60,0,0
86423,-100,4,2,1,60,0,0
88823,-100,4,1,1,60,0,0
89123,-100,4,2,1,60,0,0
90323,-100,4,1,1,60,0,0
90548,-100,4,2,1,60,0,0
91223,-100,4,2,1,60,0,0
92873,-100,4,1,1,60,0,0
93173,-100,4,2,1,60,0,0
93773,-100,4,1,1,60,0,0
93923,-100,4,2,1,60,0,0
95273,-100,4,1,1,60,0,0
95573,-100,4,2,1,60,0,0
96023,-100,4,1,1,60,0,0
96323,-100,4,2,1,60,0,0
102473,-100,4,1,1,60,0,0
102623,-100,4,2,1,60,0,0
103373,-100,4,1,1,80,0,1
103523,-100,4,2,1,80,0,1
104723,-100,4,1,1,80,0,1
105023,-100,4,2,1,80,0,1
105773,-100,4,1,1,80,0,1
105923,-100,4,2,1,80,0,1
107123,-100,4,1,1,80,0,1
107423,-100,4,2,1,80,0,1
108173,-100,4,1,1,80,0,1
108323,-100,4,2,1,80,0,1
109523,-100,4,1,1,80,0,1
109823,-100,4,2,1,80,0,1
110423,-100,4,1,1,80,0,1
110723,-100,4,2,1,80,0,1
111923,-100,4,1,1,80,0,1
112223,-100,4,2,1,80,0,1
112823,-100,4,1,1,80,0,1
113123,-100,4,2,1,80,0,1
114323,-100,4,1,1,80,0,1
114623,-100,4,2,1,80,0,1
115373,-100,4,1,1,80,0,1
115523,-100,4,2,1,80,0,1
116723,-100,4,1,1,80,0,1
117023,-100,4,2,1,80,0,1
117773,-100,4,1,1,80,0,1
117923,-100,4,2,1,80,0,1
120173,-100,4,1,1,80,0,1
120323,-100,4,2,1,80,0,1
121523,-100,4,1,1,80,0,1
121823,-100,4,2,1,80,0,1
122573,-100,4,2,1,45,0,0
160823,-100,4,1,1,60,0,0
161123,-100,4,2,1,60,0,0
162323,-100,4,1,1,60,0,0
162623,-100,4,2,1,60,0,0
163373,-100,4,1,1,60,0,0
163673,-100,4,2,1,60,0,0
164723,-100,4,1,1,60,0,0
165023,-100,4,2,1,60,0,0
165623,-100,4,1,1,60,0,0
165923,-100,4,2,1,60,0,0
167123,-100,4,1,1,60,0,0
167423,-100,4,2,1,60,0,0
168173,-100,4,1,1,60,0,0
168473,-100,4,2,1,60,0,0
169523,-100,4,1,1,60,0,0
169823,-100,4,2,1,60,0,0
170423,-100,4,1,1,60,0,0
170723,-100,4,2,1,60,0,0
171923,-100,4,1,1,60,0,0
172223,-100,4,2,1,60,0,0
172973,-100,4,1,1,60,0,0
173123,-100,4,2,1,60,0,0
174323,-100,4,1,1,60,0,0
174623,-100,4,2,1,60,0,0
175223,-100,4,1,1,60,0,0
175523,-100,4,2,1,60,0,0
176873,-100,4,1,1,60,0,0
177173,-100,4,2,1,60,0,0
178073,-100,4,2,1,20,0,0
178223,-100,4,2,1,20,0,0
178373,-100,4,2,1,20,0,0
178523,-100,4,2,1,30,0,0
178673,-100,4,2,1,30,0,0
178823,-100,4,2,1,40,0,0
178973,-100,4,2,1,40,0,0
179123,-100,4,2,1,50,0,0
179273,-100,4,2,1,50,0,0
179423,-100,4,2,1,60,0,0
179573,-100,4,2,1,60,0,0
180023,-100,4,1,1,60,0,0
180323,-100,4,2,1,60,0,0
181523,-100,4,1,1,60,0,0
181823,-100,4,2,1,60,0,0
182573,-100,4,1,1,60,0,0
182723,-100,4,2,1,60,0,0
183923,-100,4,1,1,60,0,0
184223,-100,4,2,1,60,0,0
184823,-100,4,1,1,60,0,0
185123,-100,4,2,1,60,0,0
186323,-100,4,1,1,60,0,0
186623,-100,4,2,1,60,0,0
187373,-100,4,1,1,60,0,0
187523,-100,4,2,1,60,0,0
189623,-100,4,1,1,60,0,0
189923,-100,4,2,1,60,0,0
191273,-100,4,1,1,60,0,0
191423,-100,4,2,1,60,0,0
192173,-100,4,1,1,60,0,0
192323,-100,4,2,1,60,0,0
193523,-100,4,1,1,60,0,0
193823,-100,4,2,1,60,0,0
194423,-100,4,1,1,60,0,0
194723,-100,4,2,1,60,0,0
196073,-100,4,1,1,60,0,0
196223,-100,4,2,1,60,0,0
197273,-100,4,2,1,20,0,0
197573,-100,4,2,1,30,0,0
197873,-100,4,2,1,40,0,0
198173,-100,4,2,1,50,0,0
198473,-100,4,2,1,60,0,0
198773,-100,4,2,1,60,0,0
199373,-100,4,1,1,60,0,0
199523,-100,4,2,1,60,0,0
201773,-100,4,1,1,50,0,1
201923,-100,4,2,1,50,0,1
203123,-100,4,1,1,50,0,1
203423,-100,4,2,1,50,0,1
204173,-100,4,1,1,50,0,1
204323,-100,4,2,1,50,0,1
205523,-100,4,1,1,50,0,1
205823,-100,4,2,1,50,0,1
206573,-100,4,1,1,50,0,1
206723,-100,4,2,1,50,0,1
208073,-100,4,1,1,50,0,1
208223,-100,4,2,1,50,0,1
208823,-100,4,1,1,50,0,1
209123,-100,4,2,1,50,0,1
210323,-100,4,1,1,50,0,1
210623,-100,4,2,1,50,0,1
211223,-100,4,1,1,50,0,1
211523,-100,4,2,1,50,0,1
212723,-100,4,1,1,50,0,1
213023,-100,4,2,1,50,0,1
213773,-100,4,1,1,50,0,1
213923,-100,4,2,1,50,0,1
215123,-100,4,1,1,50,0,1
215423,-100,4,2,1,50,0,1
216173,-100,4,1,1,50,0,1
216323,-100,4,2,1,50,0,1
217673,-100,4,1,1,50,0,1
217823,-100,4,2,1,50,0,1
218573,-100,4,1,1,50,0,1
218723,-100,4,2,1,50,0,1
220823,-100,4,2,1,50,0,0
220973,-100,4,1,1,50,0,1
221123,-100,4,2,1,50,0,1
222323,-100,4,1,1,50,0,1
222623,-100,4,2,1,50,0,1
223373,-100,4,1,1,50,0,1
223523,-100,4,2,1,50,0,1
224723,-100,4,1,1,50,0,1
225023,-100,4,2,1,50,0,1
225773,-100,4,1,1,50,0,1
225923,-100,4,2,1,50,0,1
227123,-100,4,1,1,50,0,1
227423,-100,4,2,1,50,0,1
228023,-100,4,1,1,50,0,1
228323,-100,4,2,1,50,0,1
230573,-100,4,1,1,50,0,1
230723,-100,4,2,1,50,0,1
231923,-100,4,1,1,50,0,1
232223,-100,4,2,1,50,0,1
232973,-100,4,1,1,50,0,1
233123,-100,4,2,1,50,0,1
234323,-100,4,1,1,50,0,1
234623,-100,4,2,1,50,0,1
235373,-100,4,1,1,50,0,1
235523,-100,4,2,1,50,0,1
236873,-100,4,1,1,50,0,1
237023,-100,4,2,1,50,0,1
237773,-100,4,1,1,50,0,1
237923,-100,4,2,1,50,0,1
239273,-100,4,1,1,50,0,1
239573,-100,4,2,1,50,0,1
240023,-100,4,1,1,50,0,1
240323,-100,4,2,1,50,0,0

[Colours]
Combo1 : 0,128,255
Combo2 : 128,255,128
Combo3 : 255,255,128
Combo4 : 255,128,128

[HitObjects]
104,76,26582,2,0,B|184:120,1,80
180,248,27332,2,0,B|144:288,3,40
312,192,28382,1,0
448,56,28982,2,0,B|324:56,1,120,0|2
296,56,29582,2,0,B|172:56,1,120,0|2
140,56,30182,2,0,B|96:76|80:120|80:164|108:196,1,160,0|2
328,288,31382,5,0
328,96,31982,1,2
168,192,32582,1,0
128,192,32882,2,0,B|96:192,3,26.6666666666667
64,192,33482,1,0
256,192,33782,12,0,35882
256,152,36182,5,0
352,296,36932,5,0
320,320,37082,1,0
280,328,37232,1,0
240,320,37382,1,0
280,192,37982,1,2
256,64,38582,1,0
168,152,38882,1,2
216,48,39182,1,0
128,136,39482,1,2
48,208,39782,5,0
64,248,39932,2,0,B|96:288,1,40
120,304,40232,2,0,B|168:320,1,40
200,320,40532,2,0,B|248:320,1,40
288,320,40832,1,0
328,304,40982,6,0,B|360:272,3,40,2|0|0|0
376,232,41582,2,0,B|384:192,3,40,2|0|0|0
376,144,42182,2,0,B|354:110,3,40,2|0|0|0
208,72,42782,2,0,B|174:94,3,40,2|0|0|0
136,240,43382,2,0,B|158:274,3,40,2|0|0|0
304,312,43982,2,0,B|338:290,3,40,2|0|0|0
368,256,44582,1,2
384,136,44882,5,0
256,64,45182,1,0
128,136,45482,1,0
128,248,45782,5,0
200,336,46082,1,0
152,208,46382,1,8
224,296,46682,1,0
320,240,46982,1,0
224,184,47282,1,0
224,296,47582,1,8
320,352,47882,1,0
352,328,48032,1,0
384,304,48182,1,0
424,200,48482,6,0,B|408:160|368:136,1,80,0|8
272,152,49082,2,0,B|288:192|328:216,1,80
376,120,49682,1,0
256,64,49982,1,8
136,120,50282,1,0
112,152,50432,1,0
104,192,50582,1,0
160,288,50882,1,0
320,256,51182,2,0,B|296:288|256:312,1,80,8|0
232,200,51782,2,0,B|256:168|296:144,1,80
358,198,52382,5,8
302,52,52682,1,0
146,109,52982,1,0
196,256,53282,1,0
256,77,53582,1,8
141,192,53882,1,0
256,306,54182,1,0
370,192,54482,1,0
256,192,54782,1,8
152,160,55382,5,0
256,190,55682,1,0
195,280,55982,1,8
91,250,56282,1,0
52,144,56582,1,0
113,54,56882,1,0
218,84,57182,1,8
320,48,57482,5,0
364,56,57632,1,0
400,80,57782,2,0,B|424:120|424:160,1,80
392,256,58382,2,0,B|360:280|320:288,1,80,8|0
216,232,58982,1,0
320,176,59282,1,0
319,288,59582,1,8
224,344,59882,6,0,B|192:368,2,40
144,264,60482,1,2
112,240,60632,1,0
96,200,60782,2,0,B|96:160,1,40,2|0
104,120,61082,2,0,B|128:88,1,40,2|0
152,64,61382,6,0,B|184:40,1,40,2|0
220,32,61682,1,0
264,32,61832,1,2
312,48,61982,1,0
344,80,62132,1,2
368,120,62282,1,2
368,168,62432,1,0
256,192,62582,5,0
256,48,62882,1,0
112,192,63182,1,8
256,336,63482,1,0
400,192,63782,1,0
400,80,64082,5,0
400,80,64382,1,8
184,96,64982,6,0,B|112:168|184:240,1,160,0|8
216,240,65732,1,0
256,240,65882,1,0
296,240,66032,1,0
336,240,66182,1,0
392,320,66482,2,0,B|352:336|312:336,1,80,0|8
208,336,67082,1,0
112,288,67382,2,0,B|80:256|72:216|72:176,1,120,0|2
72,136,67982,2,0,B|72:96|80:56|112:24,1,120,8|2
152,24,68582,2,0,B|312:24,1,160,0|8
160,192,69782,5,0
352,192,70082,1,0
256,288,70382,1,8
256,96,70682,1,0
352,48,70982,1,0
432,120,71282,2,0,B|472:112,3,26.6666666666667,0|0|0|8
376,208,71882,1,0
296,136,72182,5,0
200,80,72482,2,0,B|160:96|116:80,1,80
36,128,73082,2,0,B|20:168|36:216,1,80
104,272,73682,2,0,B|144:256|188:272,1,80,0|8
152,360,74282,1,0
256,352,74582,5,0
352,272,75182,2,0,B|400:272,4,40,8|0|0|0|0
256,192,76082,1,0
288,80,76382,1,8
320,192,76682,1,0
288,304,76982,1,0
176,344,77282,1,0
80,272,77582,1,8
176,192,77882,1,0
232,80,78182,5,2
280,80,78332,2,0,B|320:96,1,40,2|0
352,120,78632,2,0,B|384:160,1,40,2|0
396,188,78932,2,0,B|400:232,1,40,2|0
384,264,79232,1,2
352,288,79382,6,0,B|312:304,3,40,2|0|0|0
160,288,79982,2,0,B|144:248,3,40,2|0|0|0
160,96,80582,2,0,B|200:80,3,40,2|0|0|0
352,96,81182,2,0,B|368:136,3,40,2|0|0|0
256,192,81782,2,0,B|224:224,3,40,2|0|0|0
256,192,82382,2,0,B|256:144,3,40,2|0|0|0
256,192,82982,2,0,B|288:224,3,40,2|0|0|0
368,296,83582,5,0
256,336,83882,1,0
144,296,84182,1,0
88,192,84782,1,8
136,192,84932,1,0
184,192,85082,1,0
232,192,85232,1,0
280,192,85382,1,0
352,120,85682,5,0
424,192,85982,1,8
360,272,86282,1,0
272,328,86582,2,0,B|232:344|192:344|144:328,1,120,0|2
120,312,87182,2,0,B|88:288|64:240|64:192,1,120,8|2
64,168,87782,2,0,B|56:56|184:56,1,160,0|8
256,56,88682,1,0
336,136,88982,5,0
256,56,89282,1,0
360,32,89582,1,8
456,72,89882,2,0,B|456:152,1,80
408,240,90482,2,0,B|384:272,3,26.6666666666667,0|0|0|8
464,328,91082,1,0
464,328,91382,2,0,B|424:336|376:328,1,80
288,328,91982,1,8
224,240,92282,1,0
328,232,92582,1,0
288,328,92882,5,0
184,352,93182,2,0,B|136:344|104:312,1,80,8|0
88,288,93632,1,0
72,248,93782,2,0,B|48:208|72:144,1,80
104,88,94382,1,8
152,104,94532,1,0
200,88,94682,1,0
248,72,94832,1,0
296,88,94982,1,0
400,88,95282,5,0
400,88,95582,2,0,B|416:128|408:168,1,80,8|0
413,279,96182,1,0
308,241,96482,1,0
413,279,96782,1,8
328,350,97082,1,0
216,352,97382,1,2
176,336,97532,6,2,B|136:312,1,40,2|0
112,288,97832,2,2,B|112:248,1,40,2|0
112,208,98132,2,2,B|128:168,1,40,2|0
160,136,98432,1,2
256,80,98582,5,4
256,80,98732,1,0
256,80,98882,1,0
256,80,99032,1,0
256,192,99182,1,2
256,192,99332,1,0
256,192,99482,1,0
256,192,99632,1,0
256,304,99782,5,2
256,304,99932,1,0
256,304,100082,1,0
256,304,100232,1,0
256,192,100382,1,2
256,192,100532,1,0
256,192,100682,1,0
256,192,100832,1,0
368,192,100982,6,0,B|408:192,3,40,2|0|0|0
136,192,101582,2,0,B|88:192,3,40,2|0|0|0
256,192,102182,1,0
160,112,102482,5,0
256,56,102782,1,0
352,112,103082,1,8
408,208,103382,6,0,B|424:248|416:288,1,80
312,256,103982,2,0,B|296:216|304:176,1,80,8|0
368,112,104582,1,0
256,64,104882,1,0
144,112,105182,1,8
80,208,105482,1,0
112,248,105632,1,0
144,288,105782,2,0,B|184:304|224:288,1,80
368,288,106382,2,0,B|328:272|288:288,1,80,8|0
256,208,106982,5,0
256,56,107282,1,0
256,208,107582,1,8
352,160,107882,1,0
360,120,108032,1,0
352,80,108182,1,0
256,56,108482,1,0
160,72,108782,2,0,B|160:160,1,80,8|0
64,152,109382,1,0
64,264,109682,1,0
176,264,109982,6,0,B|256:240,1,80,8|0
336,120,110582,2,0,B|256:144,1,80,0|0
176,264,111182,2,0,B|256:240,1,80,8|0
336,304,111782,1,0
384,192,112082,1,0
336,80,112382,1,8
88,144,112982,5,0
184,192,113282,1,0
88,240,113582,1,8
132,126,113882,1,0
214,217,114182,1,0
132,126,114482,1,0
224,48,114782,1,8
328,72,115082,5,0
368,96,115232,1,0
392,136,115382,2,0,B|392:176|376:216,1,80
272,240,115982,2,0,B|272:200|288:160,1,80,8|0
256,64,116582,1,0
136,144,116882,1,0
256,64,117182,1,8
368,72,117482,5,0
368,112,117632,1,0
368,152,117782,1,0
368,256,118082,1,2
344,288,118232,1,2
312,304,118382,1,2
272,304,118532,1,2
232,304,118682,2,0,B|144:304,1,80
112,304,119132,6,2,B|80:272,1,40,2|0
64,248,119432,2,2,B|56:200,1,40,2|0
64,176,119732,1,2
76,132,119882,1,0
100,92,120032,1,0
139,70,120182,1,0
378,90,120482,1,2
357,313,120782,1,8
118,293,121082,1,2
139,70,121382,1,0
256,192,121682,5,0
256,192,121982,1,8
256,192,122582,1,4
176,96,141782,5,2
312,104,142082,1,0
288,144,142232,1,0
264,184,142382,1,2
296,216,142532,1,0
336,224,142682,1,0
360,184,142832,5,0
384,144,142982,1,2
428,152,143132,1,0
456,184,143282,1,0
432,224,143432,1,0
408,264,143582,1,2
392,296,143732,2,0,B|344:296,3,40,0|0|0|2
352,192,144482,5,0
256,288,144782,1,2
160,192,145082,1,0
256,96,145382,1,2
352,192,145682,1,0
256,288,145982,1,2
160,192,146282,1,0
200,104,146582,5,2
224,144,146732,1,0
248,184,146882,1,0
216,216,147032,1,0
176,224,147182,1,2
152,184,147332,1,0
128,144,147482,5,0
84,152,147632,1,0
56,184,147782,1,2
80,224,147932,1,0
104,264,148082,1,0
120,296,148232,6,0,B|168:296,3,40,0|2|0|0
200,296,148832,2,0,B|240:296,1,40,0|2
352,192,149282,5,0
256,88,149582,1,2
352,192,149882,1,0
256,296,150182,1,2
168,192,150482,1,0
96,80,151082,5,0
208,80,151382,2,0,B|248:80,3,40,2|0|0|0
288,80,151982,2,0,B|336:80,3,40,2|0|0|0
368,96,152582,1,2
400,128,152732,1,0
392,168,152882,1,0
352,184,153032,1,0
312,184,153182,6,0,B|256:184,3,40,2|0|0|0
232,184,153782,2,0,B|184:184,3,40,2|0|0|0
112,176,154382,5,2
240,336,154682,1,0
400,208,154982,1,2
272,48,155282,1,0
112,176,155582,1,2
256,192,155882,1,0
304,304,156182,6,0,B|264:304,3,40,2|0|0|0
224,304,156782,2,0,B|176:304,3,40,2|0|0|0
144,288,157382,1,2
112,256,157532,1,0
120,216,157682,1,0
160,200,157832,1,0
200,200,157982,6,0,B|256:200,3,40,2|0|0|0
280,200,158582,1,2
120,80,160982,5,0
144,192,161282,1,0
168,80,161582,1,8
256,152,161882,1,0
336,80,162182,1,0
360,192,162482,1,0
384,80,162782,1,8
360,192,163082,2,0,B|360:248,2,40
312,288,163682,5,0
256,192,163982,1,8
200,288,164282,1,0
312,288,164582,1,0
256,192,164882,1,0
200,288,165182,1,8
88,296,165482,1,0
56,192,165782,1,0
120,104,166082,2,0,B|144:72,2,40,0|0|8
232,104,166682,2,0,B|208:72,2,40,0|0|0
344,104,167282,5,0
364,222,167582,1,8
254,241,167882,1,0
233,123,168182,1,0
344,104,168482,2,0,B|424:128,1,80,0|8
364,220,169082,2,0,B|284:196,1,80
184,192,169682,1,0
184,192,169982,1,8
136,88,170282,5,0
136,88,170582,1,0
56,160,170882,1,0
56,200,171032,1,0
56,240,171182,1,8
136,312,171482,1,0
136,312,171632,1,0
136,312,171782,1,0
240,312,172082,5,0
320,240,172382,2,0,B|352:216|368:168,1,80,8|0
312,88,172982,2,0,B|280:112|264:160,1,80
192,224,173582,1,8
168,120,173882,2,0,B|224:56,1,80
288,136,174482,2,0,B|344:72,1,80,0|8
408,152,175082,1,0
456,256,175382,5,0
262,256,175982,1,8
304,144,176282,1,0
191,102,176582,1,0
150,215,176882,1,0
262,256,177182,1,8
200,336,177482,1,0
160,336,177632,1,0
120,336,177782,1,0
64,240,178082,5,2
72,232,178232,1,2
80,224,178382,1,2
88,216,178532,1,2
96,208,178682,1,2
104,200,178832,1,2
112,192,178982,1,2
120,184,179132,1,2
128,176,179282,1,2
136,168,179432,1,2
144,160,179582,1,2
320,56,180182,5,0
416,96,180482,1,0
416,136,180632,1,0
416,176,180782,1,8
336,200,181082,1,0
336,160,181232,1,0
336,120,181382,1,0
256,144,181682,1,0
256,144,181982,1,8
256,240,182282,5,0
216,240,182432,1,0
176,240,182582,1,0
112,320,182882,2,0,B|192:320,1,80,0|8
400,320,183482,2,0,B|320:320,1,80
256,240,184082,1,0
288,120,184382,1,8
224,208,184682,1,0
256,88,184982,5,0
152,128,185282,2,0,B|104:128,2,40,0|0|8
152,232,185882,2,0,B|112:232,2,40
256,280,186482,1,0
256,80,186782,1,8
256,180,187082,1,0
344,128,187382,6,0,B|384:144|408:192,1,80
312,224,187982,2,0,B|328:264|376:280,1,80,8|0
424,192,188582,1,2
336,72,188882,1,2
176,72,189182,1,2
88,192,189482,1,2
256,192,189782,5,0
208,288,190082,1,2
256,296,190232,1,2
304,288,190382,1,8
256,296,190532,1,0
208,288,190682,2,2,B|168:256|152:216,1,80
160,120,191282,5,0
352,120,191582,1,8
256,64,191882,1,2
256,104,192032,1,2
256,144,192182,1,0
152,272,192482,2,0,B|216:224,1,80,2|8
360,272,193082,2,0,B|296:224,1,80,2|2
256,320,193682,1,0
256,192,193982,1,8
256,64,194282,1,2
144,128,194582,5,0
72,216,194882,1,2
72,256,195032,1,2
88,296,195182,2,2,B|120:328,1,40
144,344,195482,2,2,B|188:352,1,40,0|2
224,352,195782,1,2
344,344,196082,5,0
344,224,196382,1,8
384,128,196682,1,2
344,120,196832,1,2
304,128,196982,1,2
200,128,197282,5,2
192,128,197432,1,2
184,128,197582,1,2
176,128,197732,1,2
168,128,197882,1,2
160,128,198032,1,2
152,128,198182,1,2
144,128,198332,1,2
136,128,198482,1,2
128,128,198632,1,2
120,128,198782,1,2
32,128,199382,5,0
256,296,200732,5,0
256,280,200882,1,2
256,264,201032,1,0
256,248,201182,1,8
256,232,201332,1,2
256,216,201482,1,0
256,200,201632,1,2
256,184,201782,5,0
336,136,202082,2,0,B|416:192,1,80,0|8
176,136,202682,2,0,B|96:192,1,80
168,264,203282,1,0
344,264,203582,1,8
256,336,203882,1,2
256,288,204032,1,2
256,240,204182,1,0
328,168,204482,6,0,B|368:152|384:104,1,80,0|8
352,16,205082,2,0,B|312:32|296:80,1,80
200,128,205682,1,0
144,40,205982,1,8
88,128,206282,5,2
88,176,206432,1,2
88,224,206582,1,0
112,320,206882,2,0,B|192:320,1,80,0|8
400,320,207482,2,0,B|320:320,1,80
256,240,208082,5,0
160,88,208382,1,8
352,88,208682,1,0
256,240,208982,1,0
208,160,209282,1,0
304,160,209582,1,8
256,240,209882,1,0
256,64,210182,1,0
256,240,210482,1,0
256,64,210782,1,0
160,200,211382,6,0,B|144:240|104:264,2,80,0|0|8
352,184,212282,2,0,B|368:144|408:120,2,80,0|0|0
456,216,213182,1,8
376,296,213482,1,2
328,296,213632,1,2
280,296,213782,5,0
200,216,214082,1,0
184,112,214382,2,0,B|184:72|144:48,1,80,8|0
48,56,214982,2,0,B|48:96|88:120,1,80,0|0
88,216,215582,1,8
168,296,215882,5,0
200,328,216032,1,0
240,344,216182,2,0,B|280:352|320:352,1,80,0|2
360,352,216632,1,0
400,344,216782,1,8
432,320,216932,1,0
456,288,217082,1,2
464,184,217382,5,0
464,144,217532,2,0,B|448:104,1,40,2|0
424,72,217832,2,0,B|384:48,1,40,2|8
352,40,218132,2,0,B|304:40,1,40,2|0
264,40,218432,1,0
224,40,218582,5,0
104,224,218882,1,2
288,344,219182,1,8
408,160,219482,1,2
256,192,219782,1,0
256,192,220082,1,2
256,192,220382,1,4
96,96,220982,5,0
96,200,221282,2,0,B|112:240|168:256,1,80,0|8
248,216,221882,2,0,B|232:176|176:160,1,80
192,64,222482,1,0
320,64,222782,1,8
416,144,223082,1,2
416,192,223232,1,2
416,240,223382,1,0
336,320,223682,2,0,B|240:320,1,80,0|8
176,320,224282,2,0,B|272:320,1,80
256,208,224882,5,0
176,120,225182,1,8
256,40,225482,1,2
256,40,225632,1,2
256,40,225782,1,0
336,120,226082,1,0
256,208,226382,5,8
336,296,226682,1,0
256,384,226982,1,0
176,296,227282,1,0
256,208,227582,1,8
176,120,227882,1,0
256,40,228182,5,0
368,56,228482,1,2
416,64,228632,1,2
448,104,228782,1,2
448,152,228932,1,2
408,184,229082,1,2
360,200,229232,1,2
336,248,229382,1,2
304,288,229532,1,2
256,288,229682,1,2
216,256,229832,1,2
200,208,229982,1,2
224,160,230132,1,2
224,112,230282,1,2
184,80,230432,1,2
136,88,230582,5,0
56,152,230882,2,0,B|56:232,1,80,0|8
96,320,231482,1,0
200,352,231782,1,0
312,352,232082,1,0
416,320,232382,1,8
256,136,232682,5,2
256,184,232832,1,2
256,232,232982,1,0
168,200,233282,2,0,B|96:152,1,80,0|8
344,200,233882,2,0,B|416:152,1,80
384,64,234482,1,0
128,64,234782,1,8
208,152,235082,5,2
256,160,235232,1,2
304,152,235382,1,0
256,80,235682,1,0
256,304,235982,1,8
176,152,236282,2,0,B|152:192|184:248,1,80
336,232,236882,2,0,B|360:192|328:144,1,80,0|8
256,192,237482,1,0
176,288,237782,5,0
256,72,238082,1,0
336,288,238382,1,8
136,160,238682,1,0
376,160,238982,1,0
176,288,239282,1,0
256,72,239582,1,8
256,192,240182,5,4
