osu file format v9

[General]
AudioFilename: Flower Dance.mp3
AudioLeadIn: 0
PreviewTime: 103373
Countdown: 0
SampleSet: Soft
StackLeniency: 0.7
Mode: 0
LetterboxInBreaks: 1

[Editor]
DistanceSpacing: 0.8
BeatDivisor: 4
GridSize: 4

[Metadata]
Title:Flower Dance
Artist:DJ Okawari
Creator:spboxer3
Version:Hard
Source:
Tags:Yumeko Yuki

[Difficulty]
HPDrainRate:6
CircleSize:5
OverallDifficulty:6
ApproachRate:6
SliderMultiplier:1.4
SliderTickRate:2

[Events]
//Background and Video events
0,0,"Flower Dance.jpg"
//Break Periods
2,122782,140732
//Storyboard Layer 0 (Background)
//Storyboard Layer 1 (Fail)
//Storyboard Layer 2 (Pass)
//Storyboard Layer 3 (Foreground)
//Storyboard Sound Samples
//Background Colour Transformations
3,100,163,162,255

[TimingPoints]
26582,600,4,2,1,30,1,0
45773,-100,4,1,1,60,0,0
45923,-100,4,2,1,60,0,0
47123,-100,4,1,1,60,0,0
47423,-100,4,2,1,60,0,0
48173,-100,4,1,1,60,0,0
48323,-100,4,2,1,60,0,0
49523,-100,4,1,1,60,0,0
49823,-100,4,2,1,60,0,0
50573,-100,4,1,1,60,0,0
50723,-100,4,2,1,60,0,0
51923,-100,4,1,1,60,0,0
52223,-100,4,2,1,60,0,0
52823,-100,4,1,1,60,0,0
53123,-100,4,2,1,60,0,0
54323,-100,4,1,1,60,0,0
54623,-100,4,2,1,60,0,0
55223,-100,4,1,1,60,0,0
55523,-100,4,2,1,60,0,0
56723,-100,4,1,1,60,0,0
57023,-100,4,2,1,60,0,0
57773,-100,4,1,1,60,0,0
57923,-100,4,2,1,60,0,0
59123,-100,4,1,1,60,0,0
59423,-100,4,2,1,60,0,0
60173,-100,4,1,1,60,0,0
60323,-100,4,2,1,60,0,0
61523,-100,4,1,1,60,0,0
61823,-100,4,2,1,60,0,0
62573,-100,4,1,1,60,0,0
62723,-100,4,2,1,60,0,0
63923,-100,4,1,1,60,0,0
64223,-100,4,2,1,60,0,0
64373,-100,4,2,1,60,0,0
64823,-100,4,1,1,60,0,0
65123,-100,4,2,1,60,0,0
66323,-100,4,1,1,60,0,0
66623,-100,4,2,1,60,0,0
67223,-100,4,1,1,60,0,0
67523,-100,4,2,1,60,0,0
69623,-100,4,1,1,60,0,0
69923,-100,4,2,1,60,0,0
71123,-100,4,1,1,60,0,0
71423,-100,4,2,1,60,0,0
74423,-100,4,1,1,60,0,0
74723,-100,4,2,1,60,0,0
75923,-100,4,1,1,60,0,0
76223,-100,4,2,1,60,0,0
76823,-100,4,1,1,60,0,0
77123,-100,4,2,1,60,0,0
78323,-100,4,1,1,60,0,0
78623,-100,4,2,1,60,0,0
79223,-100,4,1,1,60,0,0
79523,-100,4,2,1,60,0,0
80873,-100,4,1,1,60,0,0
81023,-100,4,2,1,60,0,0
81623,-100,4,1,1,60,0,0
81923,-100,4,2,1,60,0,0
83273,-100,4,1,1,60,0,0
83423,-100,4,2,1,60,0,0
84023,-100,4,1,1,60,0,0
84323,-100,4,2,1,60,0,0
86423,-100,4,1,1,60,0,0
86723,-100,4,2,1,60,0,0
88823,-100,4,1,1,60,0,0
89123,-100,4,2,1,60,0,0
90323,-100,4,1,1,60,0,0
90623,-100,4,2,1,60,0,0
91223,-100,4,1,1,60,0,0
91523,-100,4,2,1,60,0,0
93623,-100,4,1,1,60,0,0
93923,-100,4,2,1,60,0,0
96023,-100,4,1,1,60,0,0
96323,-100,4,2,1,60,0,0
97523,-100,4,1,1,60,0,0
97823,-100,4,2,1,60,0,0
98423,-100,4,1,1,60,0,0
98723,-100,4,2,1,60,0,0
102473,-100,4,1,1,60,0,0
102623,-100,4,2,1,60,0,0
103373,-100,4,1,1,80,0,1
103523,-100,4,2,1,80,0,1
104723,-100,4,1,1,80,0,1
105023,-100,4,2,1,80,0,1
105773,-100,4,1,1,80,0,1
105923,-100,4,2,1,80,0,1
107123,-100,4,1,1,80,0,1
107423,-100,4,2,1,80,0,1
108173,-100,4,1,1,80,0,1
108323,-100,4,2,1,80,0,1
109523,-100,4,1,1,80,0,1
109823,-100,4,2,1,80,0,1
110423,-100,4,1,1,80,0,1
110723,-100,4,2,1,80,0,1
111923,-100,4,1,1,80,0,1
112223,-100,4,2,1,80,0,1
112823,-100,4,1,1,80,0,1
113123,-100,4,2,1,80,0,1
114323,-100,4,1,1,80,0,1
114623,-100,4,2,1,80,0,1
115373,-100,4,1,1,80,0,1
115523,-100,4,2,1,80,0,1
116723,-100,4,1,1,80,0,1
117023,-100,4,2,1,80,0,1
117773,-100,4,1,1,80,0,1
117923,-100,4,2,1,80,0,1
119273,-100,4,1,1,80,0,1
119423,-100,4,2,1,80,0,1
120173,-100,4,1,1,80,0,1
120323,-100,4,2,1,80,0,1
121523,-100,4,1,1,80,0,1
121823,-100,4,2,1,80,0,1
122573,-100,4,2,1,30,0,0
160823,-100,4,1,1,60,0,0
161123,-100,4,2,1,60,0,0
162323,-100,4,1,1,60,0,0
162623,-100,4,2,1,60,0,0
164723,-100,4,1,1,60,0,0
165023,-100,4,2,1,60,0,0
165623,-100,4,1,1,60,0,0
165923,-100,4,2,1,60,0,0
167123,-100,4,1,1,60,0,0
167423,-100,4,2,1,60,0,0
169523,-100,4,1,1,60,0,0
169823,-100,4,2,1,60,0,0
170423,-100,4,1,1,60,0,0
170723,-100,4,2,1,60,0,0
171923,-100,4,1,1,60,0,0
172223,-100,4,2,1,60,0,0
172973,-100,4,1,1,60,0,0
173123,-100,4,2,1,60,0,0
174323,-100,4,1,1,60,0,0
174623,-100,4,2,1,60,0,0
175223,-100,4,1,1,60,0,0
175523,-100,4,2,1,60,0,0
180023,-100,4,1,1,60,0,0
180323,-100,4,2,1,60,0,0
181523,-100,4,1,1,60,0,0
181823,-100,4,2,1,60,0,0
182423,-100,4,1,1,60,0,0
182723,-100,4,2,1,60,0,0
183923,-100,4,1,1,60,0,0
184223,-100,4,2,1,60,0,0
184823,-100,4,1,1,60,0,0
185123,-100,4,2,1,60,0,0
186323,-100,4,1,1,60,0,0
186623,-100,4,2,1,60,0,0
187373,-100,4,1,1,60,0,0
187523,-100,4,2,1,60,0,0
188723,-100,4,1,1,60,0,0
189023,-100,4,2,1,60,0,0
189623,-100,4,1,1,60,0,0
189923,-100,4,2,1,60,0,0
191273,-100,4,1,1,60,0,0
191423,-100,4,2,1,60,0,0
192173,-100,4,1,1,60,0,0
192323,-100,4,2,1,60,0,0
193523,-100,4,1,1,60,0,0
193823,-100,4,2,1,60,0,0
194423,-100,4,1,1,60,0,0
194723,-100,4,2,1,60,0,0
196073,-100,4,1,1,60,0,0
196223,-100,4,2,1,60,0,0
196973,-100,4,1,1,60,0,0
197123,-100,4,2,1,60,0,0
199223,-100,4,1,1,60,0,0
199523,-100,4,2,1,60,0,0
201773,-100,4,1,1,50,0,1
201923,-100,4,2,1,50,0,1
203123,-100,4,1,1,50,0,1
203423,-100,4,2,1,50,0,1
204173,-100,4,1,1,50,0,1
204323,-100,4,2,1,50,0,1
205523,-100,4,1,1,50,0,1
205823,-100,4,2,1,50,0,1
206573,-100,4,1,1,50,0,1
206723,-100,4,2,1,50,0,1
208073,-100,4,1,1,50,0,1
208223,-100,4,2,1,50,0,1
208823,-100,4,1,1,50,0,1
209123,-100,4,2,1,50,0,1
210323,-100,4,1,1,50,0,1
210623,-100,4,2,1,50,0,1
211223,-100,4,1,1,50,0,1
211523,-100,4,2,1,50,0,1
212723,-100,4,1,1,50,0,1
213023,-100,4,2,1,50,0,1
213773,-100,4,1,1,50,0,1
213923,-100,4,2,1,50,0,1
215123,-100,4,1,1,50,0,1
215423,-100,4,2,1,50,0,1
216173,-100,4,1,1,50,0,1
216323,-100,4,2,1,50,0,1
217673,-100,4,1,1,50,0,1
217823,-100,4,2,1,50,0,1
218573,-100,4,1,1,50,0,1
218723,-100,4,2,1,50,0,1
220823,-100,4,1,1,50,0,1
221123,-100,4,2,1,50,0,1
222323,-100,4,1,1,50,0,1
222623,-100,4,2,1,50,0,1
223223,-100,4,1,1,50,0,1
223523,-100,4,2,1,50,0,1
224723,-100,4,1,1,50,0,1
225023,-100,4,2,1,50,0,1
225623,-100,4,1,1,50,0,1
225923,-100,4,2,1,50,0,1
227123,-100,4,1,1,50,0,1
227423,-100,4,2,1,50,0,1
228023,-100,4,1,1,50,0,1
228323,-100,4,2,1,50,0,1
229523,-100,4,1,1,50,0,1
229823,-100,4,2,1,50,0,1
230423,-100,4,1,1,50,0,1
230723,-100,4,2,1,50,0,1
231923,-100,4,1,1,50,0,1
232223,-100,4,2,1,50,0,1
232973,-100,4,1,1,50,0,1
233123,-100,4,2,1,50,0,1
234323,-100,4,1,1,50,0,1
234623,-100,4,2,1,50,0,1
235373,-100,4,1,1,50,0,1
235523,-100,4,2,1,50,0,1
236873,-100,4,1,1,50,0,1
237023,-100,4,2,1,50,0,1
237773,-100,4,1,1,50,0,1
237923,-100,4,2,1,50,0,1
240023,-100,4,1,1,50,0,1
240323,-100,4,2,1,50,0,0

[Colours]
Combo1 : 0,128,255
Combo2 : 128,255,128
Combo3 : 255,255,128
Combo4 : 255,128,128

[HitObjects]
456,56,26582,1,0
360,160,27332,2,0,B|336:136,3,35
448,160,28382,1,2
448,272,28982,5,0
384,320,29432,1,0
384,320,29582,1,0
316,272,30032,1,0
316,272,30182,1,0
316,160,30782,1,2
204,160,31382,5,0
256,60,31982,1,2
312,160,32582,1,0
280,208,32882,2,0,B|240:208|240:208|240:208,2,35,0|0|2
319,247,33482,1,0
279,286,33782,2,0,B|116:300|12:184,1,280
112,56,35882,5,0
168,56,36182,1,0
136,192,36932,2,0,B|136:256,3,35
240,192,37982,1,2
392,192,38582,5,0
344,160,38882,1,0
344,216,39182,1,0
296,240,39482,1,0
256,200,39782,6,0,B|216:200,2,35
256,172,40232,2,0,B|312:172,2,35,0|2|0
256,144,40682,2,0,B|256:88,1,35
192,128,40982,6,0,B|160:96,2,35
160,192,41582,6,0,B|96:192,2,35,2|0|0
192,256,42182,6,0,B|160:288,2,35
256,288,42782,6,0,B|256:352,2,35,2|0|0
320,256,43382,6,0,B|352:288,2,35
352,192,43982,6,0,B|416:192,2,35,2|0|0
320,128,44582,6,0,B|352:96,2,35,0|0|2
256,96,45182,5,12
256,152,45482,1,0
296,192,45782,5,4
256,232,46082,1,0
200,232,46382,1,8
160,192,46682,1,0
160,136,46982,1,2
200,96,47282,1,0
256,96,47582,1,8
312,96,47882,6,0,B|352:96,1,35
376,96,48182,1,0
416,136,48482,1,0
416,192,48782,1,8
376,232,49082,1,0
320,232,49382,1,2
280,192,49682,1,0
280,136,49982,1,8
280,80,50282,6,0,B|224:80,1,35
216,80,50582,2,0,B|168:80|144:104,1,70
104,136,51182,2,0,B|64:160|64:224,1,70,8|0
64,248,51782,2,0,B|64:288|128:320,1,70,2|0
144,336,52382,2,0,B|184:352|232:344,1,70,8|0
268,346,52982,6,0,B|316:346|356:322,1,70
384,296,53582,2,0,B|416:272|424:232,1,70,8|0
422,239,54032,1,0
422,239,54182,1,2
424,184,54482,2,0,B|432:136|384:112,1,70,0|4
304,72,55382,5,4
344,112,55682,1,0
304,152,55982,1,8
264,112,56282,1,0
224,152,56582,1,2
263,191,56882,1,0
302,230,57182,1,8
262,269,57482,5,0
262,269,57632,1,0
262,269,57782,1,0
214,237,58082,1,0
214,293,58382,1,8
166,325,58682,1,0
166,269,58982,1,2
166,213,59282,1,0
166,157,59582,1,8
112,184,59882,6,0,B|72:184,1,35
48,184,60182,1,0
48,128,60482,1,0
64,104,60632,1,0
88,88,60782,1,8
112,80,60932,1,0
136,80,61082,1,0
192,80,61382,5,2
248,80,61682,1,0
272,80,61832,1,0
296,88,61982,1,8
320,104,62132,1,0
336,128,62282,1,0
344,152,62432,1,0
344,176,62582,5,0
312,224,62882,1,0
368,224,63182,1,8
280,272,63482,1,0
400,272,63782,1,2
344,320,64082,1,0
344,320,64382,1,12
228,320,64982,5,4
184,288,65282,1,0
140,320,65582,2,0,B|68:320,2,70,8|0|2
184,288,66482,1,0
184,232,66782,1,8
184,120,67382,1,0
276,120,67832,2,0,B|300:144,1,35,0|8
384,120,68432,2,0,B|344:160,1,35,0|2
328,252,69182,1,8
328,140,69782,6,0,B|328:60|224:36,1,140,0|8
131,41,70982,1,2
91,80,71282,2,0,B|43:128,2,35,0|0|8
130,119,71882,1,0
169,79,72182,1,4
256,192,72482,12,0,74282
256,192,74582,5,0
144,192,75182,2,0,B|76:192,2,70,8|0|2
16,128,76382,1,8
128,128,76982,5,0
176,160,77282,1,0
176,104,77582,1,8
224,80,77882,1,0
224,136,78182,1,2
224,192,78482,1,0
272,160,78782,1,8
272,104,79082,1,0
320,128,79382,6,0,B|352:96,2,35
352,192,79982,6,0,B|416:192,2,35,8|0|0
320,256,80582,6,0,B|352:288,2,35,2|0|0
256,288,81182,6,0,B|256:352,2,35,8|0|0
192,256,81782,6,0,B|160:288,2,35
160,192,82382,6,0,B|96:192,2,35,8|0|0
192,128,82982,6,0,B|160:96,2,35,2|0|0
256,96,83582,5,12
368,96,84182,5,4
407,135,84482,1,0
446,174,84782,2,0,B|510:174,4,35,2|0|0|0|0
376,264,85982,1,8
304,176,86582,1,0
244,124,87032,1,0
244,124,87182,1,8
164,124,87632,1,0
164,124,87782,1,2
204,228,88382,1,8
316,228,88982,5,0
260,132,89582,1,8
204,228,90182,1,2
204,228,90482,2,0,B|148:228,2,35,0|0|8
204,228,91082,2,0,B|276:228,1,70
308,276,91682,1,0
404,276,91982,1,8
404,180,92282,1,0
304,180,92582,2,0,B|224:180|160:148,1,140,2|8
168,104,93482,5,0
112,104,93782,1,0
139,152,94082,1,0
139,208,94382,2,0,B|99:208,4,35,2|0|0|0|0
288,224,95582,1,8
400,224,96182,5,0
372,176,96482,1,0
428,176,96782,1,8
372,176,97082,1,0
396,128,97382,1,2
340,128,97682,1,0
300,96,97982,1,12
252,96,98282,1,0
200,96,98582,6,0,B|160:96,3,35,4|0|0|0
136,96,99182,6,0,B|80:120,3,35
88,136,99782,6,0,B|64:184,3,35
72,192,100382,6,0,B|72:256,3,35
72,256,100982,6,0,B|96:312,3,35
104,312,101582,6,0,B|152:336,3,35
164,328,102182,6,0,B|228:328,3,35
224,328,102782,6,0,B|272:312|296:264,1,70,12|0
336,224,103382,5,4
400,168,103682,1,0
336,112,103982,1,8
256,112,104282,2,0,B|168:112,1,70,0|2
120,168,104882,2,0,B|192:168,1,70,0|8
256,224,105482,6,0,B|296:224,2,35
192,280,106082,1,0
128,224,106382,1,8
192,168,106682,1,0
256,224,106982,2,0,B|336:224,2,70,2|0|8
256,144,107882,6,0,B|256:104,2,35
336,144,108482,1,0
408,96,108782,1,8
336,56,109082,1,0
256,56,109382,6,0,B|176:56,1,70,2|0
116,104,109982,1,8
188,148,110282,1,0
120,200,110582,6,0,B|120:272,1,70
179,329,111182,1,8
238,269,111482,1,0
238,185,111782,2,0,B|238:89,2,70,2|0|12
72,192,112982,5,4
144,152,113282,1,0
216,192,113582,1,8
144,240,113882,1,0
72,288,114182,1,2
144,328,114482,1,0
216,288,114782,1,8
288,240,115082,6,0,B|344:240,2,35
208,240,115682,1,0
248,168,115982,1,8
288,240,116282,1,0
248,312,116582,1,2
328,312,116882,1,0
368,240,117182,1,8
328,168,117482,6,0,B|368:128,2,35
272,232,118082,1,0
232,256,118232,1,0
192,264,118382,1,8
152,256,118532,1,0
112,232,118682,1,0
32,208,118982,5,2
48,168,119132,1,0
80,144,119282,1,0
120,128,119432,1,0
160,128,119582,1,8
200,144,119732,1,0
232,168,119882,1,0
248,208,120032,1,0
248,248,120182,5,0
208,320,120482,1,0
288,320,120782,1,8
152,248,121082,1,0
344,248,121382,1,2
248,248,121682,1,0
248,248,121982,1,12
248,136,122582,5,0
256,216,141782,5,0
304,248,142082,2,0,B|336:280,2,35,0|0|2
256,272,142682,2,0,B|256:320,2,35
208,248,143282,2,0,B|168:288,2,35,0|0|2
256,224,143882,2,0,B|256:168,1,35
256,160,144182,5,0
288,112,144482,1,0
224,112,144782,1,2
320,160,145082,1,0
192,160,145382,1,0
352,112,145682,1,0
160,112,145982,1,2
256,64,146282,1,0
256,64,146582,5,0
312,64,146882,2,0,B|368:64,2,35,0|0|2
312,120,147482,2,0,B|344:152,2,35
272,159,148082,2,0,B|272:207,2,35,0|0|2
232,119,148682,2,0,B|192:159,2,35
256,192,149282,12,0,151082
256,192,151382,5,0
208,160,151682,2,0,B|176:128,2,35,0|0|8
256,136,152282,2,0,B|256:88,2,35
304,160,152882,2,0,B|344:120,2,35,0|0|8
256,192,153482,2,0,B|256:240,1,35
256,256,153782,5,0
304,232,154082,1,0
304,176,154382,1,8
256,144,154682,1,0
208,176,154982,1,0
208,232,155282,1,0
256,264,155582,1,8
256,208,155882,1,0
256,152,156182,5,0
304,120,156482,1,0
304,120,156632,1,0
304,120,156782,1,8
256,88,157082,1,0
256,88,157232,1,0
256,88,157382,1,0
208,120,157682,1,0
208,120,157832,1,0
208,120,157982,1,8
256,152,158282,6,0,B|256:208,1,35
256,192,158582,12,0,160682
256,192,160982,5,4
312,192,161282,1,0
312,192,161432,1,0
312,192,161582,1,8
352,152,161882,2,0,B|392:112,2,35,0|0|2
392,192,162482,1,0
392,192,162632,1,0
392,192,162782,1,8
392,248,163082,6,0,B|320:296|240:248,1,140
264,312,163982,2,0,B|184:296|136:240,1,140,8|0
96,280,164882,2,0,B|48:208|64:120,1,140
104,112,165782,5,0
128,168,166082,2,0,B|144:208,2,35,0|0|8
176,144,166682,1,0
176,144,166832,1,0
176,144,166982,1,2
192,88,167282,2,0,B|232:88,2,35,0|0|8
176,144,167882,6,0,B|232:192|312:144,1,140
264,112,168782,2,0,B|336:80|400:120,1,140,8|2
424,72,169682,2,0,B|472:152|416:224,1,140
376,200,170582,5,4
376,256,170882,2,0,B|376:304|320:304,1,70,0|8
296,264,171482,1,0
256,224,171782,1,2
216,264,172082,2,0,B|168:264|168:208,1,70,0|8
208,176,172682,6,0,B|240:152,2,35
168,144,173282,1,0
168,200,173582,1,8
120,168,173882,1,0
120,224,174182,1,2
72,200,174482,1,0
72,144,174782,1,8
120,112,175082,1,0
176,112,175382,6,0,B|264:112|264:208,1,140,0|8
263,254,176282,1,0
207,254,176582,2,0,B|207:342|303:342,1,140,2|8
333,302,177482,1,0
256,192,177782,12,12,179582
256,192,180182,6,0,B|312:136,1,70,4|0
344,184,180782,2,0,B|400:240,1,70,8|0
360,280,181382,2,0,B|304:336,1,70,2|0
272,288,181982,2,0,B|216:232,1,70,8|0
182,278,182582,5,0
142,238,182882,2,0,B|110:206,2,35,0|0|8
102,277,183482,2,0,B|54:277,2,35,0|0|2
141,316,184082,2,0,B|109:348,2,35,0|0|8
180,276,184682,1,0
236,276,184982,5,0
275,236,185282,2,0,B|315:196,2,35,0|0|8
235,196,185882,2,0,B|203:164,2,35,0|0|2
274,156,186482,2,0,B|306:124,2,35,0|0|8
234,116,187082,6,0,B|170:116,1,35
170,124,187382,1,0
130,164,187682,1,0
146,220,187982,1,8
194,252,188282,1,0
250,236,188582,1,2
274,188,188882,1,0
258,132,189182,1,12
210,108,189482,1,0
210,164,189782,5,4
170,204,190082,2,0,B|130:236,2,35,0|0|8
226,220,190682,1,0
266,180,190982,2,0,B|314:148,4,35,2|0|0|0|8
226,220,191882,6,0,B|242:260,1,35
250,276,192182,1,0
306,276,192482,2,0,B|386:276,2,70,0|8|0
250,276,193382,1,2
282,228,193682,2,0,B|354:156,2,70,0|8|0
250,180,194582,5,0
218,132,194882,2,0,B|186:92,2,35,0|0|8
274,132,195482,1,0
306,172,195782,2,0,B|346:212,4,35,2|0|0|0|8
274,132,196682,6,0,B|306:100,2,35
186,204,197582,1,8
274,276,198182,1,2
362,204,198782,1,8
256,192,199382,12,12,201182
104,80,201782,5,4
188,80,202082,1,0
144,152,202382,1,8
228,152,202682,1,0
296,200,202982,2,0,B|344:144,1,70,2|0
392,80,203582,1,8
464,128,203882,6,0,B|496:176,1,35
484,200,204182,2,0,B|444:280,1,70
393,322,204782,1,8
333,262,205082,1,0
248,262,205382,1,2
188,202,205682,1,0
128,261,205982,1,8
65,225,206282,6,0,B|105:185,1,35
116,168,206582,2,0,B|116:112,2,35
116,252,207182,1,8
175,311,207482,1,0
234,251,207782,6,0,B|194:211,2,35,2|0|0
293,310,208382,1,8
352,250,208682,1,0
316,172,208982,5,0
360,64,209282,1,0
248,48,209582,1,8
128,64,209882,1,0
232,128,210182,1,2
184,16,210482,1,0
160,136,210782,1,12
304,192,211382,6,0,B|368:256,1,70,4|0
344,160,211982,2,0,B|408:96,1,70,8|0
312,128,212582,2,0,B|248:64,1,70,2|0
280,160,213182,1,8
256,240,213482,6,0,B|224:208,1,35
200,184,213782,2,0,B|112:184,1,70
160,104,214382,2,0,B|160:24,1,70,8|0
240,64,214982,2,0,B|312:64,1,70,2|0
280,144,215582,1,8
360,144,215882,5,0
384,184,216032,1,0
360,224,216182,1,0
312,184,216482,2,0,B|248:184,4,35,0|0|8|0|0
256,280,217382,5,2
208,312,217532,1,0
152,296,217682,1,0
120,248,217832,1,0
136,192,217982,1,8
188,168,218132,1,0
244,180,218282,1,0
276,228,218432,1,0
308,276,218582,5,0
416,300,218882,1,0
344,216,219182,1,8
352,328,219482,1,0
412,232,219782,1,2
184,84,220982,6,0,B|100:84,2,70,4|0|8
256,84,221882,2,0,B|340:84|340:176,1,140
340,244,222782,1,8
241,342,223382,6,0,B|157:342,2,70,0|0|8
311,342,224282,2,0,B|403:342|403:250,1,140
402,189,225182,1,8
262,189,225782,6,0,B|180:189,1,70
121,189,226382,1,8
22,287,226982,2,0,B|110:287,1,70,2|0
162,287,227582,1,8
302,287,228182,2,0,B|395:287|395:178,1,140,0|8
393,62,229382,2,0,B|480:62,2,70,2|0|12
256,80,230582,5,4
176,160,230882,1,0
288,160,231182,1,8
176,160,231482,1,0
256,240,231782,1,2
176,160,232082,1,0
64,160,232382,1,8
64,272,232682,6,0,B|32:304,1,35
79,336,232982,1,0
158,256,233282,1,0
158,144,233582,1,8
237,223,233882,1,0
237,111,234182,1,2
316,190,234482,1,0
316,302,234782,1,8
395,222,235082,6,0,B|395:174,1,35
395,130,235382,1,0
397,130,235682,5,0
356,92,235832,1,0
301,74,235982,1,8
245,90,236132,1,0
205,130,236282,1,0
107,130,236582,5,2
131,178,236732,1,0
171,218,236882,1,0
219,242,237032,1,0
275,250,237182,1,8
331,242,237332,1,0
379,218,237482,1,0
419,178,237632,1,0
443,130,237782,5,0
373,60,238082,1,0
293,139,238382,1,8
213,59,238682,1,0
133,138,238982,1,2
193,342,239582,1,12
352,184,240182,1,4
