osu file format v9

[General]
AudioFilename: Flower Dance.mp3
AudioLeadIn: 0
PreviewTime: 103373
Countdown: 0
SampleSet: Soft
StackLeniency: 0.7
Mode: 0
LetterboxInBreaks: 1

[Editor]
DistanceSpacing: 0.8
BeatDivisor: 4
GridSize: 8

[Metadata]
Title:Flower Dance
Artist:DJ Okawari
Creator:spboxer3
Version:Easy
Source:
Tags:Yumeko Yuki

[Difficulty]
HPDrainRate:3
CircleSize:3
OverallDifficulty:2
ApproachRate:3
SliderMultiplier:1.4
SliderTickRate:2

[Events]
//Background and Video events
0,0,"Flower Dance.jpg"
//Break Periods
2,122782,140342
//Storyboard Layer 0 (Background)
//Storyboard Layer 1 (Fail)
//Storyboard Layer 2 (Pass)
//Storyboard Layer 3 (Foreground)
//Storyboard Sound Samples
//Background Colour Transformations
3,100,163,162,255

[TimingPoints]
26582,600,4,2,1,30,1,0
45773,-100,4,1,1,60,0,0
45923,-100,4,2,1,60,0,0
48023,-100,4,1,1,60,0,0
48323,-100,4,2,1,60,0,0
50423,-100,4,1,1,60,0,0
50723,-100,4,2,1,60,0,0
52823,-100,4,1,1,60,0,0
53123,-100,4,2,1,60,0,0
54323,-100,4,1,1,60,0,0
54623,-100,4,2,1,60,0,0
55223,-100,4,1,1,60,0,0
55523,-100,4,2,1,60,0,0
57623,-100,4,1,1,60,0,0
57923,-100,4,2,1,60,0,0
60023,-100,4,1,1,60,0,0
60323,-100,4,2,1,60,0,0
61523,-100,4,1,1,60,0,0
61823,-100,4,2,1,60,0,0
62423,-100,4,1,1,60,0,0
62723,-100,4,2,1,60,0,0
64373,-100,4,2,1,60,0,0
64823,-100,4,1,1,60,0,0
65123,-100,4,2,1,60,0,0
67223,-100,4,1,1,60,0,0
67523,-100,4,2,1,60,0,0
69623,-100,4,1,1,60,0,0
69923,-100,4,2,1,60,0,0
74423,-100,4,1,1,60,0,0
74723,-100,4,2,1,60,0,0
76823,-100,4,1,1,60,0,0
77123,-100,4,2,1,60,0,0
79223,-100,4,1,1,60,0,0
79523,-100,4,2,1,60,0,0
81623,-100,4,1,1,60,0,0
81923,-100,4,2,1,60,0,0
84023,-100,4,1,1,60,0,0
84323,-100,4,2,1,60,0,0
86423,-100,4,1,1,60,0,0
86723,-100,4,2,1,60,0,0
88823,-100,4,1,1,60,0,0
89123,-100,4,2,1,60,0,0
91223,-100,4,1,1,60,0,0
91523,-100,4,2,1,60,0,0
93623,-100,4,1,1,60,0,0
93923,-100,4,2,1,60,0,0
96023,-100,4,1,1,60,0,0
96323,-100,4,2,1,60,0,0
97523,-100,4,1,1,60,0,0
97823,-100,4,2,1,60,0,0
98423,-100,4,1,1,60,0,0
98723,-100,4,2,1,60,0,0
103373,-100,4,1,1,80,0,1
103523,-100,4,2,1,80,0,1
105623,-100,4,1,1,80,0,1
105923,-100,4,2,1,80,0,1
108023,-100,4,1,1,80,0,1
108323,-100,4,2,1,80,0,1
110423,-100,4,1,1,80,0,1
110723,-100,4,2,1,80,0,1
112823,-100,4,1,1,80,0,1
113123,-100,4,2,1,80,0,1
114323,-100,4,1,1,80,0,1
114623,-100,4,2,1,80,0,1
115223,-100,4,1,1,80,0,1
115523,-100,4,2,1,80,0,1
116723,-100,4,1,1,80,0,1
117023,-100,4,2,1,80,0,1
117623,-100,4,1,1,80,0,1
117923,-100,4,2,1,80,0,1
120023,-100,4,1,1,80,0,1
120323,-100,4,2,1,80,0,1
122573,-100,4,2,1,30,0,0
160823,-100,4,1,1,60,0,0
161123,-100,4,2,1,60,0,0
163223,-100,4,1,1,60,0,0
163523,-100,4,2,1,60,0,0
165623,-100,4,1,1,60,0,0
165923,-100,4,2,1,60,0,0
170423,-100,4,1,1,60,0,0
170723,-100,4,2,1,60,0,0
172823,-100,4,1,1,60,0,0
173123,-100,4,2,1,60,0,0
175223,-100,4,1,1,60,0,0
175523,-100,4,2,1,60,0,0
180023,-100,4,1,1,60,0,0
180323,-100,4,2,1,60,0,0
181523,-100,4,1,1,60,0,0
181823,-100,4,2,1,60,0,0
182423,-100,4,1,1,60,0,0
182723,-100,4,2,1,60,0,0
184823,-100,4,1,1,60,0,0
185123,-100,4,2,1,60,0,0
186323,-100,4,1,1,60,0,0
186623,-100,4,2,1,60,0,0
189623,-100,4,1,1,60,0,0
189923,-100,4,2,1,60,0,0
192023,-100,4,1,1,60,0,0
192323,-100,4,2,1,60,0,0
194423,-100,4,1,1,60,0,0
194723,-100,4,2,1,60,0,0
199223,-100,4,1,1,60,0,0
199523,-100,4,2,1,60,0,0
201773,-100,4,1,1,50,0,1
201923,-100,4,2,1,50,0,1
204023,-100,4,1,1,50,0,1
204323,-100,4,2,1,50,0,1
206423,-100,4,1,1,50,0,1
206723,-100,4,2,1,50,0,1
208823,-100,4,1,1,50,0,1
209123,-100,4,2,1,50,0,1
210323,-100,4,1,1,50,0,1
210623,-100,4,2,1,50,0,1
211223,-100,4,1,1,50,0,1
211523,-100,4,2,1,50,0,1
213623,-100,4,1,1,50,0,1
213923,-100,4,2,1,50,0,1
216023,-100,4,1,1,50,0,1
216323,-100,4,2,1,50,0,1
220823,-100,4,1,1,50,0,1
221123,-100,4,2,1,50,0,1
223223,-100,4,1,1,50,0,1
223523,-100,4,2,1,50,0,1
225623,-100,4,1,1,50,0,1
225923,-100,4,2,1,50,0,1
228023,-100,4,1,1,50,0,1
228323,-100,4,2,1,50,0,1
230423,-100,4,1,1,50,0,1
230723,-100,4,2,1,50,0,1
232823,-100,4,1,1,50,0,1
233123,-100,4,2,1,50,0,1
235223,-100,4,1,1,50,0,1
235523,-100,4,2,1,50,0,1
236723,-100,4,1,1,50,0,1
237023,-100,4,2,1,50,0,1
237623,-100,4,1,1,50,0,1
237923,-100,4,2,1,50,0,1
240023,-100,4,1,1,50,0,1
240323,-100,4,2,1,50,0,0

[Colours]
Combo1 : 0,128,255
Combo2 : 128,255,128
Combo3 : 255,255,128
Combo4 : 255,128,128

[HitObjects]
384,88,26582,1,0
384,256,27482,2,0,B|163:256,1,210,0|2
174,144,28982,2,0,B|70:144|72:240,2,140
286,144,30782,1,2
398,144,31382,6,0,B|398:288,1,140
285,284,32582,2,0,B|213:284,2,70,0|0|2
285,227,33482,1,0
285,171,33782,1,0
256,192,34082,12,0,36182
256,192,37082,5,0
200,192,37382,2,0,B|144:144|72:192,1,140,0|2
144,288,38582,2,0,B|208:328|288:288,1,140
384,336,39782,2,0,B|432:264|384:200,1,140,0|2
308,126,40982,6,0,B|236:126,2,70,0|0|2
376,208,42182,2,0,B|464:208,2,70,0|0|2
296,287,43382,2,0,B|208:287,1,70
170,287,43982,2,0,B|19:288,1,140,2|0
32,176,45182,1,12
109,95,45782,6,0,B|176:48|248:104,1,140,4|8
161,170,46982,2,0,B|232:224|304:160,1,140,2|8
210,92,48182,2,0,B|277:45|349:101,1,140,0|8
264,176,49382,2,0,B|335:230|407:166,1,140,2|8
388,286,50582,6,0,B|224:320,1,140,0|8
330,235,51782,2,0,B|166:269,1,140,2|8
272,184,52982,2,0,B|108:218,1,140,0|8
95,172,53882,1,0
134,132,54182,2,0,B|134:52,2,70,2|0|12
134,244,55382,6,0,B|296:280,1,140,4|8
349,195,56582,2,0,B|187:159,1,140,2|8
133,85,57782,2,0,B|97:247,1,140,0|8
181,300,58982,2,0,B|343:336,1,140,2|8
396,251,60182,6,0,B|396:156,2,70,0|0|8
316,171,61382,2,0,B|260:115,2,70,2|0|8
203,171,62582,2,0,B|108:171,4,70,0|0|8|0|2
315,171,64382,1,12
440,64,64982,5,4
328,64,65582,2,0,B|160:64,1,140,8|2
108,143,66782,1,8
187,222,67382,2,0,B|355:222,1,140,0|8
406,142,68582,1,2
294,142,69182,1,8
182,142,69782,6,0,B|33:142,1,140,0|8
121,221,70982,2,0,B|224:221|343:222,1,210,2|0
387,221,72182,1,2
256,192,72782,12,8,73982
144,320,74582,6,0,B|144:168,1,140,4|8
72,96,75782,2,0,B|224:96,1,140,2|8
283,179,76982,2,0,B|371:179,4,70,0|0|8|0|2
360,264,78782,1,8
250,289,79382,6,0,B|91:321,1,140,0|8
192,237,80582,2,0,B|33:269,1,140,2|8
24,216,81482,1,0
0,168,81782,2,0,B|159:136,1,140,0|8
193,140,82682,1,0
249,140,82982,2,0,B|403:139,1,140,2|8
388,31,84182,5,4
276,31,84782,2,0,B|192:32|144:104,1,140,8|2
75,169,85982,1,8
154,248,86582,2,0,B|200:288|298:256,1,140,0|8
209,180,87782,2,0,B|288:143|361:196,1,140,2|8
320,88,88982,5,0
432,88,89582,1,8
352,167,90182,2,0,B|336:232|288:304|184:336|136:320,1,280,2|0
256,192,91682,12,4,93782
256,77,94982,2,0,B|328:45|400:85,1,140,2|8
311,159,96182,2,0,B|231:159,2,70,0|0|8
390,238,97382,2,0,B|486:238,2,70,2|0|12
277,238,98582,6,0,B|131:238,1,140,4|0
216,158,99782,2,0,B|362:158,1,140,0|0
276,78,100982,2,0,B|130:78,1,140
215,157,102182,1,0
294,236,102782,1,12
406,236,103382,6,0,B|478:236,2,70,4|0|8
293,236,104582,2,0,B|128:236,1,140,2|8
73,156,105782,6,0,B|-23:156,2,70,0|0|8
185,156,106982,2,0,B|259:156|351:156,1,140,2|8
404,76,108182,6,0,B|259:113|256:112,1,140,0|8
347,189,109382,2,0,B|202:226|199:225,1,140,2|8
290,302,110582,2,0,B|145:339|142:338,1,140,0|8
114,296,111482,1,0
74,256,111782,2,0,B|219:219|222:220,1,140,2|12
289,142,112982,6,0,B|354:100|433:142,1,140,4|8
343,216,114182,2,0,B|431:216,2,70,2|0|8
422,295,115382,6,0,B|334:327|270:287,1,140,0|8
206,216,116582,2,0,B|135:216,2,70,2|0|8
318,216,117782,6,0,B|456:216,1,140,0|8
378,136,118982,2,0,B|240:136,1,140,2|8
126,136,120182,1,4
56,224,120782,1,8
144,296,121382,1,2
216,208,121982,1,8
328,192,122582,1,4
408,72,141782,6,0,B|328:48|240:72,1,140,0|2
348,144,142982,2,0,B|268:120|180:144,1,140,0|2
288,216,144182,2,0,B|208:192|120:216,1,140,0|2
70,288,145382,2,0,B|30:200|78:128,1,140,0|2
143,73,146582,6,0,B|192:48|288:80,1,140,0|2
200,156,147782,2,0,B|249:131|345:163,1,140,0|2
256,192,148982,12,4,151382
224,80,151982,6,0,B|368:96,1,140,8|0
283,174,153182,2,0,B|115:190,1,140,8|0
222,266,154382,2,0,B|377:286,1,140,8|0
440,204,155582,1,8
360,120,156182,6,0,B|288:96|192:132,1,140,0|8
142,201,157382,1,0
221,280,157982,2,0,B|293:304|389:268,1,140,8|0
256,192,158882,12,4,160982
256,72,161582,1,8
192,160,162182,1,2
128,248,162782,1,8
240,216,163382,2,0,B|304:272|376:216,1,140,0|8
288,142,164582,2,0,B|224:86|144:150,1,140,2|8
80,59,165782,5,0
40,168,166382,1,8
80,272,166982,1,2
120,168,167582,1,8
256,192,168182,12,8,169982
416,144,170582,6,0,B|352:120|272:144,1,140,4|8
357,221,171782,2,0,B|285:253|197:221,1,140,2|8
220,116,172982,2,0,B|160:72|64:72,1,140,0|8
9,152,174182,2,0,B|69:196|165:196,1,140,2|8
152,304,175382,6,0,B|224:328|307:300,1,140,0|8
369,226,176582,2,0,B|369:146|297:114,1,140,2|10
256,192,177782,12,8,179582
256,128,180182,6,0,B|336:128,2,70,4|0|8
143,128,181382,2,0,B|79:64,2,70,2|0|8
143,240,182582,2,0,B|304:256,1,140,0|8
202,174,183782,2,0,B|363:190,1,140,2|8
420,108,184982,6,0,B|364:52,2,70,0|0|8
420,220,186182,2,0,B|476:164,2,70,2|0|8
256,192,187382,12,4,189782
256,192,190382,5,8
320,104,190982,1,2
408,176,191582,1,8
344,264,192182,2,0,B|248:329|120:345,1,210
104,304,193382,2,0,B|90:205|178:109,1,210,2|0
232,96,194582,5,0
344,96,195182,1,8
423,175,195782,1,2
343,254,196382,1,8
256,192,196982,12,0,199382
312,136,199982,5,0
200,136,200582,1,0
200,248,201182,1,12
312,248,201782,1,4
392,168,202382,5,8
470,89,202982,2,0,B|304:88,1,140,2|8
218,88,204182,1,0
138,167,204782,1,8
58,246,205382,2,0,B|224:247,1,140,2|8
310,246,206582,6,0,B|374:182|302:110,1,140,0|8
233,42,207782,2,0,B|169:106|241:178,1,140,2|8
309,245,208982,1,0
388,165,209582,1,8
308,85,210182,2,0,B|208:85,2,70,2|0|12
387,164,211382,5,4
307,243,211982,1,8
227,322,212582,2,0,B|64:320,1,140,2|8
166,240,213782,5,0
246,161,214382,1,8
326,82,214982,2,0,B|489:84,1,140,2|8
386,162,216182,5,0
306,241,216782,1,8
194,241,217382,1,2
114,161,217982,1,8
256,192,218582,12,8,220382
256,192,220982,6,0,B|408:192,1,140,4|8
316,112,222182,2,0,B|172:112,1,140,2|8
96,191,223382,6,0,B|4:192,2,70,0|0|8
176,272,224582,2,0,B|258:272|342:272,1,140,2|8
393,188,225782,2,0,B|392:48,1,140,0|8
312,127,226982,2,0,B|312:288,1,140,2|8
232,187,228182,6,0,B|77:186,1,140,0|8
171,106,229382,1,2
283,106,229982,1,12
362,185,230582,6,0,B|458:185,2,70,4|0|8
249,185,231782,1,2
137,185,232382,1,8
72,276,232982,6,0,B|-18:275,2,70,0|0|8
151,196,234182,1,2
230,116,234782,1,8
342,116,235382,6,0,B|435:116,2,70,0|0|8
262,195,236582,2,0,B|174:195,2,70,2|0|8
341,274,237782,1,4
420,194,238382,1,8
340,114,238982,2,0,B|268:114|192:114,1,140,2|12
120,193,240182,1,4
