osu file format v9

[General]
AudioFilename: Flower Dance.mp3
AudioLeadIn: 0
PreviewTime: 45560
Countdown: 0
SampleSet: Soft
StackLeniency: 0.7
Mode: 0
LetterboxInBreaks: 1

[Editor]
Bookmarks: 45860,65060,74660,84260,141860
DistanceSpacing: 0.8
BeatDivisor: 2
GridSize: 8

[Metadata]
Title:Flower Dance (Short Ver.)
Artist:DJ Okawari
Creator:LKs
Version:Insane
Source:Kaleidoscope
Tags:ISHIDAMITSUNARI spboxer3

[Difficulty]
HPDrainRate:6
CircleSize:4
OverallDifficulty:7
ApproachRate:8
SliderMultiplier:0.8
SliderTickRate:1

[Events]
//Background and Video events
0,0,"bg.png"
//Break Periods
2,84491,93141
2,122891,131541
2,132491,140841
2,158891,160341
//Storyboard Layer 0 (Background)
//Storyboard Layer 1 (Fail)
//Storyboard Layer 2 (Pass)
//Storyboard Layer 3 (Foreground)
//Storyboard Sound Samples
//Background Colour Transformations
3,100,163,162,255

[TimingPoints]
25490,300,4,2,2,40,1,0
28310,-100,4,2,2,25,0,0
28460,-133.333333333333,4,2,2,42,0,0
29060,-100,4,2,2,40,0,0
30710,-100,4,2,2,30,0,0
30860,-100,4,2,2,40,0,0
31460,-100,4,2,2,30,0,0
32060,-100,4,2,2,40,0,0
32510,-100,4,2,2,25,0,0
32660,-100,4,2,2,40,0,0
32960,-100,4,2,2,30,0,0
33060,-100,4,2,2,40,0,0
33160,-100,4,2,2,30,0,0
33260,-100,4,2,2,40,0,0
33560,-100,4,2,2,30,0,0
34460,-100,4,2,2,36,0,0
34760,-100,4,2,2,40,0,0
35360,-100,4,2,2,33,0,0
35660,-100,4,2,2,37,0,0
35960,-100,4,2,2,40,0,0
37010,-100,4,2,2,35,0,0
37310,-100,4,2,2,40,0,0
37760,-100,4,2,2,35,0,0
38060,-100,4,2,2,40,0,0
38360,-100,4,2,2,25,0,0
38510,-100,4,2,2,30,0,0
44960,-100,4,2,2,50,0,0
45260,-100,4,2,1,55,0,0
45560,-100,4,2,1,55,0,0
45860,-100,4,1,1,55,0,0
46460,-100,4,2,1,60,0,0
46760,-100,4,2,0,60,0,0
47060,-100,4,2,0,60,0,0
47360,-100,4,2,1,60,0,0
48860,-100,4,2,1,60,0,0
49160,-100,4,2,0,50,0,0
49610,-100,4,2,1,60,0,0
51560,-100,4,2,0,50,0,0
52010,-100,4,2,1,60,0,0
53960,-100,4,2,0,50,0,0
54410,-100,4,2,1,55,0,0
54860,-100,4,2,1,60,0,0
56060,-100,4,2,1,45,0,0
56360,-100,4,2,1,60,0,0
56660,-100,4,2,0,50,0,0
56960,-100,4,2,1,60,0,0
58760,-100,4,2,0,50,0,0
59210,-100,4,2,1,60,0,0
61310,-100,4,2,0,55,0,0
61610,-100,4,2,1,60,0,0
63560,-100,4,2,0,55,0,0
63860,-100,4,2,0,52,0,0
64010,-100,4,2,1,60,0,0
65060,-100,4,2,0,60,0,0
65360,-100,4,2,0,50,0,0
65660,-100,4,2,0,46,0,0
65810,-100,4,2,0,50,0,0
66260,-100,4,2,0,55,0,0
66860,-100,4,2,0,50,0,0
67010,-100,4,2,0,55,0,0
68690,-100,4,2,2,55,0,0
69290,-100,4,2,0,55,0,0
69365,-100,4,2,2,55,0,0
70460,-100,4,2,0,48,0,0
70565,-100,4,2,2,48,0,0
70760,-100,4,2,0,60,0,0
71960,-100,4,2,2,55,0,0
72860,-100,4,2,0,50,0,0
73160,-100,4,2,0,55,0,0
73490,-100,4,2,2,55,0,0
74060,-100,4,2,0,50,0,0
74165,-100,4,2,2,50,0,0
74360,-100,4,2,0,55,0,0
77090,-100,4,2,2,55,0,0
77690,-100,4,2,0,55,0,0
77765,-100,4,2,2,55,0,0
78290,-100,4,2,2,55,0,0
78890,-100,4,2,0,55,0,0
78965,-100,4,2,2,55,0,0
80090,-100,4,2,0,55,0,0
80690,-100,4,2,2,55,0,0
81290,-100,4,2,0,55,0,0
81365,-100,4,2,2,55,0,0
82490,-100,4,2,0,55,0,0
82565,-100,4,2,2,55,0,0
83690,-100,4,2,0,55,0,0
84260,-100,4,2,0,40,0,0
93860,-100,4,2,2,55,0,0
98360,-100,4,1,2,25,0,0
98510,-100,4,1,2,30,0,0
98660,-100,4,2,2,65,0,0
99260,-100,4,2,2,60,0,0
99860,-100,4,1,2,35,0,0
100160,-100,4,1,2,40,0,0
100460,-100,4,2,2,65,0,0
100760,-100,4,2,2,55,0,0
100910,-100,4,1,2,40,0,0
101060,-100,4,2,2,65,0,0
101360,-100,4,1,2,40,0,0
101660,-100,4,1,2,5,0,0
101960,-100,4,1,2,40,0,0
102260,-100,4,2,2,60,0,0
102560,-100,4,2,2,50,0,0
102860,-100,4,1,2,50,0,0
103160,-100,4,1,2,40,0,0
103490,-100,4,1,1,50,0,1
103760,-100,4,2,1,70,0,1
104360,-100,4,2,0,70,0,1
104810,-100,4,2,1,70,0,1
106760,-100,4,2,0,65,0,1
106910,-100,4,2,1,70,0,1
107060,-100,4,2,0,65,0,1
107360,-100,4,2,1,62,0,1
107660,-100,4,2,1,70,0,1
108260,-100,4,2,1,60,0,1
108560,-100,4,2,1,70,0,1
109160,-100,4,2,0,70,0,1
109310,-100,4,2,0,60,0,1
109460,-100,4,2,0,65,0,1
109610,-100,4,2,1,60,0,1
110060,-100,4,2,1,70,0,1
111710,-100,4,2,0,71,0,1
111860,-100,4,2,1,60,0,1
112160,-100,4,2,1,60,0,1
112460,-100,4,2,1,70,0,1
113060,-100,4,2,1,60,0,1
113660,-100,4,2,1,48,0,1
113960,-100,4,2,1,60,0,1
114110,-100,4,2,0,60,0,1
114260,-100,4,2,0,60,0,1
114560,-100,4,2,1,60,0,1
114710,-100,4,2,1,70,0,1
115460,-100,4,2,1,60,0,1
116060,-100,4,2,1,70,0,1
116210,-100,4,2,0,55,0,1
116360,-100,4,2,0,60,0,1
116660,-100,4,2,0,55,0,1
116810,-100,4,2,1,55,0,1
117260,-100,4,2,1,65,0,1
117560,-100,4,2,0,60,0,1
117860,-100,4,2,1,60,0,1
118460,-100,4,2,1,70,0,1
118760,-100,4,2,0,60,0,1
119210,-100,4,2,1,50,0,1
119510,-100,4,2,1,65,0,1
120260,-100,4,2,1,60,0,1
120410,-100,4,2,0,60,0,1
120860,-100,4,2,1,70,0,1
121160,-100,4,2,0,60,0,1
121310,-100,4,2,1,60,0,1
121610,-100,4,2,0,70,0,1
121760,-100,4,2,1,60,0,1
122060,-100,4,2,1,75,0,1
122690,-100,4,2,0,45,0,0
132260,-100,4,2,1,30,0,0
141560,-100,4,2,2,30,0,0
141860,-66.6666666666667,4,2,2,55,0,0
146690,-66.6666666666667,4,2,2,60,0,0
151460,-66.6666666666667,4,2,2,60,0,0
161090,-66.6666666666667,4,2,1,65,0,1
161960,-66.6666666666667,4,2,0,60,0,1
162110,-66.6666666666667,4,2,1,65,0,1
162860,-66.6666666666667,4,2,0,55,0,1
163160,-66.6666666666667,4,2,0,60,0,1
163460,-66.6666666666667,4,2,1,65,0,1
163790,-66.6666666666667,4,2,2,60,0,1
163940,-66.6666666666667,4,2,1,65,0,1
164060,-66.6666666666667,4,2,0,55,0,1
164360,-66.6666666666667,4,2,0,65,0,1
164660,-66.6666666666667,4,2,1,65,0,1
164960,-66.6666666666667,4,2,1,65,0,1
165260,-66.6666666666667,4,2,0,55,0,1
165860,-66.6666666666667,4,2,1,60,0,1
166460,-66.6666666666667,4,2,0,55,0,1
166610,-66.6666666666667,4,2,1,65,0,1
166760,-66.6666666666667,4,2,0,60,0,1
166910,-66.6666666666667,4,2,1,65,0,1
167360,-66.6666666666667,4,2,1,60,0,1
167660,-66.6666666666667,4,2,0,55,0,1
167810,-66.6666666666667,4,2,1,65,0,1
167960,-66.6666666666667,4,2,0,60,0,1
168110,-66.6666666666667,4,2,1,65,0,1
168560,-66.6666666666667,4,2,0,60,0,1
168860,-66.6666666666667,4,2,0,55,0,1
169010,-66.6666666666667,4,2,0,65,0,1
169160,-66.6666666666667,4,2,0,60,0,1
169235,-66.6666666666667,4,2,1,65,0,1
170060,-66.6666666666667,4,2,0,55,0,1
170660,-66.6666666666667,4,2,1,55,0,1
170960,-66.6666666666667,4,2,0,60,0,1
171110,-66.6666666666667,4,2,1,60,0,1
171560,-66.6666666666667,4,2,0,60,0,1
171710,-66.6666666666667,4,2,1,60,0,1
172460,-66.6666666666667,4,2,0,55,0,1
172760,-66.6666666666667,4,2,0,60,0,1
172910,-66.6666666666667,4,2,1,65,0,1
173210,-66.6666666666667,4,2,0,60,0,1
173510,-66.6666666666667,4,2,0,60,0,1
173660,-66.6666666666667,4,2,0,55,0,1
173810,-66.6666666666667,4,2,1,55,0,1
173960,-66.6666666666667,4,2,0,60,0,1
174260,-66.6666666666667,4,2,1,65,0,1
174590,-66.6666666666667,4,2,0,65,0,1
174860,-66.6666666666667,4,2,0,55,0,1
175010,-66.6666666666667,4,2,0,60,0,1
175160,-66.6666666666667,4,2,0,55,0,1
175310,-66.6666666666667,4,2,0,62,0,1
175460,-66.6666666666667,4,2,1,60,0,1
176060,-66.6666666666667,4,2,0,55,0,1
176210,-66.6666666666667,4,2,1,65,0,1
176360,-66.6666666666667,4,2,0,60,0,1
176660,-66.6666666666667,4,2,1,60,0,1
177260,-66.6666666666667,4,2,0,55,0,1
177560,-66.6666666666667,4,2,0,60,0,1
177710,-66.6666666666667,4,2,1,65,0,1
178310,-66.6666666666667,4,2,0,65,0,1
178460,-66.6666666666667,4,2,0,55,0,1
178610,-66.6666666666667,4,2,1,65,0,1
178760,-66.6666666666667,4,2,0,60,0,1
179210,-66.6666666666667,4,2,0,65,0,1
179360,-66.6666666666667,4,2,1,60,0,1
179660,-66.6666666666667,4,2,2,60,0,1
180260,-66.6666666666667,4,2,1,50,0,1
180560,-66.6666666666667,4,2,0,60,0,1
180860,-66.6666666666667,4,2,1,60,0,1
181010,-66.6666666666667,4,2,0,65,0,1
181160,-66.6666666666667,4,2,0,65,0,1
181340,-66.6666666666667,4,2,0,60,0,1
181760,-66.6666666666667,4,2,1,60,0,1
182060,-66.6666666666667,4,2,0,55,0,1
182360,-66.6666666666667,4,2,0,60,0,1
182660,-66.6666666666667,4,2,1,60,0,1
182960,-66.6666666666667,4,2,0,60,0,1
183260,-66.6666666666667,4,2,0,55,0,1
183560,-66.6666666666667,4,2,0,60,0,1
184160,-66.6666666666667,4,2,1,60,0,1
184310,-66.6666666666667,4,2,0,60,0,1
184460,-66.6666666666667,4,2,0,55,0,1
184760,-66.6666666666667,4,2,0,60,0,1
185060,-66.6666666666667,4,2,1,60,0,1
185360,-66.6666666666667,4,2,0,60,0,1
185660,-66.6666666666667,4,2,0,55,0,1
186560,-66.6666666666667,4,2,1,60,0,1
186860,-66.6666666666667,4,2,0,55,0,1
187160,-66.6666666666667,4,2,0,60,0,1
187460,-66.6666666666667,4,2,1,60,0,1
187760,-66.6666666666667,4,2,0,60,0,1
188060,-66.6666666666667,4,2,0,55,0,1
188360,-66.6666666666667,4,2,0,61,0,1
188690,-66.6666666666667,4,2,0,65,0,1
188960,-66.6666666666667,4,2,1,60,0,1
189260,-66.6666666666667,4,2,0,55,0,1
189560,-66.6666666666667,4,2,0,60,0,1
189860,-66.6666666666667,4,2,1,60,0,1
190160,-66.6666666666667,4,2,0,60,0,1
190460,-66.6666666666667,4,2,0,55,0,1
190760,-66.6666666666667,4,2,0,60,0,1
191360,-66.6666666666667,4,2,1,60,0,1
191510,-66.6666666666667,4,2,0,60,0,1
191660,-66.6666666666667,4,2,0,55,0,1
191960,-66.6666666666667,4,2,0,60,0,1
192260,-66.6666666666667,4,2,1,60,0,1
192560,-66.6666666666667,4,2,0,60,0,1
192860,-66.6666666666667,4,2,0,55,0,1
193760,-66.6666666666667,4,2,1,60,0,1
193910,-66.6666666666667,4,2,0,60,0,1
194060,-66.6666666666667,4,2,0,55,0,1
194360,-66.6666666666667,4,2,2,55,0,1
194660,-66.6666666666667,4,2,1,60,0,1
194960,-66.6666666666667,4,2,0,60,0,1
195260,-66.6666666666667,4,2,0,55,0,1
195560,-66.6666666666667,4,2,0,60,0,1
195860,-66.6666666666667,4,2,0,60,0,1
196160,-66.6666666666667,4,2,1,60,0,1
196460,-66.6666666666667,4,2,0,55,0,1
196760,-66.6666666666667,4,2,0,60,0,1
197060,-66.6666666666667,4,2,1,60,0,1
197210,-66.6666666666667,4,2,0,60,0,1
197660,-66.6666666666667,4,2,0,50,0,1
197810,-66.6666666666667,4,2,0,60,0,1
198290,-66.6666666666667,4,2,0,60,0,1
198440,-66.6666666666667,4,2,0,57,0,1
198560,-66.6666666666667,4,2,1,50,0,1
198860,-66.6666666666667,4,2,2,45,0,1
199490,-100,4,2,0,30,0,0

[Colours]
Combo1 : 86,86,252
Combo2 : 197,197,197
Combo3 : 255,111,62
SliderBorder : 255,255,255

[HitObjects]
64,336,26690,2,0,B|80:264|157:234|232:272,1,200,0|0
248,344,27591,1,0
296,280,27741,1,0
344,216,27891,2,0,B|389:264|456:256,1,120
456,126,28491,6,0,B|432:185|368:200,1,120
224,192,29541,1,0
152,208,29691,2,0,B|88:208|48:152,1,120
148,93,30291,2,0,B|180:148|151:211,1,120
49,154,30891,6,0,B|55:110|70:77|70:77|109:79|159:96,1,160,0|0
424,72,32091,2,0,B|472:112|480:184,1,120
424,224,32691,2,0,B|448:312,1,80
416,320,33091,1,0
384,304,33191,1,0
352,288,33291,6,0,B|320:312|280:336,1,80
176,344,33891,1,0
286,300,34191,1,0
370,219,34491,1,0
416,120,34791,1,0
130,69,35091,5,0
139,178,35391,1,0
190,283,35691,1,0
279,362,35991,1,0
472,352,36291,6,0,B|456:280|376:248|312:288,1,200
248,328,37191,1,0
232,248,37341,1,0
304,208,37491,1,0
456,176,37791,2,0,B|416:192|376:184,1,80
240,168,38391,5,0
168,144,38541,1,0
104,192,38691,2,0,B|136:216|168:240,1,80
288,104,39291,2,0,B|320:128|352:152,1,80
496,256,39891,6,0,B|512:216,1,40
416,272,40191,2,0,B|416:216,1,40
344,312,40491,2,0,B|328:264,1,40
288,368,40791,1,0
264,344,40941,1,0
184,328,41091,6,0,B|144:360,1,40,0|0
144,240,41391,2,0,B|121:285,1,40,0|0
80,176,41690,2,0,B|70:226,1,40
0,128,41990,1,0
4,166,42140,1,0
0,244,42291,5,0
72,216,42441,1,0
128,160,42591,1,0
152,88,42741,1,0
224,48,42891,5,0
296,88,43041,1,0
360,144,43191,1,0
392,224,43341,1,0
400,312,43491,5,0
240,184,43791,1,0
440,112,44091,1,0
400,312,44391,1,0
440,112,44691,1,0
240,184,44991,1,8
40,152,45291,1,8
112,320,45591,1,0
240,184,45891,5,4
224,168,46491,1,2
72,64,46791,2,0,B|136:48|136:48,1,40,2|0
180,32,47091,1,2
416,104,47391,1,8
464,192,47691,6,0,B|400:192|336:160,1,120,2|0
280,192,48291,1,8
232,248,48441,1,0
160,224,48591,1,0
160,152,48741,1,0
232,128,48891,1,2
280,192,49041,1,0
232,248,49191,6,0,B|248:296,1,40,2|0
160,224,49491,2,0,B|112:256,1,40,2|0
160,352,49791,5,8
232,128,50091,1,2
16,352,50691,6,0,B|32:296|56:232,1,120,8|0
32,168,51291,1,2
160,40,51591,2,0,B|136:88,1,40,2|0
100,136,51891,1,2
280,320,52191,1,8
376,352,52491,6,0,B|384:304|360:272,1,80,2|0
312,216,52941,1,0
248,168,53091,6,0,B|264:104|336:80,1,120,8|0
216,240,53691,2,0,B|176:224|160:184,1,80,2|2
138,114,54141,1,0
143,40,54291,1,2
288,272,54591,6,0,B|248:360,2,80,8|2|0
488,328,55491,1,8
192,248,55791,1,0
120,256,55941,1,0
56,288,56091,5,6
336,152,56691,1,2
496,80,56991,2,0,B|448:120,2,40,8|0|2
336,152,57591,1,0
160,48,57891,5,8
88,80,58041,1,0
40,144,58191,1,0
24,224,58341,1,0
32,304,58491,2,0,B|32:328|48:352,1,40,2|0
136,296,58791,2,0,B|176:272,2,40,2|0|2
384,344,59391,1,8
464,280,59691,6,0,B|424:232|424:160,1,120,2|0
448,88,60291,1,8
368,56,60441,2,0,B|320:40,1,40
248,64,60741,1,0
160,112,60891,2,0,B|192:144|232:160,1,80,2|0
225,157,61341,1,2
248,64,61491,1,2
160,112,61641,1,0
136,208,61791,5,8
248,64,62091,1,2
136,208,62391,1,0
64,72,62691,6,0,B|104:80|136:104,1,80,8|0
376,0,63291,2,0,B|368:40|344:72,1,80,2|2
320,144,63741,1,0
313,221,63891,1,2
488,368,64191,1,8
464,192,64491,2,0,B|471:237|440:272,1,80,2|0
440,120,65091,5,4
384,312,65391,1,2
384,312,65691,1,8
331,288,65841,1,0
273,296,65991,1,2
56,288,66291,1,2
112,296,66441,1,0
168,280,66591,1,2
208,240,66741,1,0
224,184,66891,1,8
176,47,67191,5,0
248,112,67491,2,0,B|280:136|328:136,1,80,0|2
248,112,67941,1,0
176,48,68091,2,0,B|144:24|96:24,1,80,8|2
56,48,68541,1,0
32,96,68691,2,0,B|48:152|24:216,1,120
72,160,69291,6,0,B|88:224|120:272,1,120,8|0
136,320,69891,2,0,B|168:296|192:248,1,80,0|2
224,96,70491,2,0,B|256:128|272:160,1,80,8|2
320,312,71091,1,0
408,184,71391,1,2
424,200,71491,1,0
440,208,71591,1,2
464,208,71691,1,8
432,96,71991,6,0,B|384:120|400:168,1,80,0|2
440,296,72591,1,2
304,232,72891,1,10
168,168,73191,1,2
320,240,73491,6,0,B|280:272,1,40,2|0
152,160,73791,2,0,B|192:128,1,40,2|0
192,248,74091,2,0,B|128:296,1,80,10|2
104,312,74541,1,0
128,296,74691,6,0,B|96:232|24:232,1,120,4|0
0,192,75291,1,8
40,152,75441,1,0
96,136,75591,1,2
100,79,75741,1,0
44,60,75891,1,0
8,103,76191,5,2
264,192,76491,1,8
44,60,76791,1,0
272,136,77091,2,0,B|280:88|328:80,1,80,0|2
344,152,77541,1,0
312,216,77691,2,0,B|347:241|386:212,1,80,8|2
488,56,78291,5,0
440,88,78441,1,0
392,120,78591,1,2
344,152,78741,1,0
248,144,78891,6,0,B|256:176|264:192,1,40,8|0
288,232,79191,2,0,B|296:248|320:256,1,40,2|0
396,272,79491,5,2
368,320,79641,1,0
328,360,79791,1,2
280,336,79941,1,0
224,320,80091,5,10
178,348,80241,1,0
134,311,80391,1,2
101,267,80541,1,0
16,272,80691,6,0,B|-16:240,1,40,2|0
8,152,80991,2,0,B|40:184,1,40,2|0
144,208,81291,6,0,B|112:176,1,40,10|0
112,64,81591,2,0,B|144:96,1,40,2|0
248,64,81891,6,0,B|288:48,1,40,2|0
416,64,82191,2,0,B|376:80,1,40,2|0
272,192,82491,6,0,B|319:172,1,40,10|2
472,200,82791,2,0,B|424:219,1,40,2|2
296,320,83091,5,2
352,240,83241,1,2
272,192,83391,1,0
216,272,83541,1,2
152,360,83691,5,10
440,288,84291,1,4
408,80,93891,5,2
48,96,94491,2,0,B|112:80|144:128|208:112,1,160,0|0
304,96,95391,2,0,B|344:112|352:160,1,80,0|4
408,344,96291,6,0,B|448:296|440:216,1,120,0|2
472,200,96891,2,0,B|468:156|488:112,1,80,0|2
368,40,97491,1,0
248,128,97791,2,0,B|248:171|264:216,1,80,0|4
288,352,98391,5,0
256,328,98541,1,0
224,304,98691,2,0,B|160:296|112:344,1,120,4|0
352,288,99291,6,0,B|296:248|235:266,1,120,2|0
456,320,99891,6,0,B|432:280|381:267,1,80,0|0
256,176,100491,1,2
56,320,100791,1,0
88,296,100941,1,0
120,272,101091,5,0
72,136,101391,1,0
248,288,101691,2,0,B|216:192,1,80
296,64,102291,5,0
408,184,102591,1,8
222,212,102891,1,0
296,64,103191,1,0
288,56,103341,1,0
280,48,103491,5,4
344,328,104091,1,2
200,344,104391,2,0,B|232:304,1,40,2|0
225,313,104691,1,2
64,336,104991,1,8
120,88,105291,6,0,B|168:48|240:56,1,120,2|2
304,32,105891,1,8
376,56,106041,1,0
416,120,106191,1,0
376,184,106341,1,0
304,208,106491,1,2
232,232,106641,1,0
168,280,106791,1,2
128,348,106941,1,0
128,348,107091,6,0,B|168:364|208:348,1,80,2|8
136,216,107691,2,0,B|72:192|16:224,1,120,2|2
72,288,108291,1,8
144,80,108591,6,0,B|168:104|200:144,1,80,0|2
352,48,109191,1,0
360,64,109341,1,2
368,80,109491,2,0,B|344:104|312:144,1,80,2|8
256,16,110091,2,0,B|256:112,1,80,2|0
428,112,110691,5,8
392,177,110841,1,0
328,213,110991,1,0
256,213,111141,1,0
238,381,111291,5,2
200,317,111441,1,0
201,243,111591,1,0
237,181,111741,1,2
101,81,111891,5,0
175,80,112041,1,0
238,118,112191,1,8
274,181,112341,1,0
101,81,112491,5,2
269,8,112791,1,0
269,8,113091,5,8
488,48,113391,2,0,B|464:88,1,40,0|0
392,72,113691,2,0,B|368:112|368:112,1,40,6|0
408,184,113991,1,0
387,218,114141,1,2
360,304,114291,6,0,B|320:280|296:240,1,80,2|8
224,88,114891,2,0,B|224:128|208:168,1,80,2|0
16,224,115491,5,8
48,288,115641,1,0
112,320,115791,1,0
184,312,115941,1,0
256,288,116091,5,2
320,240,116241,1,2
292,172,116391,1,2
220,172,116541,1,0
196,240,116691,1,0
328,312,116991,5,8
496,224,117291,1,2
328,312,117591,5,0
400,320,117741,1,0
464,288,117891,1,8
488,144,118191,2,0,B|408:184|408:184,1,80,0|2
368,40,118791,2,0,B|336:88,1,40,2|0
280,104,119091,1,2
208,120,119241,2,0,B|208:88,2,20,0|0|8
64,80,119691,1,2
104,208,119991,1,0
104,208,120141,1,0
184,224,120291,6,0,B|224:240,1,40,8|0
328,216,120591,2,0,B|293:241,1,40,2|0
152,240,120891,6,0,B|192:256,1,40,0|0
360,192,121191,2,0,B|325:217,1,40,2|0
120,256,121491,6,0,B|160:272,1,40,0|2
392,168,121791,2,0,B|357:193,1,40,8|0
296,312,122091,5,2
272,296,122691,1,4
256,192,132291,5,4
384,280,141591,5,4
480,128,141891,1,2
416,168,142041,1,0
384,96,142191,1,0
448,56,142341,1,0
416,168,142491,6,0,B|357:183|296:176,1,119.999996423721,2|2
298,176,142941,1,0
176,152,143091,5,2
144,80,143241,1,0
64,104,143391,1,0
96,176,143541,1,0
32,32,143691,6,0,B|17:91|24:152,1,119.999996423721,2|2
23,151,144141,1,0
88,288,144291,6,0,B|136:232,1,59.9999982118607
240,184,144591,2,0,B|192:240,1,59.9999982118607,2|0
127,242,144891,5,0
200,229,145041,1,0
205,63,145191,5,2
218,136,145341,1,0
385,141,145491,5,0
312,154,145641,1,0
307,321,145791,5,2
294,248,145941,1,0
294,248,146091,5,0
218,136,146391,1,4
58,40,146691,5,2
136,8,146841,1,0
138,88,146991,1,0
60,120,147141,1,0
136,8,147291,6,0,B|192:8|256:24,1,119.999996423721,2|2
254,23,147741,1,0
384,56,147891,5,2
408,128,148041,1,0
480,96,148191,1,0
456,24,148341,1,0
408,128,148491,2,0,B|432:184|456:240,1,119.999996423721,2|2
455,238,148941,1,0
392,296,149091,6,0,B|456:320,1,59.9999982118607
360,224,149391,2,0,B|384:160,1,59.9999982118607,2|0
288,256,149691,6,0,B|224:232,1,59.9999982118607
320,328,149991,2,0,B|296:392,1,59.9999982118607,2|0
240,322,150291,6,0,B|184:344,1,59.9999982118607,0|2
90,255,150590,2,0,B|112:312,2,59.9999982118607,2|0|0
112,312,151191,1,0
40,64,151491,6,0,B|56:128|104:160|184:144,1,179.999994635582,4|0
248,96,152091,2,0,B|216:80,2,29.9999991059304,2|0|2
328,72,152391,2,0,B|320:40,2,29.9999991059304,0|0|2
424,72,152691,6,0,B|464:104|464:104|496:152|464:232,1,179.999994635582
400,280,153291,2,0,B|424:312,2,29.9999991059304,2|0|2
320,312,153590,2,0,B|336:360,2,29.9999991059304,0|0|2
232,312,153891,5,2
200,240,154041,1,0
128,264,154191,1,2
160,336,154341,1,0
232,312,154491,5,0
232,216,154641,1,2
142,206,154791,1,2
140,300,154941,1,0
232,312,155091,5,2
289,212,155241,1,0
202,147,155391,1,2
143,244,155541,1,0
232,312,155691,5,2
351,242,155841,1,0
299,122,155991,1,2
180,187,156141,1,0
64,248,156291,6,0,B|0:176|48:72,1,179.999994635582,4|0
104,24,156891,1,2
112,32,156966,1,0
120,40,157041,1,2
192,80,157191,1,0
200,72,157266,1,0
208,64,157341,1,2
288,80,157491,6,0,B|376:104|472:104,1,179.999994635582,2|0
465,103,158091,1,2
512,256,158391,1,0
512,256,158466,1,0
512,256,158541,1,2
512,256,158691,1,4
272,32,161091,6,0,B|264:104|344:128|336:200,1,179.999994635582,4|0
245,262,161691,1,8
213,138,161841,1,0
272,32,161991,1,2
376,64,162141,5,0
264,176,162291,1,0
384,88,162441,1,0
288,184,162591,1,8
392,112,162741,1,0
304,200,162891,1,8
408,128,163041,1,0
320,104,163191,5,2
232,80,163341,1,0
144,56,163491,2,0,B|72:40,1,59.9999982118607,8|0
168,144,163791,2,0,B|190:214,1,59.9999982118607,0|0
232,80,164091,6,0,B|281:25,1,59.9999982118607,8|0
152,48,164391,1,2
144,56,164466,1,0
136,64,164541,1,0
48,128,164691,2,0,B|24:192|64:240|64:240,1,119.999996423721,0|8
256,360,165291,2,0,B|280:296|240:248|240:248,1,119.999996423721,8|0
64,312,165891,6,0,B|152:351|242:304,1,179.999994635582,8|0
312,264,166491,1,8
384,304,166641,1,0
396,308,166716,1,0
408,312,166791,1,2
488,328,166941,5,0
313,264,167091,1,0
488,288,167241,1,0
336,232,167391,1,8
488,248,167541,1,0
358,199,167691,1,8
512,216,167841,1,0
357,159,167991,5,2
432,104,168141,1,0
488,32,168291,1,8
280,176,168591,5,2
313,99,168741,1,0
324,18,168891,1,8
248,40,169041,1,0
248,40,169116,1,0
248,40,169191,1,2
168,64,169341,6,0,B|112:40,1,59.9999982118607,0|0
24,72,169641,2,0,B|80:104,1,59.9999982118607,0|8
128,200,169941,2,0,B|72:176,1,59.9999982118607,0|8
256,320,170391,2,0,B|192:296|136:272,1,119.999996423721,0|4
136,368,170991,5,2
216,352,171141,1,0
236,336,171216,1,0
256,320,171291,1,8
312,264,171441,1,0
336,184,171591,1,2
336,104,171741,1,0
208,32,171891,5,0
200,104,172041,1,0
216,176,172191,1,8
256,240,172341,1,0
320,280,172491,1,8
256,240,172641,5,0
184,224,172791,1,2
109,230,172941,1,0
40,264,173091,6,0,B|16:200,1,59.9999982118607,8|0
13,193,173316,1,0
8,178,173391,1,2
104,128,173541,1,2
109,113,173616,1,0
114,97,173691,2,0,B|92:40,1,59.9999982118607,8|0
192,104,173991,2,0,B|213:160,1,59.9999982118607,2|0
288,176,174291,6,0,B|320:112|384:104|440:160,1,179.999994635582,0|2
496,216,174891,1,8
512,296,175041,1,0
432,272,175191,1,0
424,264,175266,1,0
416,256,175341,1,2
364,199,175491,6,0,B|369:77,2,119.999996423721,8|0|8
320,264,176241,1,0
272,328,176391,1,2
216,384,176541,1,0
152,336,176691,6,0,B|184:288|224:224,1,119.999996423721,0|8
192,160,177141,1,0
184,152,177216,1,0
176,144,177291,1,8
40,312,177591,2,0,B|-16:272,1,59.9999982118607,2|0
0,144,177891,6,0,B|32:200|32:200,1,59.9999982118607,8|0
44,204,178116,1,0
56,212,178191,1,0
136,224,178341,1,2
144,144,178491,1,8
224,152,178641,1,0
216,232,178791,1,2
312,232,178941,5,0
296,144,179091,1,0
384,128,179241,1,2
400,216,179391,1,8
488,224,179541,5,0
496,208,179616,1,0
504,192,179691,1,6
398,372,180291,6,0,B|350:332|342:260|405:212,1,179.999994635582,4|2
400,128,180891,1,8
376,136,180966,1,0
352,144,181041,1,2
270,82,181191,1,0
250,184,181341,1,2
250,184,181491,5,0
264,312,181641,1,2
368,232,181791,1,8
250,184,181941,1,0
144,264,182091,6,0,B|72:256|72:256,1,59.9999982118607,8|0
160,168,182391,2,0,B|88:184,1,59.9999982118607,2|2
0,208,182691,5,8
48,88,182841,2,0,B|112:104,1,59.9999982118607,0|2
232,32,183141,2,0,B|256:88,1,59.9999982118607,0|8
392,112,183441,1,0
384,128,183516,1,0
376,144,183591,1,2
368,40,183741,6,0,B|398:24|432:48,1,59.9999982118607
401,207,184041,2,0,B|373:222|335:210,1,59.9999982118607,2|8
343,212,184491,2,0,B|374:224|417:226|445:207|458:177,1,119.999996423721,8|2
467,170,184866,1,0
472,144,184941,1,2
368,40,185091,6,0,B|337:28|304:24|271:44|253:75,1,119.999996423721,8|0
200,112,185541,1,2
136,72,185691,1,8
48,16,185841,5,2
56,32,185916,1,0
64,48,185991,2,0,B|71:122,1,59.9999982118607,2|0
80,240,186291,5,2
40,176,186441,1,2
96,312,186591,6,0,B|144:352|224:344,1,119.999996423721,8|8
0,320,187191,2,0,B|8:248,1,59.9999982118607,2|0
120,164,187491,5,8
40,176,187641,1,0
208,148,187791,5,2
120,164,187941,1,0
304,132,188091,5,8
208,148,188241,1,2
408,108,188391,5,0
304,132,188541,1,2
432,28,188691,6,0,B|480:44|488:100,1,89.9999973177911,0|0
480,124,188991,2,0,B|496:188,1,59.9999982118607,8|0
464,352,189291,6,0,B|416:336|408:280,1,89.9999973177911,8|0
416,256,189591,2,0,B|400:192,1,59.9999982118607,2|0
493,45,189891,5,4
400,56,190041,1,0
400,128,190191,5,2
307,139,190341,1,0
304,216,190491,5,8
211,227,190641,1,0
192,144,190791,5,2
99,155,190941,1,0
88,248,191091,6,0,B|40:288,1,59.9999982118607,2|0
145,117,191391,2,0,B|97:157,1,59.9999982118607,8|2
43,287,191691,5,8
88,344,191841,1,0
160,328,191991,1,2
232,344,192141,1,0
280,288,192291,1,8
160,232,192441,6,0,B|224:264,1,59.9999982118607,0|2
352,264,192741,2,0,B|405:237,1,59.9999982118607,0|8
416,136,193041,6,0,B|352:104,1,59.9999982118607,0|2
224,104,193341,2,0,B|170:130,2,59.9999982118607,2|0|2
320,40,193791,1,8
304,48,193866,1,0
288,56,193941,1,0
176,40,194091,2,0,B|120:16|56:24,1,119.999996423721,8|6
96,312,194691,6,0,B|128:328|160:328,1,59.9999982118607,8|0
80,240,194991,1,0
153,328,195141,1,2
264,344,195291,6,0,B|328:344|328:344,1,59.9999982118607,8|0
424,296,195591,1,2
432,304,195666,1,0
440,312,195741,1,0
512,224,195891,5,2
484,360,196041,1,0
472,224,196191,1,8
460,336,196341,1,0
432,224,196491,5,8
352,136,196641,1,0
432,48,196791,1,2
512,136,196941,1,0
432,224,197091,5,8
352,136,197241,1,2
248,64,197391,1,0
248,176,197541,1,2
216,280,197691,1,8
216,104,197841,5,2
248,208,197991,1,0
248,320,198141,1,2
352,248,198291,1,2
432,160,198441,1,0
512,192,198591,5,8
160,192,198891,1,6
512,192,199490,5,4
