osu file format v9

[General]
AudioFilename: Flower Dance.mp3
AudioLeadIn: 0
PreviewTime: 45560
Countdown: 0
SampleSet: Soft
StackLeniency: 0.7
Mode: 0
LetterboxInBreaks: 1

[Editor]
DistanceSpacing: 1.2
BeatDivisor: 2
GridSize: 8

[Metadata]
Title:Flower Dance (Short Ver.)
Artist:DJ Okawari
Creator:LKs
Version:Hard
Source:Kaleidoscope
Tags:ISHIDAMITSUNARI spboxer3

[Difficulty]
HPDrainRate:5
CircleSize:4
OverallDifficulty:6
ApproachRate:7
SliderMultiplier:0.999999999999999
SliderTickRate:1

[Events]
//Background and Video events
0,0,"bg.png"
//Break Periods
2,84490,92990
2,122890,131390
2,132490,140690
//Storyboard Layer 0 (Background)
//Storyboard Layer 1 (Fail)
//Storyboard Layer 2 (Pass)
//Storyboard Layer 3 (Foreground)
//Storyboard Sound Samples
//Background Colour Transformations
3,100,163,162,255

[TimingPoints]
25490,300,4,2,2,36,1,0
43490,-125,4,2,2,36,0,0
44540,-100,4,2,2,36,0,0
44990,-100,4,2,2,45,0,0
45290,-100,4,2,1,50,0,0
45890,-100,4,1,0,60,0,0
46190,-100,4,2,1,50,0,0
46790,-100,4,2,2,50,0,0
47390,-100,4,2,1,50,0,0
49190,-100,4,2,2,50,0,0
49790,-100,4,2,1,50,0,0
51590,-100,4,2,2,50,0,0
52190,-100,4,2,1,50,0,0
53090,-100,4,2,1,50,0,0
53240,-100,4,2,2,50,0,0
53390,-100,4,2,1,50,0,0
53990,-100,4,2,2,50,0,0
54590,-100,4,2,1,50,0,0
54890,-100,4,2,1,50,0,0
55190,-100,4,2,1,50,0,0
56390,-100,4,2,2,50,0,0
56990,-100,4,2,1,50,0,0
58790,-100,4,2,2,50,0,0
59390,-100,4,2,1,50,0,0
60590,-100,4,2,2,50,0,0
60890,-100,4,2,1,50,0,0
61190,-100,4,2,2,50,0,0
61790,-100,4,2,1,50,0,0
62990,-100,4,2,2,50,0,0
63290,-100,4,2,1,50,0,0
63590,-100,4,2,2,50,0,0
64190,-100,4,2,1,50,0,0
65090,-100,4,2,0,50,0,0
93890,-100,4,2,0,55,0,0
102590,-100,4,2,2,55,0,0
102890,-100,4,2,1,55,0,0
103490,-100,4,1,0,55,0,1
103640,-100,4,2,1,55,0,1
113090,-100,4,2,2,65,0,1
113690,-100,4,2,1,55,0,1
114140,-100,4,2,2,65,0,1
114590,-100,4,2,1,55,0,1
115640,-100,4,2,2,65,0,1
116090,-100,4,2,1,55,0,1
116390,-100,4,2,2,65,0,1
116990,-100,4,2,1,55,0,1
118190,-100,4,2,2,65,0,1
118490,-100,4,2,1,55,0,1
119090,-100,4,2,2,65,0,1
119390,-100,4,2,1,55,0,1
119990,-100,4,2,2,65,0,1
120290,-100,4,2,1,55,0,1
122690,-100,4,2,0,55,0,0
132290,-100,4,2,1,35,0,0
141590,-100,4,2,2,55,0,0
158690,-100,4,2,1,55,0,0
161090,-100,4,2,1,60,0,1
161990,-100,4,2,2,60,0,1
162590,-100,4,2,1,60,0,1
163490,-100,4,2,1,60,0,1
163640,-100,4,2,2,60,0,1
164090,-100,4,2,1,60,0,1
164690,-100,4,2,2,60,0,1
164990,-100,4,2,1,60,0,1
166790,-100,4,2,2,60,0,1
167390,-100,4,2,1,60,0,1
168440,-100,4,2,2,60,0,1
168890,-100,4,2,1,60,0,1
169490,-100,4,2,2,60,0,1
170090,-100,4,2,1,60,0,1
171590,-100,4,2,2,60,0,1
171890,-100,4,2,2,60,0,1
172190,-100,4,2,1,60,0,1
173990,-100,4,2,2,60,0,1
174590,-100,4,2,1,60,0,1
176690,-100,4,2,2,60,0,1
176990,-100,4,2,1,60,0,1
177590,-100,4,2,2,60,0,1
178490,-100,4,2,1,60,0,1
179090,-100,4,2,2,60,0,1
179240,-100,4,2,1,60,0,1
181190,-100,4,2,2,60,0,1
181490,-100,4,2,1,60,0,1
182690,-100,4,2,1,60,0,1
182990,-100,4,2,2,60,0,1
183140,-100,4,2,1,60,0,1
183440,-100,4,2,2,60,0,1
184190,-100,4,2,1,60,0,1
186140,-100,4,2,2,60,0,1
186590,-100,4,2,1,60,0,1
187790,-100,4,2,2,60,0,1
188090,-100,4,2,1,60,0,1
188390,-100,4,2,2,60,0,1
188690,-100,4,2,1,60,0,1
190790,-100,4,2,2,60,0,1
191390,-100,4,2,1,60,0,1
192590,-100,4,2,2,60,0,1
192890,-100,4,2,1,60,0,1
193190,-100,4,2,2,60,0,1
193340,-100,4,2,1,60,0,1
194990,-100,4,2,2,60,0,1
195290,-100,4,2,1,60,0,1
195590,-100,4,2,2,60,0,1
195890,-100,4,2,1,60,0,1
196040,-100,4,2,2,60,0,1
196190,-100,4,2,1,60,0,1
196340,-100,4,2,2,60,0,1
196490,-100,4,2,1,60,0,1
196790,-100,4,2,2,60,0,1
197090,-100,4,2,1,60,0,1
197390,-100,4,2,1,30,0,1
199490,-100,4,2,2,40,0,0

[Colours]
Combo1 : 86,86,252
Combo2 : 196,196,196
Combo3 : 255,111,62
SliderBorder : 255,255,255

[HitObjects]
32,64,26690,1,0
120,128,26990,1,2
296,80,27590,1,2
112,48,28190,5,0
40,144,28490,1,2
120,224,28790,1,0
120,144,29090,5,0
40,224,29390,1,2
256,320,29990,1,2
32,304,30590,5,0
120,344,30890,1,2
192,272,31190,1,0
96,232,31490,5,0
120,344,31790,1,2
256,192,32390,1,2
392,344,32990,1,0
416,232,33290,1,2
480,304,33590,5,0
496,192,33890,1,0
456,96,34190,1,2
368,40,34490,1,0
288,104,34790,1,2
224,280,35390,5,2
144,344,35690,1,0
56,288,35990,1,2
136,224,36290,5,0
48,168,36590,1,2
256,144,37190,1,2
128,144,37790,5,0
56,248,38090,1,2
200,40,38690,5,0
256,144,38990,1,2
256,344,39590,1,2
256,144,40190,1,0
312,40,40490,1,2
256,144,40790,1,0
384,144,41090,5,0
480,208,41390,1,2
256,256,41990,1,2
464,128,42590,5,0
400,224,42890,1,2
352,328,43190,1,0
256,256,43490,2,0,B|256:120,1,120,0|0
256,136,44090,2,0,B|256:48,1,79.9999999999999,0|2
360,192,44690,5,0
256,256,44990,1,8
152,192,45290,1,8
80,352,45890,5,4
8,256,46190,2,0,B|24:200,1,50,8|0
72,176,46490,2,0,B|16:72,2,100,2|2|2
176,232,47390,6,0,B|232:336,1,100,8|2
336,360,47990,2,0,B|304:304,1,50
368,296,48290,2,0,B|416:280|432:216,1,100,8|0
488,200,48740,2,0,B|456:144,1,50,0|2
456,40,49190,2,0,B|392:40|376:96,1,100,2|2
256,96,49790,6,0,B|256:160|312:176,1,100,8|2
424,184,50390,1,0
408,240,50540,1,0
376,288,50690,2,0,B|344:328|288:336,1,100,8|0
232,336,51140,2,0,B|256:288,1,50,0|2
200,184,51590,6,0,B|152:280,1,100,2|2
48,224,52190,2,0,B|0:320,2,100,8|2|0
88,112,53090,6,0,B|40:88,1,50,8|2
43,89,53390,2,0,B|80:56|136:48,1,100,0|2
240,104,53990,2,0,B|288:128,1,50,0|2
284,126,54290,2,0,B|247:159|191:167,1,100,2|8
132,48,54890,5,2
194,167,55190,1,0
320,112,55490,2,0,B|400:112|464:64,1,150,8|0
460,66,56090,2,0,B|480:120|480:168,1,100,2|2
376,224,56690,2,0,B|375:268|395:321,1,100,2|8
512,360,57290,6,0,B|448:320|360:320,1,150,2|2
320,352,57890,2,0,B|241:352|177:312,1,150,8|0
120,296,58490,2,0,B|64:320,2,50,2|0|2
96,176,59090,2,0,B|-8:216,2,100,2|8|2
120,56,59990,6,0,B|160:96,1,50,0|2
216,96,60290,2,0,B|256:128|312:120,1,100,8|2
368,104,60740,1,0
416,72,60890,1,2
480,176,61190,6,0,B|432:216,1,50,2|0
416,264,61490,2,0,B|368:224,1,50,0|2
320,224,61790,2,0,B|232:296|232:296,1,100,8|2
336,360,62390,5,0
336,360,62540,1,2
336,360,62690,1,8
242,287,62990,1,2
50,143,63290,1,2
144,216,63590,1,2
329,74,63890,1,2
256,168,64190,1,8
128,336,64490,5,2
48,40,65090,5,2
288,48,65690,2,0,B|232:96|144:88,1,150,8|2
88,88,66290,2,0,B|24:160|32:280,2,200,2|8|2
264,120,67940,1,0
320,128,68090,6,0,B|400:136|456:192,1,150,8|0
472,248,68690,2,0,B|438:174|459:98,1,150,2|0
504,56,69290,2,0,B|457:121|380:141,1,150,8|0
320,128,69890,5,2
136,280,70490,2,0,B|184:344|272:344,1,150,8|0
328,336,71090,2,0,B|432:352,1,100,2|2
456,352,71465,2,0,B|496:336|504:288,1,74.9999999999999,0|8
488,192,71990,1,0
416,96,72290,5,0
320,168,72590,1,2
248,72,72890,1,8
344,0,73190,1,2
160,152,73790,1,2
232,248,74090,1,8
136,320,74390,1,2
64,224,74690,6,0,B|16:152|56:80,1,150,0|2
112,112,75290,1,8
224,160,75590,1,2
136,80,75890,1,0
264,144,76190,1,2
160,48,76490,1,8
304,128,76790,2,0,B|360:112,1,50,2|0
408,112,77090,5,0
488,200,77390,1,2
408,112,77690,1,8
432,248,77990,1,2
360,272,78290,1,2
360,272,78440,1,0
360,272,78590,1,0
408,112,78890,1,8
280,272,79190,1,2
160,344,79490,6,0,B|224:352,1,50,0|2
152,336,79790,2,0,B|160:288,1,50,0|2
144,328,80090,2,0,B|64:320|40:216,1,150,8|2
88,192,80690,6,0,B|144:240,1,50,0|2
96,184,80990,2,0,B|152:208,1,50,0|2
104,176,81290,2,0,B|136:112|224:88,1,150,8|2
264,48,81890,6,0,B|320:80,1,50,0|2
352,40,82190,2,0,B|408:72,1,50,0|2
448,48,82490,2,0,B|504:104|488:200,1,150,8|2
448,224,83090,6,0,B|400:248,2,50,2|2|0
424,344,83690,1,8
208,240,84290,1,4
56,104,93890,5,2
176,104,94190,2,0,B|184:168|120:192,1,100,0|8
256,192,94790,1,2
284,232,94940,1,0
312,272,95090,2,0,B|400:256|408:168,1,150
407,172,95690,1,8
384,56,95990,5,0
264,64,96290,2,0,B|184:48|120:96,1,150,0|2
80,136,96890,2,0,B|56:184|64:232,1,100,8|2
152,312,97490,5,0
144,256,97640,1,2
168,200,97790,1,0
256,280,98090,1,8
360,312,98390,5,2
368,256,98540,1,0
344,200,98690,1,4
208,160,98990,5,2
304,160,99290,1,0
200,144,99590,1,2
312,144,99890,1,0
192,128,100190,1,2
320,128,100490,1,0
184,112,100790,1,2
192,96,100940,1,0
200,80,101090,1,0
152,160,101390,5,2
360,160,101990,1,2
256,104,102290,1,2
256,216,102590,1,8
256,328,102890,1,8
456,264,103490,6,0,B|496:304,1,50,4|0
368,240,103790,2,0,B|408:280,1,50,0|0
280,208,104090,2,0,B|320:248,1,50,8|0
192,176,104390,2,0,B|232:216,1,50,0|0
170,125,104690,2,0,B|184:70,1,50,0|0
136,169,104990,2,0,B|81:183,2,50,8|0|8
456,120,105890,6,0,B|496:80,1,50,4|0
368,144,106190,2,0,B|408:104,1,50,0|0
280,176,106490,2,0,B|320:136,1,50,8|0
192,208,106790,2,0,B|232:168,1,50,0|0
170,259,107090,2,0,B|184:313,1,50,0|0
136,215,107390,2,0,B|81:200,2,50,8|0|8
264,360,108290,6,0,B|216:352,1,50,8|0
320,312,108590,2,0,B|272:304,1,50,0|0
368,280,108890,6,0,B|416:272,1,50,8|0
312,232,109190,2,0,B|360:224,1,50,0|0
264,200,109490,6,0,B|216:192,1,50,0|0
320,152,109790,2,0,B|272:144,2,50,8|0|8
96,160,110690,6,0,B|72:104,1,50,8|0
152,192,110990,2,0,B|128:248,1,50,0|0
180,137,111290,2,0,B|151:69,1,50,8|0
248,216,111590,2,0,B|219:283,1,50,0|0
264,120,111890,2,0,B|229:39,1,50,0|0
344,248,112190,2,0,B|309:328,2,50,8|0|8
440,176,112790,1,0
416,48,113090,6,0,B|456:80,1,50,0|2
456,184,113390,2,0,B|488:144,1,50,0|2
440,256,113690,2,0,B|480:288,1,50,8|0
368,280,113990,2,0,B|336:320,1,50,0|2
272,352,114290,2,0,B|232:320,2,50,0|2|8
160,352,114890,2,0,B|146:293|192:256,1,99.9999999999999,8|0
96,336,115490,6,0,B|56:304,1,50,0|2
56,200,115790,2,0,B|24:240,1,50,0|2
72,128,116090,2,0,B|32:96,1,50,8|0
144,104,116390,2,0,B|176:64,1,50,0|2
240,32,116690,2,0,B|280:64,2,50,0|2|8
352,32,117290,2,0,B|368:96|320:128,1,100,8|0
480,128,117890,5,8
416,208,118190,1,2
360,184,118340,1,0
304,168,118490,1,8
248,184,118640,1,0
192,208,118790,1,0
80,256,119090,5,2
136,280,119240,1,0
192,296,119390,1,8
248,280,119540,1,0
304,256,119690,1,8
192,208,119990,5,0
248,232,120140,1,2
304,256,120290,1,8
104,184,120890,1,8
392,280,121790,5,8
104,184,122090,1,8
296,112,122690,5,4
256,192,132290,5,4
256,88,141590,5,4
376,112,141890,6,0,B|419:87,3,50,2|0|0|0
472,56,142490,2,0,B|504:136|464:208,1,150,2|0
440,256,143090,6,0,B|384:232,3,50,2|0|0|0
368,288,143690,2,0,B|312:344|232:344,1,150,2|0
176,336,144290,1,0
120,312,144440,1,0
80,264,144590,1,2
95,145,144890,1,2
102,205,145040,1,0
80,264,145190,1,0
16,160,145490,6,0,B|8:104|56:72,1,100,2|0
168,40,146090,2,0,B|224:32|256:80,1,100,2|0
368,40,146690,6,0,B|352:96,3,50,2|0|0|0
336,144,147290,2,0,B|296:208|208:224,1,150,2|0
152,216,147890,6,0,B|96:208,3,50,2|0|0|0
152,240,148490,2,0,B|192:304|272:328,1,150,2|0
328,320,149090,6,0,B|352:272|400:256,1,100,0|2
496,184,149690,2,0,B|472:136|424:120,1,100,0|2
360,16,150290,2,0,B|312:40|296:88,1,100,0|2
184,136,150890,2,0,B|208:184|256:200,1,100,2|0
376,224,151490,6,0,B|352:288,3,50,2|0|2|0
304,296,152090,2,0,B|280:360,3,50,0|2|2|0
232,328,152690,6,0,B|176:344,3,50,2|0|2|0
128,336,153290,2,0,B|48:304|72:208,1,150,2|0
48,160,153890,6,0,B|8:120,1,50
104,136,154190,2,0,B|144:104,1,50,2|0
200,104,154490,6,0,B|160:144,1,50,0|2
256,128,154790,2,0,B|296:160,1,50,2|0
352,160,155090,6,0,B|312:120,1,50
376,128,155390,2,0,B|416:96,2,50,2|2|0
488,176,155990,1,2
136,224,156290,6,0,B|160:288,3,50,2|0|2|0
208,296,156890,2,0,B|232:360,3,50,0|2|2|0
280,328,157490,6,0,B|336:344,3,50,2|0|2|0
384,336,158090,2,0,B|464:304|440:208,1,150,2|0
441,213,158690,1,8
256,64,159290,1,8
208,176,159590,1,0
320,208,159890,1,0
256,320,160190,5,8
71,171,160490,1,8
32,352,161090,6,0,B|112:328|152:264,1,150,4|0
176,208,161690,1,8
144,88,161990,2,0,B|200:104,1,50,2|2
256,112,162290,2,0,B|256:48,2,50,0|2|8
376,136,162890,6,0,B|424:168|440:208|400:272,1,150,8|0
352,288,163490,2,0,B|296:312,1,50,8|2
344,224,163790,2,0,B|288:248,1,50,2|0
248,328,164090,6,0,B|176:360|96:328,1,150,8|0
64,288,164690,2,0,B|120:256,1,50,2|2
40,224,164990,2,0,B|96:192,1,50,8|0
160,232,165290,6,0,B|208:160|152:80,1,150,8|0
104,72,165890,6,0,B|176:104|256:88,1,150,4|0
312,72,166490,1,8
432,48,166790,2,0,B|448:80|448:104,1,50,2|2
424,152,167090,2,0,B|408:184|408:208,2,50,0|2|8
304,176,167690,6,0,B|224:200|160:152,1,150,8|0
104,160,168290,2,0,B|48:192,1,50,0|2
0,184,168590,2,0,B|56:216,1,50,2|0
64,296,168890,6,0,B|126:342|206:318,1,150,8|0
264,304,169490,2,0,B|240:256,1,50,2|2
344,328,169790,2,0,B|320:280,1,50
304,208,170090,6,0,B|384:200|448:256,1,150,8|0
488,288,170690,6,0,B|441:222|457:139,1,150,4|0
472,88,171290,1,8
424,56,171440,1,0
376,88,171590,1,2
398,140,171740,1,0
360,184,171890,2,0,B|312:168|256:176,1,100,2|8
216,64,172490,6,0,B|160:136|216:208,1,150,8|0
240,256,173090,1,8
112,289,173390,1,0
40,179,173690,1,8
123,76,173990,1,2
246,123,174290,1,2
360,96,174590,1,0
360,96,174740,1,0
360,96,174890,2,0,B|432:144|440:224,1,150,8|0
464,272,175490,6,0,B|386:310|313:277,1,150,4|0
200,232,176090,2,0,B|277:193|350:226,1,150,8|0
319,279,176690,1,2
376,168,176990,1,8
432,56,177290,1,8
408,176,177590,5,2
376,168,177740,1,0
344,160,177890,2,0,B|288:144,3,50,0|2|0|2
240,128,178490,6,0,B|168:96|88:112,1,150,8|8
64,128,179090,1,2
40,152,179240,1,0
32,184,179390,1,0
152,264,179690,1,8
40,216,179990,1,0
256,328,180290,6,0,B|328:320|416:336,1,150,4|0
384,280,180890,2,0,B|432:232,1,50,8|0
320,248,181190,2,0,B|360:208,1,50,2|0
256,216,181490,6,0,B|304:168,1,50,0|0
192,184,181790,2,0,B|232:144,1,50,8|0
128,152,182090,6,0,B|56:200|88:296,1,150,8|0
32,320,182690,2,0,B|0:280,2,50,8|0|2
88,344,183140,2,0,B|136:336,3,50,0|8|0|2
280,296,183890,5,0
137,335,184190,1,8
81,199,184490,1,8
224,160,184790,1,0
128,64,185090,5,4
248,80,185390,2,0,B|336:96,1,50,0|0
352,72,185690,2,0,B|440:88,1,50,8|0
456,64,185990,2,0,B|496:104,3,50,0|2|2|0
488,160,186590,1,8
456,208,186740,1,0
408,240,186890,1,8
480,336,187190,1,0
360,336,187490,6,0,B|304:360,1,50,8|0
264,328,187790,1,2
264,328,187940,1,2
208,328,188090,2,0,B|152:352,1,50,8|0
112,320,188390,1,2
112,320,188540,1,0
64,288,188690,5,0
128,192,188990,1,8
192,88,189290,1,8
216,208,189590,1,0
257,328,189890,6,0,B|185:320|97:336,1,150,4|0
129,280,190490,2,0,B|81:232,1,50,8|0
193,248,190790,2,0,B|153:208,1,50,2|0
257,216,191090,6,0,B|209:168,1,50,0|2
321,184,191390,2,0,B|281:144,1,50,8|0
385,152,191690,6,0,B|457:200|425:296,1,150,8|0
481,320,192290,2,0,B|513:280,2,50,8|0|2
425,344,192740,2,0,B|377:336,3,50,0|8|0|2
233,296,193490,5,0
376,336,193790,1,8
432,199,194090,1,8
289,160,194390,1,0
384,96,194690,5,4
280,32,194990,1,0
232,64,195140,1,2
184,96,195290,1,8
64,112,195590,6,0,B|56:168|104:200,1,100,2|0
160,208,196040,1,2
216,224,196190,1,8
264,256,196340,1,0
304,304,196490,1,8
408,360,196790,1,2
456,328,196940,1,0
472,272,197090,1,4
256,192,197240,12,4,199490
