osu file format v9

[General]
AudioFilename: Flower Dance.mp3
AudioLeadIn: 0
PreviewTime: 45560
Countdown: 0
SampleSet: Soft
StackLeniency: 0.7
Mode: 0
LetterboxInBreaks: 1

[Editor]
Bookmarks: 45860,65060,74660,84260,141860
DistanceSpacing: 0.8
BeatDivisor: 1
GridSize: 16

[Metadata]
Title:Flower Dance (Short Ver.)
Artist:DJ Okawari
Creator:LKs
Version:Easy
Source:Kaleidoscope
Tags:ISHIDAMITSUNARI spboxer3

[Difficulty]
HPDrainRate:2
CircleSize:3
OverallDifficulty:3
ApproachRate:3
SliderMultiplier:0.6
SliderTickRate:1

[Events]
//Background and Video events
0,0,"bg.png"
//Break Periods
2,84490,92450
2,122890,130850
2,132490,140450
2,158890,159650
//Storyboard Layer 0 (Background)
//Storyboard Layer 1 (Fail)
//Storyboard Layer 2 (Pass)
//Storyboard Layer 3 (Foreground)
//Storyboard Sound Samples
//Background Colour Transformations
3,100,163,162,255

[TimingPoints]
25490,300,4,2,2,40,1,0
45290,-100,4,2,1,50,0,0
45890,-100,4,2,1,56,0,0
65090,-100,4,2,2,56,0,0
66890,-100,4,2,0,56,0,0
66965,-100,4,2,2,56,0,0
69290,-100,4,2,0,56,0,0
69590,-100,4,2,2,56,0,0
71690,-100,4,2,0,56,0,0
71765,-100,4,2,2,56,0,0
74090,-100,4,2,0,56,0,0
74690,-100,4,2,2,56,0,0
76490,-100,4,2,0,56,0,0
76565,-100,4,2,2,56,0,0
78890,-100,4,2,0,56,0,0
79190,-100,4,2,2,56,0,0
81290,-100,4,2,0,56,0,0
81590,-100,4,2,2,56,0,0
83690,-100,4,2,0,56,0,0
83990,-100,4,2,1,56,0,0
93890,-100,4,2,2,56,0,0
94490,-100,4,2,0,56,0,0
94565,-100,4,2,2,56,0,0
95690,-100,4,2,0,56,0,0
95990,-100,4,2,2,56,0,0
96890,-100,4,2,0,56,0,0
96965,-100,4,2,2,56,0,0
98090,-100,4,2,0,56,0,0
98240,-100,4,2,2,56,0,0
102590,-100,4,2,2,56,0,0
102890,-100,4,2,1,55,0,0
103490,-100,4,2,1,60,0,1
109790,-100,4,2,1,44,0,1
110090,-100,4,2,1,60,0,1
114590,-100,4,2,1,44,0,1
114890,-100,4,2,1,60,0,1
119390,-100,4,2,1,44,0,1
119690,-100,4,2,1,60,0,1
122690,-100,4,2,0,45,0,0
132260,-100,4,2,1,30,0,0
141860,-100,4,2,2,47,0,0
151460,-100,4,2,2,50,0,0
152090,-100,4,2,0,50,0,0
152165,-100,4,2,2,50,0,0
153290,-100,4,2,0,50,0,0
153365,-100,4,2,2,50,0,0
154490,-100,4,2,0,50,0,0
156290,-100,4,2,2,50,0,0
156890,-100,4,2,0,50,0,0
156965,-100,4,2,2,50,0,0
158090,-100,4,2,0,50,0,0
158165,-100,4,2,2,50,0,0
161090,-100,4,2,1,62,0,1
177890,-100,4,2,0,62,0,1
177965,-100,4,2,2,62,0,1
178190,-100,4,2,0,62,0,1
178265,-100,4,2,1,62,0,1
178790,-100,4,2,0,62,0,1
179690,-100,4,2,1,62,0,1
197090,-100,4,2,2,62,0,1
199490,-100,4,2,2,40,0,0

[Colours]
Combo1 : 86,86,252
Combo2 : 196,196,196
Combo3 : 255,111,62
SliderBorder : 255,255,255

[HitObjects]
48,336,26690,2,0,B|160:320|288:336,1,240
384,352,28490,2,0,B|432:320|464:256,1,120
464,160,29690,2,0,B|434:101|386:69,2,120
368,192,31490,5,0
272,208,32090,1,0
176,224,32690,2,0,B|32:224,2,120
240,96,34790,2,0,B|160:64|64:48,1,180
32,144,36290,6,0,B|-16:256|80:320,2,180
112,192,38690,2,0,B|240:192,1,120
304,256,39890,2,0,B|432:272,2,120
224,320,41690,5,0
128,304,42290,2,0,B|-16:288,1,120
0,192,43490,2,0,B|128:208,2,120,0|0|0
48,112,45290,1,8
128,64,45890,5,4
224,64,46490,2,0,B|288:128|384:0|448:64,1,240,8|8
512,144,48290,5,2
496,240,48890,2,0,B|489:345|422:382|321:314,1,240,8|8
240,304,50690,5,2
144,336,51290,2,0,B|0:304|64:144,1,240,8|8
144,208,53090,5,2
240,224,53690,2,0,B|368:224,1,120,8|2
400,256,54590,2,0,B|464:256,1,60,2|8
512,176,55490,5,4
496,80,56090,2,0,B|448:32|384:32,2,120,8|0|8
416,144,57890,5,2
336,80,58490,2,0,B|272:48|208:80,2,120,8|0|8
304,176,60290,5,2
240,256,60890,2,0,B|160:368,2,120,8|0|8
208,224,62390,1,0
160,224,62690,2,0,B|32:240,3,120,2|8|0|8
80,144,65090,6,0,B|48:96|32:32,2,120,4|2|0
160,208,66890,2,0,B|176:272|208:320,1,120,8|0
304,320,68090,6,0,B|336:272|352:208,2,120,2|0|8
400,336,69890,2,0,B|512:288,1,120
480,192,71090,2,0,B|416:176,2,60,0|2|8
400,128,72290,5,0
352,48,72890,2,0,B|288:64|256:128,1,120,0|0
224,144,73790,2,0,B|192:208,1,60,2|8
112,160,74690,5,4
16,128,75290,2,0,B|16:192|64:256,1,120,2|0
128,304,76490,2,0,B|192:304|256:256,1,120,8|0
288,256,77390,6,0,B|320:320,2,60,2|0|2
336,240,78290,2,0,B|448:176,1,120,0|8
480,272,79490,5,0
400,336,80090,1,2
304,336,80690,2,0,B|160:320,1,120,0|8
96,352,81890,5,4
0,256,82790,2,0,B|32:192,1,60,2|0
64,112,83690,1,8
160,128,84290,5,4
448,208,93890,5,4
512,288,94490,2,0,B|464:336|400:352,1,120,8|0
320,320,95690,1,8
224,304,96290,2,0,B|96:320,2,120,0|8|0
256,272,97790,2,0,B|224:208,1,60,0|8
128,224,98690,6,0,B|96:160,1,60,4|2
192,128,99590,2,0,B|144:64,2,60,2|0|2
272,64,100790,2,0,B|224:16,4,60,2|0|2|0|2
368,48,102590,6,0,B|352:112,1,60,8|8
432,160,103490,1,4
464,256,104090,6,0,B|432:352|320:352,2,180,2|8|0
384,208,106490,1,2
288,240,107090,1,0
192,208,107690,1,2
132,284,108290,1,0
36,252,108890,6,0,B|100:188|148:108,2,180,2|8|0
20,156,111290,1,2
48,64,111890,1,0
136,28,112490,1,2
229,49,113090,1,0
304,112,113690,6,0,B|416:144|480:80,2,180,2|8|0
336,208,116090,1,2
416,256,116690,1,0
351,324,117290,1,2
271,276,117890,1,0
191,228,118490,6,0,B|143:52,2,180,2|8|0
98,263,120890,1,2
32,336,121490,2,0,B|-27:317,2,60,0|8|2
128,320,122690,5,4
256,192,132290,5,4
464,80,141890,6,0,B|448:160,3,60,0|2|0|2
368,192,143390,2,0,B|304:160,2,60,2|0|2
384,240,144290,5,0
304,288,144890,1,2
208,272,145490,1,0
128,336,146090,1,2
32,320,146690,6,0,B|48:256,3,60,0|2|0|2
48,160,148190,2,0,B|32:96,2,60,2|0|2
96,144,149090,5,0
176,80,149690,1,2
272,64,150290,1,0
368,80,150890,1,2
464,96,151490,6,0,B|480:160,3,60,0|2|8|2
384,160,152990,2,0,B|368:96,2,60,2|8|2
336,176,153890,5,0
256,112,154490,1,2
176,176,155090,1,0
96,112,155690,1,2
32,192,156290,6,0,B|0:128,3,60,0|2|8|2
80,80,157790,2,0,B|48:16,2,60,2|8|2
128,96,158690,5,4
336,48,161090,37,4
448,48,161690,6,0,B|512:192|384:256,2,240,8|8|8
352,80,164690,1,0
256,64,165290,2,0,B|192:80,1,60,8|0
160,112,165890,5,0
64,80,166490,2,0,B|16:224|144:288,2,240,8|8|8
160,48,169490,1,0
256,64,170090,2,0,B|304:128,1,60,8|0
336,128,170690,5,4
416,192,171290,2,0,B|400:256|368:320,1,120,8|0
320,304,172190,2,0,B|272:368,1,60,0|8
192,320,173090,1,0
96,304,173690,1,8
16,240,174290,2,0,B|0:160,2,60,0|0|8
80,160,175490,5,0
160,224,176090,2,0,B|208:272|272:288,1,120,8|0
304,320,176990,2,0,B|384:336,1,60,0|8
464,336,177890,2,0,B|496:272,2,60,0|2|8
464,240,179090,5,0
432,144,179690,1,8
448,48,180290,5,4
352,80,180890,2,0,B|256:96|160:112,1,180,8|0
128,96,182090,2,0,B|62:102|16:160,2,120,8|0|8
160,192,183890,2,0,B|240:240,2,60,0|0|8
128,224,184790,1,0
96,256,185090,6,0,B|97:329|176:352,1,120,0|8
209,344,185990,1,0
304,352,186590,2,0,B|384:320,1,60,0|8
454,345,187490,1,0
512,272,188090,2,0,B|480:224|480:144,1,120,8|0
448,128,188990,1,0
400,144,189290,1,8
352,128,189590,1,0
350,175,189890,5,4
288,240,190490,2,0,B|288:368|144:336,1,180,8|0
128,320,191690,2,0,B|16:240,2,120,8|0|8
160,224,193490,1,0
144,176,193790,1,0
128,128,194090,1,8
208,64,194690,5,4
304,96,195290,1,8
400,80,195890,2,0,B|464:32,3,60,0|0|8|0
496,64,197090,5,4
256,192,197690,12,4,199490
