osu file format v14

[General]
AudioFilename: Flower Dance.mp3
AudioLeadIn: 0
PreviewTime: 103200
Countdown: 0
SampleSet: Normal
StackLeniency: 0.7
Mode: 0
LetterboxInBreaks: 1
WidescreenStoryboard: 1

[Editor]
Bookmarks: 35700,44850,63075,84300,95775,102075,131100,137775,160425,182925
DistanceSpacing: 2
BeatDivisor: 4
GridSize: 8
TimelineZoom: 6.199996

[Metadata]
Title:Flower Dance (Short Ver.)
TitleUnicode:Flower Dance (Short Ver.)
Artist:DJ Okawari
ArtistUnicode:DJ Okawari
Creator:-Hanayuki-
Version:Hus
Source:Kaleidoscope
Tags:
BeatmapID:580943
BeatmapSetID:252981

[Difficulty]
HPDrainRate:5
CircleSize:4
OverallDifficulty:8
ApproachRate:10
SliderMultiplier:2
SliderTickRate:1

[Events]
//Background and Video events
0,0,"233.jpg",0,0
//Break Periods
2,123190,131240
2,179890,184340
//Storyboard Layer 0 (Background)
//Storyboard Layer 1 (Fail)
//Storyboard Layer 2 (Pass)
//Storyboard Layer 3 (Foreground)
//Storyboard Sound Samples

[TimingPoints]
0,300,4,1,0,45,1,0
2925,-200,4,1,0,25,0,0
15075,300,4,1,0,20,1,0
15075,-200,4,1,0,20,0,0
24300,-50,4,1,0,25,0,0
24675,-100,4,1,0,15,0,0
26325,-100,4,1,0,5,0,0
26690,300,4,2,0,45,1,0
28425,-200,4,2,0,45,0,0
29025,-200,4,2,0,50,0,0
31425,-133.333333333333,4,2,0,50,0,0
34425,-100,4,2,0,55,0,0
34725,-100,4,2,0,60,0,0
35025,-100,4,2,0,65,0,0
35325,-100,4,2,0,70,0,0
35625,-133.333333333333,4,2,0,50,0,0
39825,-133.333333333333,4,1,0,35,0,1
41025,-133.333333333333,4,1,0,35,0,1
44625,-66.6666666666667,4,1,0,35,0,1
45225,-200,4,1,0,40,0,1
45450,-100,4,1,0,5,0,1
45525,-100,4,1,0,35,0,1
45825,-100,4,1,0,40,0,0
61425,-76.9230769230769,4,1,0,40,0,0
63525,-100,4,1,0,40,0,0
65025,-100,4,1,0,35,0,0
65175,-100,4,1,0,45,0,0
66225,-86.9565217391304,4,1,0,45,0,0
74400,-83.3333333333333,4,1,0,40,0,0
78225,-83.3333333333333,4,1,0,45,0,1
79425,-66.6666666666667,4,1,0,45,0,1
83625,-200,4,1,0,45,0,1
83850,-100,4,1,0,5,0,1
83925,-100,4,1,0,40,0,1
84225,-90.9090909090909,4,1,0,5,0,0
85425,-83.3333333333333,4,1,0,45,0,0
93525,-80,4,1,0,45,0,0
96225,-66.6666666666667,4,1,0,45,0,0
98625,-50,4,1,0,45,0,1
102825,-200,4,1,0,45,0,1
103050,-100,4,1,0,5,0,1
103125,-100,4,1,0,40,0,1
103425,-100,4,1,0,45,0,1
113025,-83.3333333333333,4,1,0,45,0,1
122100,-100,4,1,0,40,0,1
122400,-100,4,1,0,40,0,0
122702,-100,4,1,0,25,0,0
131625,-100,4,2,0,65,0,0
135825,-83.3333333333333,4,2,0,65,0,0
141525,-100,4,1,0,30,0,0
156225,-80,4,1,0,30,0,0
158850,-80,4,1,0,35,0,0
159000,-80,4,1,0,45,0,0
159300,-80,4,1,0,30,0,0
159600,-80,4,1,0,40,0,0
159900,-80,4,1,0,35,0,0
160200,-80,4,1,0,25,0,0
161025,-76.9230769230769,4,1,0,45,0,0
177825,-76.9230769230769,4,1,0,40,0,0
178425,-76.9230769230769,4,1,0,45,0,0
178725,-76.9230769230769,4,1,0,45,0,0
179025,-50,4,1,0,45,0,0
179175,-50,4,1,0,40,0,0
179325,-50,4,1,0,45,0,0
179475,-50,4,1,0,45,0,0
179625,-50,4,1,0,35,0,0
180000,-100,4,1,0,45,0,0
180300,-100,4,1,0,30,0,0
184725,-83.3333333333333,4,1,0,45,0,1
188025,-83.3333333333333,4,1,0,45,0,1
189525,-83.3333333333333,4,1,0,45,0,1
194925,-83.3333333333333,4,1,0,45,0,1
196125,-83.3333333333333,4,1,0,45,0,1
198900,-100,4,1,0,45,0,0

[HitObjects]
376,64,26690,6,0,L|424:152,1,100
280,312,26990,2,0,B|208:328|136:296|104:216,1,200
152,112,27440,5,0,0:0:0:0:
224,192,27590,1,0,0:0:0:0:
256,88,27740,1,0,0:0:0:0:
328,160,27890,2,0,P|360:200|368:256,1,100
120,208,28190,1,0,0:0:0:0:
192,32,28340,1,0,0:0:0:0:
344,72,28490,2,0,P|407:75|464:160,1,150,4|0,0:0|0:0,0:0:0:0:
128,328,29090,6,0,L|24:328,1,100
120,240,29540,1,0,0:0:0:0:
200,280,29690,2,0,P|232:248|304:240,1,100
160,128,30140,1,0,0:0:0:0:
344,168,30290,2,0,L|392:136,1,50
368,296,30590,2,0,L|320:328,1,50
240,64,30890,1,4,0:0:0:0:
240,64,31190,1,0,0:0:0:0:
32,232,31490,6,0,P|79:200|104:112,1,150.000005722046
176,88,32090,1,4,0:0:0:0:
304,224,32390,1,0,0:0:0:0:
152,240,32690,2,0,P|112:256|88:304,1,75.0000028610231
360,152,32990,1,0,0:0:0:0:
376,160,33065,1,0,0:0:0:0:
392,168,33140,1,0,0:0:0:0:
200,40,33290,2,0,L|272:96,1,75.0000028610231
264,336,33590,5,4,0:0:0:0:
400,64,33890,1,2,0:0:0:0:
80,272,34190,1,2,0:0:0:0:
264,48,34490,1,2,0:0:0:0:
184,336,34790,1,2,0:0:0:0:
128,64,35090,1,2,0:0:0:0:
376,280,35390,1,2,0:0:0:0:
160,48,35690,6,0,P|80:72|32:136,1,150.000005722046
248,336,36290,2,0,L|288:336,2,37.5000014305115,4|0|0,0:0|0:0|0:0,0:0:0:0:
376,192,36590,2,0,P|352:152|248:136,1,150.000005722046
112,160,37040,5,0,0:0:0:0:
72,232,37190,1,0,0:0:0:0:
144,272,37340,1,0,0:0:0:0:
360,256,37490,2,0,L|440:224,1,75.0000028610231
264,64,37790,2,0,L|184:96,1,75.0000028610231
432,320,38090,1,4,0:0:0:0:
120,232,38690,6,0,P|104:208|64:176,1,75.0000028610231
208,80,38990,2,0,P|224:61|272:24,1,75.0000028610231
440,240,39290,2,0,P|464:264|480:304,1,75.0000028610231
144,336,39590,2,0,B|136:312|112:328|80:296,1,75.0000028610231
256,192,39890,5,0,0:0:0:0:
328,112,40040,1,0,0:0:0:0:
152,176,40190,1,0,0:0:0:0:
368,224,40340,1,0,0:0:0:0:
192,280,40490,1,0,0:0:0:0:
216,72,40640,1,0,0:0:0:0:
296,304,40790,2,0,L|312:328|360:336,1,75.0000028610231
448,144,41090,5,0,0:0:0:0:
368,160,41240,1,0,0:0:0:0:
312,96,41390,1,0,0:0:0:0:
232,160,41540,1,0,0:0:0:0:
360,280,41690,1,0,0:0:0:0:
192,328,41840,1,0,0:0:0:0:
232,160,41990,5,0,0:0:0:0:
168,72,42140,1,0,0:0:0:0:
112,160,42290,1,0,0:0:0:0:
336,144,42440,1,0,0:0:0:0:
232,160,42590,5,0,0:0:0:0:
288,248,42740,1,0,0:0:0:0:
392,248,42890,1,0,0:0:0:0:
288,248,43040,5,0,0:0:0:0:
336,160,43190,1,0,0:0:0:0:
440,160,43340,1,0,0:0:0:0:
296,80,43490,1,0,0:0:0:0:
200,48,43640,1,0,0:0:0:0:
136,128,43790,1,0,0:0:0:0:
384,80,43940,5,0,0:0:0:0:
336,320,44090,1,0,0:0:0:0:
224,128,44240,1,0,0:0:0:0:
200,216,44390,1,0,0:0:0:0:
104,216,44540,1,0,0:0:0:0:
328,152,44690,1,0,0:0:0:0:
80,304,44840,1,0,0:0:0:0:
136,128,44990,5,0,0:0:0:0:
296,240,45140,1,0,0:0:0:0:
168,304,45290,2,0,L|176:360,1,50
256,328,45590,5,8,2:0:0:0:
256,328,45890,5,0,0:0:0:0:
352,304,46040,1,0,0:0:0:0:
464,240,46190,2,0,P|419:209|368:192,1,100
272,160,46490,1,0,0:0:0:0:
216,248,46640,1,0,0:0:0:0:
376,120,46790,2,0,P|356:67|312:16,1,100
192,160,47090,6,0,P|120:152|40:256,1,200,4|0,0:0|0:0,0:0:0:0:
168,328,47540,1,0,0:0:0:0:
336,304,47690,2,0,L|440:304,1,100
280,48,47990,5,0,0:0:0:0:
376,144,48140,1,0,0:0:0:0:
112,56,48290,2,0,L|64:96,2,50
272,200,48590,6,0,P|288:144|320:104,1,100
184,184,48890,1,0,0:0:0:0:
80,280,49040,1,0,0:0:0:0:
336,304,49190,2,0,P|363:269|376:216,1,100
249,51,49490,2,0,P|256:85|240:152,1,100
96,120,49790,2,0,P|62:112|0:136,1,100
352,216,50090,2,0,L|456:216,1,100,4|0,0:0|0:0,0:0:0:0:
96,296,50390,5,0,0:0:0:0:
328,136,50540,1,0,0:0:0:0:
72,216,50690,2,0,P|40:240|8:296,2,100
256,280,51140,1,0,0:0:0:0:
400,160,51290,2,0,L|504:160,1,100
184,320,51590,2,0,L|152:216,1,100
400,192,51890,5,0,0:0:0:0:
248,176,52040,1,0,0:0:0:0:
336,48,52190,1,0,0:0:0:0:
440,80,52340,1,0,0:0:0:0:
312,248,52490,1,0,0:0:0:0:
224,64,52640,1,0,0:0:0:0:
312,248,52790,2,0,P|264:272|184:264,1,100
48,240,53090,2,0,P|72:192|112:168,1,100
72,72,53390,5,0,0:0:0:0:
168,128,53540,1,0,0:0:0:0:
312,144,53690,2,0,L|416:144,1,100
64,184,53990,1,0,0:0:0:0:
208,56,54140,1,0,0:0:0:0:
192,304,54290,2,0,P|232:270|256:224,1,100
128,72,54590,5,0,0:0:0:0:
72,288,54740,1,0,0:0:0:0:
296,200,54890,2,0,P|344:248|448:192,2,200,4|0|0,0:0|0:0|0:0,0:0:0:0:
200,240,55640,5,0,0:0:0:0:
192,136,55790,1,0,0:0:0:0:
280,184,55940,1,0,0:0:0:0:
40,224,56090,2,0,P|80:200|136:192,1,100
280,96,56390,1,0,0:0:0:0:
288,272,56540,1,0,0:0:0:0:
352,56,56690,6,0,L|432:120,1,100
456,288,56990,2,0,L|384:368,1,100
216,128,57290,2,0,L|216:24,1,100
136,208,57590,5,0,0:0:0:0:
72,280,57740,1,0,0:0:0:0:
272,192,57890,5,0,0:0:0:0:
176,312,58040,1,0,0:0:0:0:
416,176,58190,1,0,0:0:0:0:
288,344,58340,1,0,0:0:0:0:
192,136,58490,1,0,0:0:0:0:
376,248,58640,1,0,0:0:0:0:
152,208,58790,1,0,0:0:0:0:
392,96,58940,1,0,0:0:0:0:
176,312,59090,6,0,P|128:288|104:240,1,100,4|0,0:0|0:0,0:0:0:0:
288,120,59390,1,0,0:0:0:0:
240,208,59540,1,0,0:0:0:0:
208,64,59690,2,0,L|91:67,1,100,4|0,0:0|0:0,0:0:0:0:
336,224,59990,5,0,0:0:0:0:
208,64,60140,1,0,0:0:0:0:
376,144,60290,2,0,P|404:168|432:224,1,100,4|0,0:0|0:0,0:0:0:0:
176,176,60590,1,0,0:0:0:0:
280,288,60740,1,0,0:0:0:0:
88,152,60890,1,0,0:0:0:0:
368,296,61040,1,0,0:0:0:0:
264,176,61190,2,0,L|304:80,1,100,4|0,0:0|0:0,0:0:0:0:
168,272,61490,5,0,0:0:0:0:
360,208,61640,1,0,0:0:0:0:
144,344,61790,1,0,0:0:0:0:
384,136,61940,1,0,0:0:0:0:
192,192,62090,2,0,P|176:128|200:48,1,129.999994049073,4|0,0:0|0:0,0:0:0:0:
384,296,62390,5,0,0:0:0:0:
264,48,62540,1,0,0:0:0:0:
288,264,62690,1,0,0:0:0:0:
104,136,62990,1,0,0:0:0:0:
360,208,63290,1,0,0:0:0:0:
304,352,63590,5,0,0:0:0:0:
272,176,63740,1,0,0:0:0:0:
128,296,63890,2,0,L|96:256,2,50,4|0|0,0:0|0:0|0:0,0:0:0:0:
344,120,64190,1,0,0:0:0:0:
216,344,64490,1,0,0:0:0:0:
440,288,64790,1,0,0:0:0:0:
184,128,65015,2,0,L|208:104,2,25,4|0|0,0:0|0:0|0:0,0:0:0:0:
192,232,65240,5,0,0:0:0:0:
360,240,65390,2,0,P|328:224|264:208,1,100
96,288,65690,2,0,P|136:328|176:344,2,100
88,184,66140,1,0,0:0:0:0:
192,224,66290,2,0,P|200:168|168:120,1,115.000002193451
32,248,66590,5,0,0:0:0:0:
312,80,66740,1,0,0:0:0:0:
232,312,66890,2,0,P|296:312|376:240,1,172.500003290177,4|0,0:0|0:0,0:0:0:0:
272,224,67190,2,0,P|248:176|192:136,1,115.000002193451
104,80,67490,6,0,P|64:112|48:176,2,115.000002193451
144,288,67940,1,0,0:0:0:0:
376,184,68090,2,0,P|400:152|472:120,2,115.000002193451,4|0|0,0:0|0:0|0:0,0:0:0:0:
104,288,68540,5,0,0:0:0:0:
328,160,68690,2,0,P|320:128|272:64,1,115.000002193451,4|0,0:0|0:0,0:0:0:0:
40,56,68990,2,0,P|48:96|96:152,1,115.000002193451,4|0,0:0|0:0,0:0:0:0:
184,288,69290,2,0,P|235:257|352:264,1,172.500003290177,4|0,0:0|0:0,0:0:0:0:
376,304,69590,2,0,P|415:293|488:296,1,115.000002193451,4|0,0:0|0:0,0:0:0:0:
416,128,69890,5,0,0:0:0:0:
328,160,70040,1,0,0:0:0:0:
264,336,70190,1,0,0:0:0:0:
256,232,70340,1,0,0:0:0:0:
136,120,70490,2,4,P|96:112|16:120,1,115.000002193451,4|0,0:0|0:0,0:0:0:0:
200,48,70790,5,0,0:0:0:0:
168,208,70940,1,0,0:0:0:0:
304,144,71090,2,0,L|368:144,2,57.5000010967255,4|0|0,0:0|0:0|0:0,0:0:0:0:
222,326,71390,5,0,0:0:0:0:
260,338,71465,1,0,0:0:0:0:
300,342,71540,1,0,0:0:0:0:
339,336,71615,1,0,0:0:0:0:
376,320,71690,2,0,P|424:296|440:224,1,115.000002193451,4|0,0:0|0:0,0:0:0:0:
296,24,71990,5,0,0:0:0:0:
176,296,72290,1,0,0:0:0:0:
432,200,72590,1,0,0:0:0:0:
128,40,72890,2,0,P|73:56|33:96,1,115.000002193451,4|0,0:0|0:0,0:0:0:0:
120,176,73190,5,0,0:0:0:0:
463,273,73490,2,0,P|431:320|384:352,1,115.000002193451,4|0,0:0|0:0,0:0:0:0:
112,272,73790,5,0,0:0:0:0:
464,96,74090,2,0,P|427:52|376:27,1,115.000002193451,4|0,0:0|0:0,0:0:0:0:
120,48,74390,5,0,0:0:0:0:
232,136,74540,1,0,0:0:0:0:
80,200,74690,2,0,P|32:256|32:320,1,119.999996337891
208,288,74990,2,0,P|256:264|328:272,1,119.999996337891
104,328,75290,5,0,0:0:0:0:
320,184,75440,1,0,0:0:0:0:
336,360,75590,1,0,0:0:0:0:
208,288,75740,1,0,0:0:0:0:
248,120,75890,6,0,P|288:108|424:112,1,179.999994506836,4|0,0:0|0:0,0:0:0:0:
448,64,76190,2,0,L|512:8,2,59.9999981689454
232,24,76490,2,0,B|184:56|152:24|112:40|72:88,1,179.999994506836,4|0,0:0|0:0,0:0:0:0:
96,128,76790,2,0,P|64:176|-8:192,1,119.999996337891
288,144,77090,6,0,P|352:144|400:112,1,119.999996337891
128,312,77390,2,0,P|72:336|0:320,1,119.999996337891
208,80,77690,2,0,P|264:56|328:64,1,119.999996337891
440,288,77990,2,0,P|384:312|304:296,1,119.999996337891
114,137,78290,5,0,0:0:0:0:
232,272,78440,1,0,0:0:0:0:
208,80,78590,1,0,0:0:0:0:
56,224,78740,1,0,0:0:0:0:
288,168,78890,1,0,0:0:0:0:
128,312,79040,1,0,0:0:0:0:
288,48,79190,2,0,L|348:48,2,59.9999981689454
168,208,79490,5,0,0:0:0:0:
312,128,79640,1,0,0:0:0:0:
320,296,79790,1,0,0:0:0:0:
208,120,79940,5,0,0:0:0:0:
136,320,80090,1,0,0:0:0:0:
320,216,80240,1,0,0:0:0:0:
120,144,80390,1,0,0:0:0:0:
232,320,80540,1,0,0:0:0:0:
408,160,80690,5,0,0:0:0:0:
232,160,80840,1,0,0:0:0:0:
408,240,80990,1,0,0:0:0:0:
232,240,81140,1,0,0:0:0:0:
232,80,81290,5,0,0:0:0:0:
408,80,81440,1,0,0:0:0:0:
320,304,81590,1,0,0:0:0:0:
320,112,81740,5,0,0:0:0:0:
320,216,81890,1,0,0:0:0:0:
120,160,82040,1,0,0:0:0:0:
320,32,82190,1,0,0:0:0:0:
440,200,82340,5,0,0:0:0:0:
232,256,82490,1,0,0:0:0:0:
240,160,82640,1,0,0:0:0:0:
320,216,82790,1,0,0:0:0:0:
192,48,82940,1,0,0:0:0:0:
320,312,83090,5,0,0:0:0:0:
152,216,83240,1,0,0:0:0:0:
328,120,83390,1,0,0:0:0:0:
200,328,83540,1,0,0:0:0:0:
232,144,83690,2,0,L|208:88,1,50
312,208,83990,5,2,2:0:0:0:
256,192,84290,12,0,85340,0:0:0:0:
320,200,85490,6,0,L|440:200,1,119.999996337891
264,288,85790,2,0,P|224:280|144:312,1,119.999996337891
56,136,86090,2,0,P|112:72|272:32,1,239.999992675782,4|0,0:0|0:0,0:0:0:0:
424,96,86540,5,0,0:0:0:0:
416,96,86690,2,0,L|352:80,2,59.9999981689454,4|0|0,0:0|0:0|0:0,0:0:0:0:
432,232,86990,1,0,0:0:0:0:
272,192,87140,1,0,0:0:0:0:
40,272,87290,2,0,P|120:328|248:280,1,239.999992675782,4|0,0:0|0:0,0:0:0:0:
136,144,87740,5,0,0:0:0:0:
312,256,87890,2,0,P|368:224|384:160,1,119.999996337891
168,240,88190,1,0,0:0:0:0:
168,240,88340,1,0,0:0:0:0:
480,184,88490,2,0,P|427:115|283:139,1,239.999992675782,4|0,0:0|0:0,0:0:0:0:
408,224,88940,1,0,0:0:0:0:
248,312,89090,5,0,0:0:0:0:
216,128,89240,1,0,0:0:0:0:
48,264,89390,2,0,B|99:231|163:239,1,119.999996337891
72,104,89690,1,0,0:0:0:0:
304,64,89840,1,0,0:0:0:0:
248,312,89990,2,0,B|296:352|368:336,1,119.999996337891
152,328,90290,5,0,0:0:0:0:
384,168,90440,1,0,0:0:0:0:
224,208,90590,1,0,0:0:0:0:
224,208,90665,1,0,0:0:0:0:
224,208,90740,1,0,0:0:0:0:
72,104,90890,2,0,P|104:56|176:32,1,119.999996337891
424,96,91190,2,0,P|464:152|464:208,1,119.999996337891
200,336,91490,2,0,P|152:320|112:264,1,119.999996337891
256,56,91790,5,0,0:0:0:0:
408,296,91940,1,0,0:0:0:0:
184,112,92090,2,0,P|128:152|104:200,1,119.999996337891
440,192,92390,1,0,0:0:0:0:
176,32,92540,1,0,0:0:0:0:
200,336,92690,2,0,P|248:336|320:296,1,119.999996337891,4|0,0:0|0:0,0:0:0:0:
104,80,92990,1,0,0:0:0:0:
360,224,93140,1,0,0:0:0:0:
104,344,93290,2,0,P|56:308|40:252,1,119.999996337891,4|0,0:0|0:0,0:0:0:0:
256,240,93590,5,0,0:0:0:0:
376,136,93740,1,0,0:0:0:0:
184,168,93890,2,0,P|128:160|64:184,1,125
336,336,94190,2,0,P|392:304|432:256,1,125
192,320,94490,5,0,0:0:0:0:
16,200,94640,1,0,0:0:0:0:
280,144,94790,1,0,0:0:0:0:
64,328,94940,1,0,0:0:0:0:
104,120,95090,2,0,B|152:112|168:64|192:32|304:48,1,187.5,4|0,0:0|0:0,0:0:0:0:
320,64,95390,2,0,P|384:64|432:24,1,125
216,216,95690,2,0,P|158:238|96:236,1,125
368,168,95990,2,0,P|432:152|489:172,1,125,2|0,0:0|0:0,0:0:0:0:
400,336,96290,6,0,B|349:325|328:348|256:280,1,150.000005722046
96,112,96590,2,0,B|152:128|192:72|240:72,1,150.000005722046
168,312,96890,2,0,P|128:328|24:288,1,150.000005722046
344,240,97190,2,0,P|395:252|488:216,1,150.000005722046
248,272,97490,5,0,0:0:0:0:
168,136,97640,1,0,0:0:0:0:
344,240,97790,1,0,0:0:0:0:
104,256,97940,1,0,0:0:0:0:
296,112,98090,1,0,0:0:0:0:
328,336,98240,1,0,0:0:0:0:
168,136,98390,2,0,P|120:120|88:32,1,150.000005722046
360,64,98690,5,0,0:0:0:0:
400,304,98840,1,0,0:0:0:0:
184,216,98990,1,0,0:0:0:0:
448,168,99140,1,0,0:0:0:0:
168,304,99290,1,0,0:0:0:0:
360,152,99440,1,0,0:0:0:0:
96,240,99590,1,0,0:0:0:0:
440,88,99740,1,0,0:0:0:0:
128,128,99890,1,0,0:0:0:0:
392,224,100040,5,0,0:0:0:0:
232,104,100190,1,0,0:0:0:0:
352,320,100340,1,0,0:0:0:0:
320,56,100490,1,0,0:0:0:0:
248,336,100640,1,0,0:0:0:0:
160,24,100790,1,0,0:0:0:0:
72,320,100940,1,0,0:0:0:0:
296,240,101090,5,0,0:0:0:0:
48,96,101240,1,0,0:0:0:0:
376,144,101390,1,0,0:0:0:0:
160,328,101540,1,0,0:0:0:0:
256,56,101690,1,0,0:0:0:0:
416,296,101840,1,0,0:0:0:0:
112,208,101990,1,0,0:0:0:0:
400,48,102140,1,0,0:0:0:0:
288,328,102290,5,0,0:0:0:0:
144,96,102440,1,0,0:0:0:0:
448,200,102590,1,0,0:0:0:0:
88,288,102740,1,0,0:0:0:0:
256,192,102890,2,0,L|296:144,1,50
352,240,103190,5,8,2:0:0:0:
350,238,103490,5,0,0:0:0:0:
433,302,103640,1,0,0:0:0:0:
360,128,103790,1,0,0:0:0:0:
231,274,103940,1,0,0:0:0:0:
314,348,104090,1,0,0:0:0:0:
460,183,104240,1,0,0:0:0:0:
350,128,104390,1,0,0:0:0:0:
360,247,104540,1,0,0:0:0:0:
144,264,104690,6,0,P|104:272|40:336,1,100,4|0,0:0|0:0,0:0:0:0:
184,120,104990,2,0,P|224:112|296:64,1,100,4|0,0:0|0:0,0:0:0:0:
104,32,105290,2,0,P|69:32|0:80,1,100,4|0,0:0|0:0,0:0:0:0:
208,24,105590,1,4,0:0:0:0:
56,152,105740,1,0,0:0:0:0:
256,168,105890,5,0,0:0:0:0:
128,248,106040,1,0,0:0:0:0:
280,296,106190,1,0,0:0:0:0:
56,336,106340,1,0,0:0:0:0:
328,224,106490,1,0,0:0:0:0:
48,256,106640,1,0,0:0:0:0:
336,144,106790,1,0,0:0:0:0:
136,328,106940,1,0,0:0:0:0:
232,72,107090,6,0,P|192:64|96:72,1,100,4|0,0:0|0:0,0:0:0:0:
208,312,107390,2,0,P|200:256|216:200,1,100,4|0,0:0|0:0,0:0:0:0:
368,312,107690,2,0,P|416:312|464:328,1,100,4|0,0:0|0:0,0:0:0:0:
248,160,107990,1,4,0:0:0:0:
320,56,108140,1,0,0:0:0:0:
416,176,108290,5,0,0:0:0:0:
144,80,108440,1,0,0:0:0:0:
248,304,108590,1,0,0:0:0:0:
400,88,108740,1,0,0:0:0:0:
160,168,108890,1,0,0:0:0:0:
440,264,109040,1,0,0:0:0:0:
320,56,109190,1,0,0:0:0:0:
176,256,109340,1,0,0:0:0:0:
144,80,109490,6,0,P|72:104|24:160,1,150,4|0,0:0|0:0,0:0:0:0:
32,208,109790,2,0,P|48:240|24:328,1,100
264,312,110090,2,0,P|336:320|424:256,1,150,4|0,0:0|0:0,0:0:0:0:
424,248,110390,2,0,P|432:208|480:168,1,100
144,136,110690,5,0,0:0:0:0:
288,104,110840,1,0,0:0:0:0:
120,216,110990,1,0,0:0:0:0:
264,184,111140,1,0,0:0:0:0:
64,152,111290,1,0,0:0:0:0:
328,240,111440,1,0,0:0:0:0:
88,72,111590,1,0,0:0:0:0:
352,160,111740,1,0,0:0:0:0:
112,304,111890,6,0,L|32:328,2,50,4|0|0,0:0|0:0|0:0,0:0:0:0:
304,320,112190,2,0,L|296:384,2,35,4|0|0,0:0|0:0|0:0,0:0:0:0:
424,96,112490,2,0,P|376:80|296:72,1,100,4|0,0:0|0:0,0:0:0:0:
64,152,112790,2,0,P|101:185|152:200,1,100,4|0,0:0|0:0,0:0:0:0:
280,128,113090,5,0,0:0:0:0:
112,240,113240,1,0,0:0:0:0:
400,336,113390,1,0,0:0:0:0:
344,72,113540,1,0,0:0:0:0:
136,320,113690,1,0,0:0:0:0:
456,272,113840,1,0,0:0:0:0:
264,48,113990,1,0,0:0:0:0:
56,304,114140,1,0,0:0:0:0:
168,128,114290,6,0,P|148:82|88:32,1,119.999996337891,4|0,0:0|0:0,0:0:0:0:
376,144,114590,2,0,P|420:144|496:176,1,119.999996337891,4|0,0:0|0:0,0:0:0:0:
264,272,114890,2,0,P|224:312|208:376,1,119.999996337891,4|0,0:0|0:0,0:0:0:0:
272,176,115190,1,4,0:0:0:0:
272,176,115340,1,0,0:0:0:0:
216,56,115490,5,0,0:0:0:0:
136,280,115640,1,0,0:0:0:0:
376,248,115790,1,0,0:0:0:0:
168,128,115940,1,0,0:0:0:0:
160,360,116090,1,0,0:0:0:0:
376,248,116240,1,0,0:0:0:0:
296,24,116390,1,0,0:0:0:0:
112,192,116540,1,0,0:0:0:0:
352,352,116690,6,0,P|312:320|232:304,1,119.999996337891,4|0,0:0|0:0,0:0:0:0:
352,104,116990,2,0,P|400:64|464:48,1,119.999996337891,4|0,0:0|0:0,0:0:0:0:
136,112,117290,2,0,P|81:88|47:40,1,119.999996337891,4|0,0:0|0:0,0:0:0:0:
296,208,117590,1,4,0:0:0:0:
296,208,117740,1,0,0:0:0:0:
296,208,117890,5,0,0:0:0:0:
440,224,118190,1,0,0:0:0:0:
432,56,118340,1,0,0:0:0:0:
288,312,118490,1,0,0:0:0:0:
368,144,118640,1,0,0:0:0:0:
168,280,118790,1,0,0:0:0:0:
168,280,119090,5,0,0:0:0:0:
64,136,119240,1,0,0:0:0:0:
360,272,119390,1,0,0:0:0:0:
184,160,119540,1,0,0:0:0:0:
432,208,119690,1,0,0:0:0:0:
288,112,119990,5,0,0:0:0:0:
56,336,120140,1,0,0:0:0:0:
184,104,120290,1,0,0:0:0:0:
256,304,120590,5,0,0:0:0:0:
392,80,120890,1,0,0:0:0:0:
80,256,121190,1,0,0:0:0:0:
432,256,121490,1,0,0:0:0:0:
256,40,121790,1,0,0:0:0:0:
256,192,122090,12,0,122990,0:0:0:0:
184,56,131690,5,0,0:0:0:0:
296,56,131990,6,0,P|344:78|392:112,1,100
152,152,132290,1,8,0:0:0:0:
208,224,132440,1,8,0:0:0:0:
288,168,132590,2,0,P|318:211|328:264,1,100,2|0,0:0|0:0,0:0:0:0:
112,232,132890,1,8,0:0:0:0:
56,152,133040,1,8,0:0:0:0:
267,311,133190,2,0,P|218:315|168:304,1,100,2|0,0:0|0:0,0:0:0:0:
40,280,133490,5,8,0:0:0:0:
96,352,133640,1,8,0:0:0:0:
328,264,133790,2,0,B|372:290|364:304|416:328,1,100,2|0,0:0|0:0,0:0:0:0:
184,168,134090,1,8,0:0:0:0:
128,96,134240,1,8,0:0:0:0:
472,160,134390,1,8,0:0:0:0:
408,224,134540,1,8,0:0:0:0:
304,80,134690,6,0,P|272:56|208:32,1,100,2|0,0:0|0:0,0:0:0:0:
128,264,134990,1,8,0:0:0:0:
392,304,135140,1,8,0:0:0:0:
384,24,135290,2,0,P|435:38|496:72,1,100,2|0,0:0|0:0,0:0:0:0:
72,328,135590,1,8,0:0:0:0:
392,144,135740,1,8,0:0:0:0:
120,48,135890,2,0,P|64:80|16:128,1,119.999996337891,2|0,0:0|0:0,0:0:0:0:
352,216,136190,2,0,L|480:232,1,119.999996337891,2|0,0:0|0:0,0:0:0:0:
264,128,136490,5,8,0:0:0:0:
264,128,136640,1,8,0:0:0:0:
48,248,136790,2,0,P|62:189|104:144,1,119.999996337891,2|0,0:0|0:0,0:0:0:0:
408,304,137090,1,8,0:0:0:0:
128,232,137240,1,8,0:0:0:0:
264,216,137390,2,0,L|288:336,1,119.999996337891,2|0,0:0|0:0,0:0:0:0:
232,24,137690,1,8,0:0:0:0:
104,128,137840,1,8,0:0:0:0:
344,136,137990,2,0,P|406:124|464:88,1,119.999996337891,2|0,0:0|0:0,0:0:0:0:
72,320,138290,5,8,0:0:0:0:
256,136,138440,1,8,0:0:0:0:
136,48,138590,1,8,0:0:0:0:
304,64,138740,1,8,0:0:0:0:
160,288,138890,2,0,P|212:328|280:360,1,119.999996337891,2|0,0:0|0:0,0:0:0:0:
472,296,139190,2,0,P|424:263|364:242,1,119.999996337891,2|0,0:0|0:0,0:0:0:0:
56,48,139490,5,2,0:0:0:0:
352,328,139790,1,2,0:0:0:0:
48,184,140090,1,2,0:0:0:0:
440,88,140390,1,2,0:0:0:0:
136,336,140690,1,2,0:0:0:0:
160,32,140990,1,2,0:0:0:0:
456,240,141290,1,2,0:0:0:0:
200,240,141590,6,0,P|272:304|392:312,1,200,4|0,0:0|0:0,0:0:0:0:
352,88,142190,1,0,0:0:0:0:
64,248,142490,1,0,0:0:0:0:
384,176,142790,1,0,0:0:0:0:
96,328,143090,1,0,0:0:0:0:
272,48,143390,1,0,0:0:0:0:
232,248,143690,5,0,0:0:0:0:
176,80,143990,1,0,0:0:0:0:
248,152,144140,1,0,0:0:0:0:
336,96,144290,2,0,P|376:96|440:112,1,100,4|0,0:0|0:0,0:0:0:0:
160,168,144590,2,0,P|120:184|56:176,1,100,4|0,0:0|0:0,0:0:0:0:
160,328,144890,6,0,B|216:352|248:312|320:328,1,150,4|0,0:0|0:0,0:0:0:0:
360,312,145190,2,0,P|400:280|448:280,1,100
448,112,145490,2,0,P|408:152|344:176,1,100,4|0,0:0|0:0,0:0:0:0:
56,184,145790,2,0,B|48:152|72:128|104:96,1,100,4|0,0:0|0:0,0:0:0:0:
272,40,146090,2,0,B|320:64|352:24|384:56,1,100,4|0,0:0|0:0,0:0:0:0:
176,216,146390,2,0,P|144:247|88:279,1,100,4|0,0:0|0:0,0:0:0:0:
376,200,146690,6,0,L|448:200,2,50,2|0|0,0:0|0:0|0:0,0:0:0:0:
336,320,146990,5,0,0:0:0:0:
184,80,147140,1,0,0:0:0:0:
72,280,147290,2,0,P|120:336|176:344,1,100,4|0,0:0|0:0,0:0:0:0:
416,280,147590,1,0,0:0:0:0:
112,136,147740,1,0,0:0:0:0:
464,200,147890,2,0,P|448:152|400:112,1,100,4|0,0:0|0:0,0:0:0:0:
224,312,148190,1,0,0:0:0:0:
312,48,148340,1,0,0:0:0:0:
32,104,148490,2,0,P|64:72|128:40,1,100,4|0,0:0|0:0,0:0:0:0:
312,296,148790,5,0,0:0:0:0:
192,136,148940,1,0,0:0:0:0:
96,256,149090,2,0,L|32:272,2,50,8|0|0,0:0|0:0|0:0,0:0:0:0:
320,192,149390,2,0,P|360:184|432:200,1,100,4|0,0:0|0:0,0:0:0:0:
176,88,149690,5,0,0:0:0:0:
280,272,149840,1,0,0:0:0:0:
304,72,149990,1,0,0:0:0:0:
448,264,150140,1,0,0:0:0:0:
232,200,150290,1,0,0:0:0:0:
392,336,150440,1,0,0:0:0:0:
80,344,150590,2,0,L|200:312,1,100,4|0,0:0|0:0,0:0:0:0:
352,232,150890,2,0,P|404:179|476:166,1,150,4|0,0:0|0:0,0:0:0:0:
472,120,151190,2,0,P|440:72|400:56,1,100
232,112,151490,5,0,0:0:0:0:
304,312,151640,1,0,0:0:0:0:
144,176,151790,1,0,0:0:0:0:
432,264,151940,1,0,0:0:0:0:
144,264,152090,2,0,L|96:376,1,100,4|0,0:0|0:0,0:0:0:0:
152,88,152390,5,0,0:0:0:0:
224,288,152540,1,0,0:0:0:0:
312,40,152690,2,0,L|416:120,1,100,4|0,0:0|0:0,0:0:0:0:
72,56,152990,1,0,0:0:0:0:
352,232,153140,1,0,0:0:0:0:
96,168,153290,2,0,L|40:288,1,100,4|0,0:0|0:0,0:0:0:0:
200,176,153590,5,0,0:0:0:0:
312,64,153740,1,0,0:0:0:0:
160,256,153890,1,0,0:0:0:0:
360,136,154040,1,0,0:0:0:0:
80,280,154190,1,0,0:0:0:0:
440,168,154340,1,0,0:0:0:0:
232,312,154490,6,0,P|272:336|344:352,1,100,4|0,0:0|0:0,0:0:0:0:
216,48,154790,1,0,0:0:0:0:
64,96,154940,1,0,0:0:0:0:
440,168,155090,1,0,0:0:0:0:
288,248,155240,1,0,0:0:0:0:
120,40,155390,5,0,0:0:0:0:
272,112,155540,1,0,0:0:0:0:
144,280,155690,2,0,P|112:280|40:232,1,100,4|0,0:0|0:0,0:0:0:0:
344,152,155990,2,0,P|368:120|424:88,1,100,4|0,0:0|0:0,0:0:0:0:
176,96,156290,5,0,0:0:0:0:
224,248,156440,1,0,0:0:0:0:
72,208,156590,1,0,0:0:0:0:
328,48,156740,1,0,0:0:0:0:
312,288,156890,2,0,P|360:272|440:264,1,125,4|0,0:0|0:0,0:0:0:0:
88,120,157190,5,0,0:0:0:0:
136,304,157340,1,0,0:0:0:0:
296,208,157490,1,0,0:0:0:0:
48,296,157640,1,0,0:0:0:0:
312,128,157790,1,0,0:0:0:0:
112,40,157940,1,0,0:0:0:0:
288,320,158090,2,0,P|368:288|416:192,1,187.5,4|0,0:0|0:0,0:0:0:0:
432,136,158390,5,0,0:0:0:0:
256,48,158540,1,0,0:0:0:0:
208,224,158690,1,0,0:0:0:0:
256,192,158840,12,0,160940,0:0:0:0:
368,192,161090,6,0,L|368:328,1,129.999994049073,4|0,0:0|0:0,0:0:0:0:
128,104,161390,1,0,0:0:0:0:
384,104,161540,1,0,0:0:0:0:
184,232,161690,2,0,P|184:280|138:347,1,129.999994049073,4|0,0:0|0:0,0:0:0:0:
312,48,161990,5,0,0:0:0:0:
256,312,162140,1,0,0:0:0:0:
40,80,162290,2,0,P|64:48|152:16,1,129.999994049073,4|0,0:0|0:0,0:0:0:0:
96,288,162590,5,0,0:0:0:0:
448,160,162740,1,0,0:0:0:0:
144,136,162890,2,0,P|96:152|24:232,1,129.999994049073,4|0,0:0|0:0,0:0:0:0:
224,48,163190,5,0,0:0:0:0:
168,344,163340,1,0,0:0:0:0:
360,160,163490,1,0,0:0:0:0:
48,192,163640,1,0,0:0:0:0:
320,72,163790,1,0,0:0:0:0:
48,312,163940,1,0,0:0:0:0:
344,256,164090,2,0,P|416:232|448:112,1,194.999991073609,4|0,0:0|0:0,0:0:0:0:
448,88,164390,2,0,P|424:48|336:16,1,129.999994049073
200,304,164690,6,4,P|112:272|96:120,1,259.999988098145,4|0,0:0|0:0,0:0:0:0:
200,184,165140,1,0,0:0:0:0:
32,88,165290,2,0,P|56:48|136:16,1,129.999994049073,4|0,0:0|0:0,0:0:0:0:
200,184,165590,2,0,P|256:208|272:288,1,129.999994049073,4|0,0:0|0:0,0:0:0:0:
224,64,165890,5,0,0:0:0:0:
440,192,166040,1,0,0:0:0:0:
200,304,166190,1,0,0:0:0:0:
384,88,166340,1,0,0:0:0:0:
120,240,166490,2,0,P|64:272|32:336,1,129.999994049073,4|0,0:0|0:0,0:0:0:0:
280,136,166790,1,0,0:0:0:0:
360,328,166940,1,0,0:0:0:0:
224,64,167090,2,0,P|144:80|96:144,1,129.999994049073,4|0,0:0|0:0,0:0:0:0:
336,232,167390,5,0,0:0:0:0:
192,144,167540,1,0,0:0:0:0:
416,176,167690,1,0,0:0:0:0:
176,336,167840,1,0,0:0:0:0:
296,144,167990,5,0,0:0:0:0:
296,144,168140,1,0,0:0:0:0:
80,176,168290,1,0,0:0:0:0:
400,64,168440,1,0,0:0:0:0:
336,344,168590,2,0,P|432:328|480:288,1,129.999994049073,4|0,0:0|0:0,0:0:0:0:
232,56,168890,2,0,P|168:56|110:89,1,129.999994049073,4|0,0:0|0:0,0:0:0:0:
80,264,169190,1,0,0:0:0:0:
312,56,169340,1,0,0:0:0:0:
352,264,169490,6,0,P|304:256|216:280,1,129.999994049073,4|0,0:0|0:0,0:0:0:0:
384,104,169790,2,0,P|420:49|476:18,1,129.999994049073,4|0,0:0|0:0,0:0:0:0:
120,184,170090,2,0,P|55:184|2:219,1,129.999994049073,4|0,0:0|0:0,0:0:0:0:
344,184,170390,2,0,L|480:184,1,129.999994049073,4|0,0:0|0:0,0:0:0:0:
216,312,170690,5,0,0:0:0:0:
192,88,170840,1,0,0:0:0:0:
328,320,170990,1,0,0:0:0:0:
128,272,171140,1,0,0:0:0:0:
416,256,171290,1,0,0:0:0:0:
64,328,171440,1,0,0:0:0:0:
224,192,171590,5,0,0:0:0:0:
224,192,171665,1,0,0:0:0:0:
224,192,171740,1,0,0:0:0:0:
48,240,171890,5,0,0:0:0:0:
328,232,172040,1,0,0:0:0:0:
112,88,172190,1,0,0:0:0:0:
296,160,172340,1,0,0:0:0:0:
144,352,172490,1,0,0:0:0:0:
200,32,172640,1,0,0:0:0:0:
256,280,172790,5,0,0:0:0:0:
256,280,172940,1,0,0:0:0:0:
384,104,173090,5,0,0:0:0:0:
432,280,173240,1,0,0:0:0:0:
296,64,173390,1,0,0:0:0:0:
168,272,173540,1,0,0:0:0:0:
440,192,173690,1,0,0:0:0:0:
232,360,173840,1,0,0:0:0:0:
112,112,173990,2,0,P|64:152|40:224,1,129.999994049073,4|0,0:0|0:0,0:0:0:0:
200,48,174290,5,0,0:0:0:0:
344,184,174440,1,0,0:0:0:0:
120,352,174590,1,0,0:0:0:0:
384,104,174740,1,0,0:0:0:0:
72,272,174890,1,0,0:0:0:0:
408,248,175040,1,0,0:0:0:0:
136,200,175190,1,0,0:0:0:0:
136,200,175340,1,0,0:0:0:0:
232,352,175490,6,0,P|264:320|344:296,1,129.999994049073,4|0,0:0|0:0,0:0:0:0:
200,136,175790,2,0,P|160:120|112:48,1,129.999994049073,4|0,0:0|0:0,0:0:0:0:
344,184,176090,6,0,P|408:160|472:160,1,129.999994049073,4|0,0:0|0:0,0:0:0:0:
200,48,176390,1,0,0:0:0:0:
136,336,176540,1,0,0:0:0:0:
304,80,176690,1,0,0:0:0:0:
48,184,176840,1,0,0:0:0:0:
232,320,176990,5,0,0:0:0:0:
400,112,177140,1,0,0:0:0:0:
173,189,177290,2,0,P|109:200|47:183,1,129.999994049073,4|0,0:0|0:0,0:0:0:0:
320,296,177590,2,0,P|368:312|480:280,1,129.999994049073,4|0,0:0|0:0,0:0:0:0:
456,136,177890,5,0,0:0:0:0:
232,304,178040,1,0,0:0:0:0:
424,56,178190,1,0,0:0:0:0:
176,240,178340,1,0,0:0:0:0:
448,224,178490,1,0,0:0:0:0:
288,48,178640,1,0,0:0:0:0:
320,296,178790,1,0,0:0:0:0:
160,104,178940,1,0,0:0:0:0:
408,304,179090,5,0,0:0:0:0:
112,176,179240,1,0,0:0:0:0:
456,136,179390,1,0,0:0:0:0:
200,32,179540,1,0,0:0:0:0:
280,360,179690,1,8,2:0:0:0:
328,296,184790,6,0,P|376:264|456:256,1,129.999994049073,4|0,0:0|0:0,0:0:0:0:
160,136,185090,2,0,P|120:160|16:168,1,129.999994049073,4|0,0:0|0:0,0:0:0:0:
208,312,185390,5,0,0:0:0:0:
384,144,185540,1,0,0:0:0:0:
160,224,185690,1,0,0:0:0:0:
424,240,185840,1,0,0:0:0:0:
264,64,185990,1,0,0:0:0:0:
112,304,186140,1,0,0:0:0:0:
352,64,186290,2,0,P|424:72|472:104,1,119.999996337891,4|0,0:0|0:0,0:0:0:0:
296,304,186590,5,0,0:0:0:0:
152,64,186740,1,0,0:0:0:0:
464,168,186890,1,0,0:0:0:0:
72,232,187040,1,0,0:0:0:0:
296,304,187190,6,0,P|368:328|440:304,1,119.999996337891,4|0,0:0|0:0,0:0:0:0:
192,272,187490,1,0,0:0:0:0:
328,184,187640,1,0,0:0:0:0:
24,152,187790,2,0,P|104:144|144:160,1,119.999996337891,4|0,0:0|0:0,0:0:0:0:
384,64,188090,2,0,P|320:88|256:80,1,119.999996337891,4|0,0:0|0:0,0:0:0:0:
104,304,188390,1,0,0:0:0:0:
376,256,188540,1,0,0:0:0:0:
80,64,188690,1,0,0:0:0:0:
80,64,188840,5,0,0:0:0:0:
104,216,188990,1,0,0:0:0:0:
104,216,189140,1,0,0:0:0:0:
408,160,189290,1,0,0:0:0:0:
408,160,189440,1,0,0:0:0:0:
184,104,189590,6,0,P|256:56|312:48,1,119.999996337891,4|0,0:0|0:0,0:0:0:0:
192,256,189890,1,0,0:0:0:0:
168,280,189965,1,0,0:0:0:0:
144,304,190040,1,0,0:0:0:0:
320,112,190190,1,0,0:0:0:0:
320,112,190340,1,0,0:0:0:0:
408,280,190490,5,0,0:0:0:0:
416,312,190565,1,0,0:0:0:0:
424,344,190640,1,0,0:0:0:0:
240,344,190790,1,0,0:0:0:0:
240,344,190940,1,0,0:0:0:0:
400,168,191090,5,0,0:0:0:0:
424,144,191165,1,0,0:0:0:0:
448,120,191240,1,0,0:0:0:0:
176,112,191390,2,0,P|208:32|264:16,1,119.999996337891,4|0,0:0|0:0,0:0:0:0:
144,256,191690,1,0,0:0:0:0:
120,272,191765,1,0,0:0:0:0:
96,288,191840,1,0,0:0:0:0:
72,128,191990,5,0,0:0:0:0:
224,272,192140,1,0,0:0:0:0:
344,112,192290,1,0,0:0:0:0:
344,80,192365,1,0,0:0:0:0:
344,48,192440,1,0,0:0:0:0:
376,264,192590,1,0,0:0:0:0:
400,280,192665,1,0,0:0:0:0:
424,296,192740,1,0,0:0:0:0:
240,72,192890,5,0,0:0:0:0:
240,72,193040,1,0,0:0:0:0:
104,200,193190,1,0,0:0:0:0:
80,184,193265,1,0,0:0:0:0:
56,168,193340,1,0,0:0:0:0:
272,152,193490,5,0,0:0:0:0:
88,312,193640,1,0,0:0:0:0:
416,144,193790,1,0,0:0:0:0:
176,320,193940,1,0,0:0:0:0:
128,32,194090,2,0,P|72:56|32:112,1,119.999996337891,4|0,0:0|0:0,0:0:0:0:
256,296,194390,1,0,0:0:0:0:
256,296,194540,1,0,0:0:0:0:
248,80,194690,5,0,0:0:0:0:
280,72,194765,1,0,0:0:0:0:
312,80,194840,1,0,0:0:0:0:
64,192,194990,5,0,0:0:0:0:
392,64,195140,1,0,0:0:0:0:
408,320,195290,1,0,0:0:0:0:
384,336,195365,1,0,0:0:0:0:
352,344,195440,1,0,0:0:0:0:
168,160,195590,5,0,0:0:0:0:
168,160,195740,1,0,0:0:0:0:
440,264,195890,1,0,0:0:0:0:
449,240,195965,1,0,0:0:0:0:
449,208,196040,1,0,0:0:0:0:
88,72,196190,5,0,0:0:0:0:
448,184,196340,1,0,0:0:0:0:
144,304,196490,2,0,P|85:314|33:344,1,119.999996337891,4|0,0:0|0:0,0:0:0:0:
448,160,196790,1,0,0:0:0:0:
96,232,196940,1,0,0:0:0:0:
448,136,197090,5,0,0:0:0:0:
224,328,197240,1,0,0:0:0:0:
448,112,197390,1,0,0:0:0:0:
80,152,197540,1,0,0:0:0:0:
448,88,197690,1,0,0:0:0:0:
304,328,197840,1,0,0:0:0:0:
448,64,197990,5,0,0:0:0:0:
144,304,198140,1,0,0:0:0:0:
448,184,198290,1,0,0:0:0:0:
56,304,198440,1,0,0:0:0:0:
160,32,198590,1,0,0:0:0:0:
376,288,198740,1,0,0:0:0:0:
200,176,198890,5,2,0:0:0:0:
