osu file format v14

[General]
AudioFilename: Flower Dance.mp3
AudioLeadIn: 0
PreviewTime: 103200
Countdown: 0
SampleSet: Soft
StackLeniency: 0.7
Mode: 0
LetterboxInBreaks: 1
WidescreenStoryboard: 1

[Editor]
Bookmarks: 35700,44850,63075,84300,95775,102075,131100,137775,160425,182925
DistanceSpacing: 2
BeatDivisor: 8
GridSize: 8
TimelineZoom: 3.399999

[Metadata]
Title:Flower Dance (Short Ver.)
TitleUnicode:Flower Dance (Short Ver.)
Artist:DJ Okawari
ArtistUnicode:DJ Okawari
Creator:-Hanayuki-
Version:Dance AR10
Source:Kaleidoscope
Tags:
BeatmapID:580937
BeatmapSetID:252981

[Difficulty]
HPDrainRate:6
CircleSize:4
OverallDifficulty:7
ApproachRate:10
SliderMultiplier:1.4
SliderTickRate:1

[Events]
//Background and Video events
0,0,"3216393.jpg",0,0
//Break Periods
2,123190,131240
2,179890,184340
//Storyboard Layer 0 (Background)
//Storyboard Layer 1 (Fail)
//Storyboard Layer 2 (Pass)
//Storyboard Layer 3 (Foreground)
//Storyboard Sound Samples

[TimingPoints]
0,300,4,2,1,45,1,0
2925,-200,4,2,1,25,0,0
15075,300,4,2,1,20,1,0
15075,-200,4,2,1,20,0,0
24300,-50,4,2,1,25,0,0
24675,-100,4,2,1,15,0,0
26325,-100,4,2,1,5,0,0
26690,300,4,2,1,45,1,0
28425,-200,4,2,1,45,0,0
29025,-200,4,2,1,50,0,0
31425,-133.333333333333,4,2,1,50,0,0
34425,-100,4,2,1,55,0,0
34725,-100,4,2,1,60,0,0
35025,-100,4,2,1,65,0,0
35325,-100,4,2,1,70,0,0
35625,-133.333333333333,4,2,1,50,0,0
39825,-133.333333333333,4,2,1,50,0,1
41025,-133.333333333333,4,1,1,40,0,1
44625,-66.6666666666667,4,1,1,50,0,1
45225,-200,4,1,1,70,0,1
45450,-100,4,2,1,5,0,1
45525,-100,4,1,1,35,0,1
45825,-100,4,2,1,70,0,0
61425,-50,4,2,1,70,0,0
63525,-100,4,2,1,70,0,0
65025,-100,4,2,1,35,0,0
65175,-100,4,2,1,70,0,0
66225,-86.9565217391304,4,2,1,75,0,0
68025,-86.9565217391304,4,2,1,35,0,0
68325,-86.9565217391304,4,2,1,75,0,0
74400,-83.3333333333333,4,2,1,80,0,0
78225,-83.3333333333333,4,2,1,85,0,1
79425,-66.6666666666667,4,1,1,45,0,1
83625,-200,4,1,1,45,0,1
83850,-100,4,2,1,5,0,1
83925,-100,4,2,1,40,0,1
84225,-90.9090909090909,4,2,1,5,0,0
85425,-83.3333333333333,4,2,1,65,0,0
93525,-80,4,2,1,70,0,0
96225,-66.6666666666667,4,2,1,75,0,0
98625,-50,4,1,1,45,0,1
102825,-200,4,1,1,45,0,1
103050,-100,4,2,1,5,0,1
103125,-100,4,2,1,40,0,1
103425,-100,4,2,1,80,0,1
113025,-83.3333333333333,4,2,1,80,0,1
122100,-100,4,2,1,60,0,1
122400,-100,4,2,1,45,0,0
122702,-100,4,2,1,25,0,0
131625,-80,4,1,1,45,0,0
141525,-90.9090909090909,4,2,1,60,0,0
156225,-80,4,2,1,65,0,0
158850,-80,4,2,1,55,0,0
159000,-80,4,2,1,45,0,0
159300,-80,4,2,1,30,0,0
159600,-80,4,2,1,40,0,0
159900,-80,4,2,1,35,0,0
160200,-80,4,2,1,25,0,0
161025,-76.9230769230769,4,2,1,75,0,0
177825,-76.9230769230769,4,2,1,60,0,0
178425,-76.9230769230769,4,2,1,65,0,0
178725,-76.9230769230769,4,2,1,70,0,0
179025,-50,4,2,1,75,0,0
179175,-50,4,2,1,80,0,0
179325,-50,4,2,1,85,0,0
179475,-50,4,2,1,90,0,0
179625,-50,4,2,1,75,0,0
180000,-100,4,2,1,45,0,0
180300,-100,4,2,1,30,0,0
184725,-76.9230769230769,4,2,1,80,0,1
188025,-66.6666666666667,4,2,1,80,0,1
189525,-66.6666666666667,4,2,1,80,0,1
194925,-58.8235294117647,4,2,1,80,0,1
196125,-50,4,2,1,80,0,1
198900,-100,4,2,1,45,0,0

[HitObjects]
216,96,15075,6,0,P|256:88|304:96,1,87.5,4|0,0:0|0:0,0:0:0:0:
96,280,15789,1,2,0:0:0:0:
416,280,16164,1,2,0:0:0:0:
160,80,16539,6,0,P|117:88|73:87,1,87.5,4|0,0:0|0:0,0:0:0:0:
345,191,17307,2,0,P|389:191|432:184,1,87.5,4|0,0:0|0:0,0:0:0:0:
158,296,18057,6,0,P|114:294|72:304,1,87.5,4|0,0:0|0:0,0:0:0:0:
408,64,18807,1,2,0:0:0:0:
104,80,19182,1,2,0:0:0:0:
392,288,19539,1,2,0:0:0:0:
96,320,19914,1,2,0:0:0:0:
256,72,20307,1,2,0:0:0:0:
400,320,20701,1,2,0:0:0:0:
376,56,21057,6,0,B|400:64|392:88|424:96|440:120,1,87.5,4|0,0:0|0:0,0:0:0:0:
112,144,21789,1,2,0:0:0:0:
416,152,22144,1,2,0:0:0:0:
208,344,22519,6,0,B|224:328|256:328|296:312,1,87.5,4|0,0:0|0:0,0:0:0:0:
256,56,23326,1,2,0:0:0:0:
432,296,23664,1,2,0:0:0:0:
120,232,24019,2,0,L|85:238,2,35,4|0|0,0:0|0:0|0:0,0:0:0:0:
256,192,24657,12,0,26307,0:0:0:0:
344,144,26690,6,0,L|392:72,1,70,0|0,0:0|0:0,0:0:0:0:
248,144,26990,1,0,0:0:0:0:
248,144,27140,2,0,L|200:216,1,70,0|0,0:0|0:0,0:0:0:0:
152,112,27440,5,0,0:0:0:0:
224,40,27590,1,0,0:0:0:0:
320,80,27740,1,0,0:0:0:0:
240,232,27890,1,0,0:0:0:0:
272,232,28190,1,0,0:0:0:0:
312,232,28490,2,0,L|416:232,1,105,4|0,0:0|0:0,0:0:0:0:
232,296,29090,6,0,L|152:296,1,70
120,240,29540,1,0,0:0:0:0:
136,168,29690,2,0,P|152:152|200:136,1,70
264,160,30140,1,0,0:0:0:0:
344,168,30290,2,0,L|384:144,1,35
344,248,30590,2,0,L|304:272,1,35
240,64,30890,1,4,0:0:0:0:
240,64,31190,1,0,0:0:0:0:
96,170,31490,6,0,P|115:122|160:96,1,105.000004005432,0|0,0:0|0:0,0:0:0:0:
176,168,32090,1,4,0:0:0:0:
336,168,32390,1,0,0:0:0:0:
272,224,32690,2,0,L|224:264,1,52.5000020027161,0|0,0:0|0:0,0:0:0:0:
336,168,32990,1,0,0:0:0:0:
336,168,33065,1,0,0:0:0:0:
336,168,33140,1,0,0:0:0:0:
221,104,33290,2,0,L|256:144,1,52.5000020027161,0|0,0:0|0:0,0:0:0:0:
344,248,33590,5,4,0:0:0:0:
104,192,33890,1,2,0:0:0:0:
80,192,34190,1,2,0:0:0:0:
256,64,34490,1,2,0:0:0:0:
344,304,34790,1,2,0:0:0:0:
80,296,35090,1,2,0:0:0:0:
368,96,35390,1,2,0:0:0:0:
200,184,35690,6,0,L|96:216,1,105.000004005432,0|0,0:0|0:0,0:0:0:0:
344,264,36290,2,0,L|376:264,2,26.2500010013581,4|0|0,0:0|0:0|0:0,0:0:0:0:
344,120,36590,1,0,0:0:0:0:
112,160,37040,5,0,0:0:0:0:
72,232,37190,1,0,0:0:0:0:
144,272,37340,1,0,0:0:0:0:
184,200,37490,2,0,L|248:176,1,52.5000020027161
288,80,37790,2,0,L|232:104,1,52.5000020027161
352,208,38090,1,4,0:0:0:0:
152,112,38690,6,0,L|104:56,1,52.5000020027161
360,112,38990,2,0,L|394:72,1,52.5000020027161,0|0,0:0|0:0,0:0:0:0:
256,272,39290,2,0,L|256:344,1,52.5000020027161
256,96,39590,2,0,L|256:32,1,52.5000020027161
256,176,39890,5,2,0:0:0:0:
176,176,40040,1,2,0:0:0:0:
216,248,40190,1,2,0:0:0:0:
296,248,40340,1,2,0:0:0:0:
336,176,40490,1,2,0:0:0:0:
296,104,40640,1,2,0:0:0:0:
216,104,40790,2,0,L|184:104|144:104,1,52.5000020027161,2|0,0:0|0:0,0:0:0:0:
136,208,41090,5,0,0:0:0:0:
192,272,41240,1,0,0:0:0:0:
272,256,41390,1,0,0:0:0:0:
232,160,41540,1,0,0:0:0:0:
248,328,41690,1,0,0:0:0:0:
112,280,41840,1,0,0:0:0:0:
232,160,41990,5,0,0:0:0:0:
192,256,42140,1,0,0:0:0:0:
296,240,42290,1,0,0:0:0:0:
336,144,42440,1,0,0:0:0:0:
232,160,42590,5,0,0:0:0:0:
384,224,42740,1,0,0:0:0:0:
248,312,42890,1,0,0:0:0:0:
296,216,43040,5,0,0:0:0:0:
328,296,43190,1,0,0:0:0:0:
416,296,43340,1,0,0:0:0:0:
400,176,43490,1,0,0:0:0:0:
368,360,43640,1,0,0:0:0:0:
248,280,43790,1,0,0:0:0:0:
400,176,43940,5,0,0:0:0:0:
296,184,44090,1,0,0:0:0:0:
248,280,44240,1,0,0:0:0:0:
176,208,44390,1,0,0:0:0:0:
216,112,44540,1,0,0:0:0:0:
152,312,44690,1,0,0:0:0:0:
352,256,44840,1,0,0:0:0:0:
248,104,44990,5,0,0:0:0:0:
144,272,45140,1,0,0:0:0:0:
336,296,45290,2,0,L|368:312,1,35,0|0,0:0|0:0,0:0:0:0:
240,232,45590,5,8,2:0:0:0:
344,144,45890,5,0,0:0:0:0:
272,64,46040,1,0,0:0:0:0:
344,144,46190,2,0,L|400:200,1,70,2|0,0:0|0:0,0:0:0:0:
256,168,46490,1,0,0:0:0:0:
320,248,46640,1,0,0:0:0:0:
256,168,46790,2,0,L|200:96,1,70,2|0,0:0|0:0,0:0:0:0:
200,256,47090,6,0,P|128:248|80:296,1,140,4|0,0:0|0:0,0:0:0:0:
160,328,47540,1,0,0:0:0:0:
248,320,47690,2,0,L|328:320,1,70,2|0,0:0|0:0,0:0:0:0:
264,200,47990,5,0,0:0:0:0:
168,96,48140,1,0,0:0:0:0:
128,240,48290,2,0,L|64:296,1,70,2|0,0:0|0:0,0:0:0:0:
264,200,48590,5,2,0:0:0:0:
264,64,48740,1,2,0:0:0:0:
184,184,48890,1,2,0:0:0:0:
344,184,49040,1,2,0:0:0:0:
264,344,49190,2,0,L|264:272,1,70,2|0,0:0|0:0,0:0:0:0:
264,64,49490,2,0,L|264:136,1,70,2|0,0:0|0:0,0:0:0:0:
432,208,49790,2,0,L|360:208,1,70,2|0,0:0|0:0,0:0:0:0:
96,208,50090,2,0,L|176:208,1,70,2|0,0:0|0:0,0:0:0:0:
96,296,50390,5,2,0:0:0:0:
96,296,50540,1,2,0:0:0:0:
160,144,50690,2,0,P|96:118|32:141,1,140,4|0,0:0|0:0,0:0:0:0:
296,200,51140,1,0,0:0:0:0:
200,288,51290,1,0,0:0:0:0:
328,320,51440,2,0,L|400:336,2,70,2|2|2,0:0|0:0|0:0,0:0:0:0:
400,184,51890,5,2,0:0:0:0:
328,64,52040,1,2,0:0:0:0:
256,184,52190,1,2,0:0:0:0:
400,184,52340,1,2,0:0:0:0:
256,184,52490,1,2,0:0:0:0:
328,64,52640,1,2,0:0:0:0:
256,184,52790,2,0,P|179:185|104:224,1,140,4|0,0:0|0:0,0:0:0:0:
72,72,53390,5,2,0:0:0:0:
72,72,53540,1,0,0:0:0:0:
272,112,53690,2,0,L|352:112,1,70,2|0,0:0|0:0,0:0:0:0:
432,320,53990,1,2,0:0:0:0:
432,320,54140,1,0,0:0:0:0:
248,256,54290,2,0,L|178:256,1,70,2|0,0:0|0:0,0:0:0:0:
128,72,54590,5,2,0:0:0:0:
256,336,54740,1,2,0:0:0:0:
392,72,54890,1,2,0:0:0:0:
392,72,55190,1,2,0:0:0:0:
104,192,55490,5,2,0:0:0:0:
200,240,55640,1,2,0:0:0:0:
192,136,55790,1,2,0:0:0:0:
280,184,55940,1,2,0:0:0:0:
272,80,56090,2,0,P|304:64|344:56,1,70,2|0,0:0|0:0,0:0:0:0:
384,152,56390,1,2,0:0:0:0:
432,56,56540,1,2,0:0:0:0:
336,240,56690,6,0,L|400:288,1,70,2|0,0:0|0:0,0:0:0:0:
200,280,56990,2,0,L|144:344,1,70,2|0,0:0|0:0,0:0:0:0:
208,152,57290,2,0,L|208:72,1,70,2|0,0:0|0:0,0:0:0:0:
136,208,57590,5,2,0:0:0:0:
296,176,57740,1,2,0:0:0:0:
240,320,57890,1,2,0:0:0:0:
176,200,58040,1,0,0:0:0:0:
304,264,58190,5,2,0:0:0:0:
288,128,58340,1,2,0:0:0:0:
160,280,58490,1,2,0:0:0:0:
336,192,58640,1,2,0:0:0:0:
144,200,58790,1,2,0:0:0:0:
264,336,58940,1,2,0:0:0:0:
272,136,59090,6,0,P|336:96|408:104,1,140,4|0,0:0|0:0,0:0:0:0:
280,40,59540,1,0,0:0:0:0:
166,128,59690,2,0,L|96:128,1,70,2|0,0:0|0:0,0:0:0:0:
264,208,59990,5,0,0:0:0:0:
264,120,60140,1,0,0:0:0:0:
264,288,60290,2,0,L|264:368,1,70,2|0,0:0|0:0,0:0:0:0:
176,176,60590,5,2,0:0:0:0:
352,176,60740,1,2,0:0:0:0:
96,176,60890,1,2,0:0:0:0:
432,176,61040,1,2,0:0:0:0:
264,176,61190,1,2,0:0:0:0:
264,176,61490,5,2,0:0:0:0:
264,328,61640,1,2,0:0:0:0:
264,48,61790,1,2,0:0:0:0:
128,272,61940,1,2,0:0:0:0:
400,272,62090,1,2,0:0:0:0:
400,272,62390,5,2,0:0:0:0:
264,48,62540,1,2,0:0:0:0:
128,272,62690,1,2,0:0:0:0:
128,248,62990,1,6,0:0:0:0:
400,248,63290,1,2,0:0:0:0:
128,248,63590,5,0,0:0:0:0:
240,168,63740,1,0,0:0:0:0:
112,112,63890,2,0,L|88:80,2,35,4|0|0,0:0|0:0|0:0,0:0:0:0:
224,32,64190,1,2,0:0:0:0:
392,256,64490,1,2,0:0:0:0:
120,312,64790,1,2,0:0:0:0:
304,136,65015,6,0,L|320:120,2,17.5,8|0|0,0:0|0:0|0:0,0:0:0:0:
96,200,65240,5,0,0:0:0:0:
360,240,65390,2,0,P|328:224|294:216,1,70,2|0,0:0|0:0,0:0:0:0:
184,216,65690,1,0,0:0:0:0:
104,336,65840,1,0,0:0:0:0:
328,320,65990,2,0,P|362:326|396:323,1,70,2|0,0:0|0:0,0:0:0:0:
200,112,66290,5,0,0:0:0:0:
312,240,66440,1,0,0:0:0:0:
144,272,66590,1,0,0:0:0:0:
200,112,66740,1,0,0:0:0:0:
312,240,66890,2,0,P|408:216|448:160,1,161.000003070831,4|0,0:0|0:0,0:0:0:0:
312,240,67340,1,0,0:0:0:0:
408,96,67490,2,0,P|383:63|354:36,1,80.5000015354157,2|0,0:0|0:0,0:0:0:0:
240,64,67790,5,0,0:0:0:0:
136,64,67940,1,0,0:0:0:0:
176,192,68090,2,0,L|136:192,2,40.2500007677078,8|4|0,0:0|0:0|0:0,0:0:0:0:
248,288,68390,1,0,0:0:0:0:
104,288,68540,5,0,0:0:0:0:
328,160,68690,2,0,P|320:128|288:80,1,80.5000015354157,2|0,0:0|0:0,0:0:0:0:
144,120,68990,2,0,P|152:160|176:192,1,80.5000015354157,2|0,0:0|0:0,0:0:0:0:
216,72,69290,1,0,0:0:0:0:
184,224,69440,1,0,0:0:0:0:
328,160,69590,2,0,P|367:149|406:151,1,80.5000015354157,2|0,0:0|0:0,0:0:0:0:
248,272,69890,5,0,0:0:0:0:
408,272,70040,1,0,0:0:0:0:
328,160,70190,1,0,0:0:0:0:
248,272,70340,1,0,0:0:0:0:
152,128,70490,2,4,P|112:120|72:120,1,80.5000015354157,2|0,0:0|0:0,0:0:0:0:
200,48,70790,5,0,0:0:0:0:
168,208,70940,1,0,0:0:0:0:
320,152,71090,2,0,L|368:152,2,40.2500007677078,2|0|0,0:0|0:0|0:0,0:0:0:0:
272,304,71390,5,2,0:0:0:0:
310,316,71465,1,2,0:0:0:0:
350,320,71540,1,2,0:0:0:0:
389,314,71615,1,2,0:0:0:0:
426,298,71690,2,0,P|448:272|464:224,1,80.5000015354157,2|0,0:0|0:0,0:0:0:0:
376,96,71990,5,2,0:0:0:0:
248,192,72140,1,2,0:0:0:0:
168,56,72290,1,2,0:0:0:0:
248,192,72440,1,2,0:0:0:0:
168,56,72590,1,2,0:0:0:0:
376,96,72740,1,2,0:0:0:0:
248,192,72890,2,0,P|275:220|313:234,1,80.5000015354157,2|0,0:0|0:0,0:0:0:0:
160,176,73190,5,0,0:0:0:0:
320,152,73340,1,0,0:0:0:0:
133,97,73490,2,0,P|98:116|80:152,1,80.5000015354157,2|0,0:0|0:0,0:0:0:0:
328,200,73790,5,0,0:0:0:0:
168,224,73940,1,0,0:0:0:0:
344,80,74090,2,0,P|378:99|397:134,1,80.5000015354157,2|0,0:0|0:0,0:0:0:0:
120,48,74390,5,0,0:0:0:0:
232,136,74540,1,0,0:0:0:0:
78,264,74690,2,0,P|80:222|96:184,2,83.9999974365235,4|0|0,0:0|0:0|0:0,0:0:0:0:
96,184,75140,1,0,0:0:0:0:
208,288,75290,5,2,0:0:0:0:
320,184,75440,1,2,0:0:0:0:
368,344,75590,1,2,0:0:0:0:
208,288,75740,1,2,0:0:0:0:
320,184,75890,6,0,P|360:172|464:176,1,125.999996154785,4|0,0:0|0:0,0:0:0:0:
456,128,76190,2,0,L|480:64,2,41.9999987182618,2|0|0,0:0|0:0|0:0,0:0:0:0:
304,48,76490,2,0,B|256:80|224:48|184:64|160:96,1,125.999996154785,4|0,0:0|0:0,0:0:0:0:
144,96,76790,2,0,P|112:128|64:144,1,83.9999974365235,2|0,0:0|0:0,0:0:0:0:
136,256,77090,6,0,P|160:289|168:330,1,83.9999974365235,2|0,0:0|0:0,0:0:0:0:
376,256,77390,2,0,P|351:289|343:330,1,83.9999974365235,2|0,0:0|0:0,0:0:0:0:
112,120,77690,2,0,P|104:80|79:46,1,83.9999974365235,2|0,0:0|0:0,0:0:0:0:
400,120,77990,2,0,P|408:79|432:46,1,83.9999974365235,2|0,0:0|0:0,0:0:0:0:
256,40,78290,5,2,0:0:0:0:
256,208,78440,1,2,0:0:0:0:
112,120,78590,1,2,0:0:0:0:
256,216,78740,1,2,0:0:0:0:
400,120,78890,1,2,0:0:0:0:
256,224,79040,1,2,0:0:0:0:
256,64,79190,2,0,L|256:-8,2,41.9999987182618,2|0|0,0:0|0:0|0:0,0:0:0:0:
152,192,79490,5,0,0:0:0:0:
352,192,79640,1,0,0:0:0:0:
256,272,79790,1,0,0:0:0:0:
152,112,79940,5,0,0:0:0:0:
352,112,80090,1,0,0:0:0:0:
256,272,80240,1,0,0:0:0:0:
352,112,80390,1,0,0:0:0:0:
152,112,80540,1,0,0:0:0:0:
256,192,80690,5,0,0:0:0:0:
168,248,80840,1,0,0:0:0:0:
256,296,80990,1,0,0:0:0:0:
344,248,81140,1,0,0:0:0:0:
176,168,81290,5,0,0:0:0:0:
336,168,81440,1,0,0:0:0:0:
256,296,81590,1,0,0:0:0:0:
256,88,81740,5,0,0:0:0:0:
168,264,81890,1,0,0:0:0:0:
336,168,82040,1,0,0:0:0:0:
168,72,82190,1,0,0:0:0:0:
168,264,82340,5,0,0:0:0:0:
256,88,82490,1,0,0:0:0:0:
344,264,82640,1,0,0:0:0:0:
176,168,82790,1,0,0:0:0:0:
344,72,82940,1,0,0:0:0:0:
352,272,83090,5,0,0:0:0:0:
184,176,83240,1,0,0:0:0:0:
352,80,83390,1,0,0:0:0:0:
360,280,83540,1,0,0:0:0:0:
184,176,83690,2,0,L|144:144,1,35,0|0,0:0|0:0,0:0:0:0:
296,176,83990,5,8,0:0:0:0:
256,192,84290,12,0,85340,0:0:0:0:
320,200,85490,6,0,L|424:200,1,83.9999974365235,2|0,0:0|0:0,0:0:0:0:
264,288,85790,2,0,P|224:280|176:288,1,83.9999974365235,2|0,0:0|0:0,0:0:0:0:
72,184,86090,2,0,P|128:128|216:96,1,167.999994873047,4|0,0:0|0:0,0:0:0:0:
352,80,86540,5,0,0:0:0:0:
352,80,86690,2,0,L|416:80,2,41.9999987182618,4|0|0,0:0|0:0|0:0,0:0:0:0:
432,232,86990,1,0,0:0:0:0:
272,192,87140,1,0,0:0:0:0:
64,272,87290,2,0,P|144:328|224:296,1,167.999994873047,4|0,0:0|0:0,0:0:0:0:
136,144,87740,5,0,0:0:0:0:
304,264,87890,2,0,P|336:232|352:184,1,83.9999974365235,2|0,0:0|0:0,0:0:0:0:
184,216,88190,1,0,0:0:0:0:
184,216,88340,1,0,0:0:0:0:
424,192,88490,2,0,P|384:144|280:136,1,167.999994873047,4|0,0:0|0:0,0:0:0:0:
424,192,88940,1,0,0:0:0:0:
264,240,89090,5,2,0:0:0:0:
368,48,89240,1,0,0:0:0:0:
176,88,89390,2,0,B|128:80|80:104,1,83.9999974365235,2|0,0:0|0:0,0:0:0:0:
264,256,89690,1,2,0:0:0:0:
368,64,89840,1,0,0:0:0:0:
408,240,89990,2,0,B|448:232|490:243,1,83.9999974365235,2|0,0:0|0:0,0:0:0:0:
336,320,90290,5,2,0:0:0:0:
288,160,90440,1,0,0:0:0:0:
160,264,90590,1,2,0:0:0:0:
160,264,90665,1,2,0:0:0:0:
160,264,90740,1,2,0:0:0:0:
40,168,90890,2,0,P|56:136|96:104,1,83.9999974365235,2|0,0:0|0:0,0:0:0:0:
304,40,91190,2,0,P|324:76|356:102,1,83.9999974365235,2|0,0:0|0:0,0:0:0:0:
160,264,91490,2,0,P|192:289|212:326,1,83.9999974365235,2|0,0:0|0:0,0:0:0:0:
368,176,91790,5,0,0:0:0:0:
224,88,91940,1,0,0:0:0:0:
112,200,92090,2,0,P|81:228|66:267,1,83.9999974365235,4|0,0:0|0:0,0:0:0:0:
368,192,92390,1,0,0:0:0:0:
208,88,92540,1,0,0:0:0:0:
256,336,92690,2,0,P|297:331|336:315,1,83.9999974365235,4|0,0:0|0:0,0:0:0:0:
192,88,92990,5,0,0:0:0:0:
368,208,93140,1,0,0:0:0:0:
128,224,93290,2,0,P|120:264|88:296,1,83.9999974365235,4|0,0:0|0:0,0:0:0:0:
256,320,93590,5,2,0:0:0:0:
368,192,93740,1,0,0:0:0:0:
216,152,93890,2,0,P|174:131|136:97,1,87.5,2|0,0:0|0:0,0:0:0:0:
336,336,94190,2,0,P|368:306|391:269,1,87.5,2|0,0:0|0:0,0:0:0:0:
144,296,94490,5,0,0:0:0:0:
64,144,94640,1,0,0:0:0:0:
240,144,94790,1,0,0:0:0:0:
144,296,94940,1,0,0:0:0:0:
64,144,95090,2,0,B|120:136|144:80|168:64|216:48,1,175,4|0,0:0|0:0,0:0:0:0:
304,176,95540,1,0,0:0:0:0:
304,176,95690,2,0,P|360:176|408:152,1,87.5,2|0,0:0|0:0,0:0:0:0:
208,312,95990,2,0,P|166:325|123:323,1,87.5,2|0,0:0|0:0,0:0:0:0:
200,128,96290,6,0,P|149:117|100:132,1,105.000004005432,2|0,0:0|0:0,0:0:0:0:
312,80,96590,2,0,P|361:64|412:72,1,105.000004005432,2|0,0:0|0:0,0:0:0:0:
144,240,96890,2,0,P|93:252|43:237,1,105.000004005432,2|0,0:0|0:0,0:0:0:0:
368,152,97190,2,0,P|419:164|469:149,1,105.000004005432,2|0,0:0|0:0,0:0:0:0:
280,264,97490,5,2,0:0:0:0:
200,128,97640,1,2,0:0:0:0:
368,152,97790,1,2,0:0:0:0:
144,240,97940,1,2,0:0:0:0:
312,80,98090,1,2,0:0:0:0:
360,280,98240,1,2,0:0:0:0:
200,176,98390,2,0,P|152:160|96:168,1,105.000004005432,2|0,0:0|0:0,0:0:0:0:
339,89,98690,5,0,0:0:0:0:
166,230,98840,1,0,0:0:0:0:
377,147,98990,1,0,0:0:0:0:
204,288,99140,1,0,0:0:0:0:
268,76,99290,1,0,0:0:0:0:
268,300,99440,1,0,0:0:0:0:
198,89,99590,5,0,0:0:0:0:
332,275,99740,1,0,0:0:0:0:
153,140,99890,1,0,0:0:0:0:
364,217,100040,1,0,0:0:0:0:
140,204,100190,1,0,0:0:0:0:
358,153,100340,1,0,0:0:0:0:
204,288,100490,5,0,0:0:0:0:
320,96,100640,1,0,0:0:0:0:
160,147,100790,1,0,0:0:0:0:
288,262,100940,1,0,0:0:0:0:
236,102,101090,1,0,0:0:0:0:
121,224,101240,1,0,0:0:0:0:
396,128,101390,5,0,0:0:0:0:
204,288,101540,1,0,0:0:0:0:
320,96,101690,1,0,0:0:0:0:
288,262,101840,1,0,0:0:0:0:
160,147,101990,1,0,0:0:0:0:
371,224,102140,1,0,0:0:0:0:
236,102,102290,5,0,0:0:0:0:
185,288,102440,1,0,0:0:0:0:
345,134,102590,1,0,0:0:0:0:
128,185,102740,1,0,0:0:0:0:
368,272,102890,6,0,L|400:288,1,35
256,192,103190,5,8,0:0:0:0:
256,192,103490,5,2,0:0:0:0:
256,88,103640,1,0,0:0:0:0:
168,136,103790,1,2,0:0:0:0:
256,192,103940,1,0,0:0:0:0:
168,136,104090,1,2,0:0:0:0:
352,240,104240,1,0,0:0:0:0:
256,192,104390,1,2,0:0:0:0:
264,296,104540,1,0,0:0:0:0:
168,248,104690,6,0,P|128:256|96:272,1,70,2|0,0:0|0:0,0:0:0:0:
168,136,104990,2,0,P|208:128|248:112,1,70,2|0,0:0|0:0,0:0:0:0:
384,40,105290,2,0,P|349:40|314:48,1,70,2|0,0:0|0:0,0:0:0:0:
304,152,105590,1,2,0:0:0:0:
408,136,105740,1,2,0:0:0:0:
368,232,105890,5,2,0:0:0:0:
304,152,106040,1,0,0:0:0:0:
368,232,106190,1,2,0:0:0:0:
408,136,106340,1,0,0:0:0:0:
304,152,106490,1,2,0:0:0:0:
336,56,106640,1,0,0:0:0:0:
408,136,106790,1,2,0:0:0:0:
304,152,106940,1,0,0:0:0:0:
232,72,107090,6,0,P|192:64|136:64,1,70,2|0,0:0|0:0,0:0:0:0:
207,232,107390,2,0,P|189:202|184:168,1,70,2|0,0:0|0:0,0:0:0:0:
312,248,107690,2,0,P|345:239|380:246,1,70,2|0,0:0|0:0,0:0:0:0:
248,304,107990,1,2,0:0:0:0:
112,256,108140,1,2,0:0:0:0:
224,152,108290,5,2,0:0:0:0:
112,248,108440,1,0,0:0:0:0:
248,296,108590,1,2,0:0:0:0:
224,152,108740,1,0,0:0:0:0:
352,200,108890,1,2,0:0:0:0:
216,152,109040,1,0,0:0:0:0:
240,296,109190,1,2,0:0:0:0:
344,200,109340,1,0,0:0:0:0:
168,184,109490,6,0,P|168:248|136:280,1,105,2|0,0:0|0:0,0:0:0:0:
96,320,109790,2,0,P|66:338|31:343,1,70,2|0,0:0|0:0,0:0:0:0:
232,360,110090,2,0,P|288:344|320:312,1,105,2|0,0:0|0:0,0:0:0:0:
304,248,110390,2,0,P|296:216|264:184,1,70,2|0,0:0|0:0,0:0:0:0:
144,136,110690,5,2,0:0:0:0:
264,64,110840,1,0,0:0:0:0:
376,152,110990,1,2,0:0:0:0:
256,216,111140,1,0,0:0:0:0:
264,64,111290,1,2,0:0:0:0:
144,136,111440,1,0,0:0:0:0:
376,152,111590,1,2,0:0:0:0:
256,216,111740,1,0,0:0:0:0:
264,64,111890,6,0,L|272:16,2,35,2|0|0,0:0|0:0|0:0,0:0:0:0:
256,216,112190,2,0,L|248:280,2,35,2|0|0,0:0|0:0|0:0,0:0:0:0:
120,192,112490,2,0,L|48:232,1,70,2|0,0:0|0:0,0:0:0:0:
392,192,112790,2,0,L|456:232,1,70,2|0,0:0|0:0,0:0:0:0:
296,288,113090,5,2,0:0:0:0:
208,144,113240,1,0,0:0:0:0:
120,288,113390,1,2,0:0:0:0:
288,288,113540,1,0,0:0:0:0:
200,144,113690,1,2,0:0:0:0:
368,144,113840,1,0,0:0:0:0:
128,280,113990,1,2,0:0:0:0:
296,288,114140,1,0,0:0:0:0:
192,152,114290,6,0,P|172:106|136:64,1,83.9999974365235,2|0,0:0|0:0,0:0:0:0:
360,144,114590,2,0,P|404:144|448:152,1,83.9999974365235,2|0,0:0|0:0,0:0:0:0:
288,288,114890,2,0,P|257:323|232:368,1,83.9999974365235,2|0,0:0|0:0,0:0:0:0:
280,192,115190,1,2,0:0:0:0:
280,192,115340,1,2,0:0:0:0:
280,96,115490,5,2,0:0:0:0:
192,240,115640,1,0,0:0:0:0:
360,248,115790,1,2,0:0:0:0:
288,104,115940,1,0,0:0:0:0:
368,256,116090,1,2,0:0:0:0:
200,248,116240,1,2,0:0:0:0:
296,112,116390,1,2,0:0:0:0:
376,264,116540,1,2,0:0:0:0:
208,256,116690,6,0,P|168:224|120:216,1,83.9999974365235,2|0,0:0|0:0,0:0:0:0:
304,120,116990,2,0,P|344:88|384:72,1,83.9999974365235,2|0,0:0|0:0,0:0:0:0:
384,272,117290,2,0,P|408:312|440:328,1,83.9999974365235,2|0,0:0|0:0,0:0:0:0:
296,228,117590,1,2,0:0:0:0:
296,212,117740,1,2,0:0:0:0:
296,196,117890,2,0,L|296:112,1,83.9999974365235,2|0,0:0|0:0,0:0:0:0:
168,104,118190,5,2,0:0:0:0:
88,240,118340,1,2,0:0:0:0:
256,224,118490,1,2,0:0:0:0:
168,80,118640,1,2,0:0:0:0:
64,240,118790,1,2,0:0:0:0:
168,56,119090,5,2,0:0:0:0:
280,224,119240,1,2,0:0:0:0:
64,240,119390,1,2,0:0:0:0:
168,32,119540,1,2,0:0:0:0:
304,224,119690,1,2,0:0:0:0:
304,224,119990,5,2,0:0:0:0:
64,240,120140,1,2,0:0:0:0:
168,32,120290,1,2,0:0:0:0:
184,216,120590,5,2,0:0:0:0:
392,80,120890,1,2,0:0:0:0:
392,328,121190,1,2,0:0:0:0:
176,200,121490,1,2,0:0:0:0:
408,96,121790,1,2,0:0:0:0:
256,192,122090,12,0,122990,0:0:0:0:
248,256,131690,5,0,0:0:0:0:
416,200,131990,1,0,0:0:0:0:
280,88,132290,1,0,0:0:0:0:
240,280,132590,1,0,0:0:0:0:
432,200,132890,1,0,0:0:0:0:
272,72,133190,1,0,0:0:0:0:
256,296,133490,5,0,0:0:0:0:
432,184,133790,1,0,0:0:0:0:
256,64,134090,1,0,0:0:0:0:
280,288,134390,5,0,0:0:0:0:
456,144,134690,1,0,0:0:0:0:
240,72,134990,1,0,0:0:0:0:
304,304,135290,1,0,0:0:0:0:
448,112,135590,1,0,0:0:0:0:
208,64,135890,5,0,0:0:0:0:
328,296,136190,1,0,0:0:0:0:
440,64,136490,1,0,0:0:0:0:
176,80,136790,1,0,0:0:0:0:
360,288,137090,1,0,0:0:0:0:
80,328,137390,1,0,0:0:0:0:
176,64,137690,1,0,0:0:0:0:
368,288,137990,1,0,0:0:0:0:
72,320,138290,5,0,0:0:0:0:
184,48,138590,1,0,0:0:0:0:
368,304,138890,1,0,0:0:0:0:
56,288,139190,1,0,0:0:0:0:
240,32,139490,5,0,0:0:0:0:
352,328,139790,1,0,0:0:0:0:
48,184,140090,1,0,0:0:0:0:
344,32,140390,1,0,0:0:0:0:
480,352,140690,1,0,0:0:0:0:
144,240,140990,1,0,0:0:0:0:
448,56,141290,1,0,0:0:0:0:
368,224,141590,6,0,P|336:272|240:296,1,154.000004699707,2|0,0:0|0:0,0:0:0:0:
264,176,142040,1,2,0:0:0:0:
328,120,142190,1,2,0:0:0:0:
248,96,142340,1,2,0:0:0:0:
184,152,142490,1,2,0:0:0:0:
264,176,142640,1,2,0:0:0:0:
184,152,142790,5,2,0:0:0:0:
328,120,142940,1,2,0:0:0:0:
248,96,143090,1,2,0:0:0:0:
264,176,143240,1,2,0:0:0:0:
168,72,143390,1,2,0:0:0:0:
304,40,143540,1,2,0:0:0:0:
264,176,143690,5,2,0:0:0:0:
304,40,143840,1,2,0:0:0:0:
176,80,143990,1,2,0:0:0:0:
272,184,144140,1,2,0:0:0:0:
312,48,144290,2,0,P|352:48|392:56,1,77.0000023498536,2|0,0:0|0:0,0:0:0:0:
184,88,144590,2,0,P|144:96|112:120,1,77.0000023498536,2|0,0:0|0:0,0:0:0:0:
280,192,144890,6,0,B|336:216|376:216|432:192,1,154.000004699707,4|0,0:0|0:0,0:0:0:0:
352,96,145340,1,2,0:0:0:0:
192,96,145490,2,0,P|144:112|104:232,1,154.000004699707,4|0,0:0|0:0,0:0:0:0:
216,200,145940,1,0,0:0:0:0:
304,320,146090,2,0,P|344:296|368:248,1,77.0000023498536,2|0,0:0|0:0,0:0:0:0:
208,208,146390,2,0,P|174:225|147:253,1,77.0000023498536,2|0,0:0|0:0,0:0:0:0:
368,184,146690,6,0,L|408:152,2,38.5000011749268,2|0|0,0:0|0:0|0:0,0:0:0:0:
304,40,146990,1,0,0:0:0:0:
176,120,147140,1,0,0:0:0:0:
232,264,147290,2,0,P|216:304|192:336,1,77.0000023498536,2|0,0:0|0:0,0:0:0:0:
288,40,147590,5,0,0:0:0:0:
160,120,147740,1,0,0:0:0:0:
340,333,147890,2,0,P|318:301|312:264,1,77.0000023498536,2|0,0:0|0:0,0:0:0:0:
272,40,148190,5,0,0:0:0:0:
144,120,148340,1,0,0:0:0:0:
312,264,148490,2,0,P|352:256|400:232,1,77.0000023498536,2|0,0:0|0:0,0:0:0:0:
144,264,148790,5,2,0:0:0:0:
272,176,148940,1,2,0:0:0:0:
136,112,149090,2,0,L|112:72,2,38.5000011749268,2|0|2,0:0|0:0|0:0,0:0:0:0:
280,56,149390,2,0,P|320:48|360:56,1,77.0000023498536,2|0,0:0|0:0,0:0:0:0:
464,192,149690,5,2,0:0:0:0:
352,304,149840,1,2,0:0:0:0:
216,224,149990,1,2,0:0:0:0:
352,304,150140,1,2,0:0:0:0:
328,120,150290,1,2,0:0:0:0:
216,224,150440,5,2,0:0:0:0:
464,192,150590,1,2,0:0:0:0:
352,304,150740,1,2,0:0:0:0:
328,120,150890,2,0,P|288:64|184:72,1,154.000004699707,4|0,0:0|0:0,0:0:0:0:
328,120,151340,1,0,0:0:0:0:
192,200,151490,5,2,0:0:0:0:
312,296,151640,1,2,0:0:0:0:
176,216,151790,1,2,0:0:0:0:
328,280,151940,1,2,0:0:0:0:
136,128,152090,2,0,L|80:192,1,77.0000023498536,2|0,0:0|0:0,0:0:0:0:
232,144,152390,5,2,0:0:0:0:
104,280,152540,1,2,0:0:0:0:
264,56,152690,2,0,L|336:120,1,77.0000023498536,2|0,0:0|0:0,0:0:0:0:
168,72,152990,5,2,0:0:0:0:
312,208,153140,1,2,0:0:0:0:
112,272,153290,2,0,L|32:344,1,77.0000023498536,2|0,0:0|0:0,0:0:0:0:
200,176,153590,5,2,0:0:0:0:
304,64,153740,1,2,0:0:0:0:
208,184,153890,1,2,0:0:0:0:
296,56,154040,1,2,0:0:0:0:
216,192,154190,1,2,0:0:0:0:
288,48,154340,1,2,0:0:0:0:
360,184,154490,6,0,P|400:184|440:192,1,77.0000023498536,2|2,0:0|0:0,0:0:0:0:
360,168,154790,1,2,0:0:0:0:
208,216,154940,1,2,0:0:0:0:
360,152,155090,1,2,0:0:0:0:
208,232,155240,1,2,0:0:0:0:
232,80,155390,5,2,0:0:0:0:
368,144,155540,1,2,0:0:0:0:
208,216,155690,2,0,P|168:224|120:224,1,77.0000023498536,2|0,0:0|0:0,0:0:0:0:
232,64,155990,2,0,P|268:51|306:51,1,77.0000023498536,2|0,0:0|0:0,0:0:0:0:
128,56,156290,5,2,0:0:0:0:
24,176,156440,1,2,0:0:0:0:
176,208,156590,1,2,0:0:0:0:
128,56,156740,1,2,0:0:0:0:
176,208,156890,2,0,P|224:192|280:184,1,87.5,2|0,0:0|0:0,0:0:0:0:
104,328,157190,5,2,0:0:0:0:
160,128,157340,1,2,0:0:0:0:
328,280,157490,1,2,0:0:0:0:
104,328,157640,1,0,0:0:0:0:
328,280,157790,1,2,0:0:0:0:
160,128,157940,1,2,0:0:0:0:
328,280,158090,2,0,P|392:232|392:176,1,131.25,2|0,0:0|0:0,0:0:0:0:
368,128,158390,5,2,0:0:0:0:
224,232,158540,1,2,0:0:0:0:
192,56,158690,1,2,0:0:0:0:
256,192,158840,12,0,160940,0:0:0:0:
256,136,161090,6,0,L|256:40,1,90.9999958343508,2|0,0:0|0:0,0:0:0:0:
128,104,161390,1,2,0:0:0:0:
384,104,161540,1,2,0:0:0:0:
190,197,161690,2,0,P|195:242|191:288,1,90.9999958343508
344,184,161990,5,2,0:0:0:0:
192,288,162140,1,2,0:0:0:0:
208,104,162290,2,0,P|232:72|280:48,1,90.9999958343508,2|0,0:0|0:0,0:0:0:0:
192,272,162590,5,2,0:0:0:0:
360,184,162740,1,2,0:0:0:0:
208,104,162890,2,0,P|160:104|104:120,1,90.9999958343508,2|0,0:0|0:0,0:0:0:0:
288,40,163190,5,2,0:0:0:0:
168,176,163340,1,2,0:0:0:0:
352,200,163490,1,2,0:0:0:0:
288,40,163640,1,2,0:0:0:0:
352,200,163790,1,2,0:0:0:0:
168,176,163940,1,2,0:0:0:0:
352,200,164090,2,0,P|424:176|456:56,1,181.999991668702,4|0,0:0|0:0,0:0:0:0:
352,96,164540,1,0,0:0:0:0:
200,304,164690,6,4,P|112:272|88:168,1,181.999991668702
200,184,165140,1,0,0:0:0:0:
32,96,165290,2,0,P|56:56|96:32,1,90.9999958343508,2|0,0:0|0:0,0:0:0:0:
200,184,165590,2,0,P|238:207|260:246,1,90.9999958343508,2|0,0:0|0:0,0:0:0:0:
224,64,165890,5,2,0:0:0:0:
376,160,166040,1,2,0:0:0:0:
192,184,166190,1,2,0:0:0:0:
320,56,166340,1,2,0:0:0:0:
296,232,166490,2,0,L|304:336,1,90.9999958343508,2|0,0:0|0:0,0:0:0:0:
280,136,166790,1,2,0:0:0:0:
280,136,166865,1,0,0:0:0:0:
280,136,166940,1,2,0:0:0:0:
104,96,167090,5,2,0:0:0:0:
56,272,167240,1,2,0:0:0:0:
232,224,167390,1,2,0:0:0:0:
56,176,167540,1,2,0:0:0:0:
232,120,167690,1,2,0:0:0:0:
168,288,167840,1,2,0:0:0:0:
344,240,167990,5,2,0:0:0:0:
344,240,168065,1,0,0:0:0:0:
344,240,168140,1,2,0:0:0:0:
224,104,168290,5,2,0:0:0:0:
400,64,168440,1,0,0:0:0:0:
232,128,168590,1,2,0:0:0:0:
408,80,168740,1,0,0:0:0:0:
240,152,168890,1,2,0:0:0:0:
416,96,169040,1,0,0:0:0:0:
248,168,169190,1,2,0:0:0:0:
424,112,169340,1,2,0:0:0:0:
336,272,169490,6,0,P|288:264|224:280,1,90.9999958343508,2|0,0:0|0:0,0:0:0:0:
128,128,169790,2,0,P|106:167|107:212,1,90.9999958343508,2|0,0:0|0:0,0:0:0:0:
272,144,170090,2,0,P|344:104|456:128,1,181.999991668702,4|0,0:0|0:0,0:0:0:0:
368,224,170540,5,0,0:0:0:0:
192,176,170690,1,2,0:0:0:0:
312,40,170840,1,2,0:0:0:0:
272,224,170990,1,2,0:0:0:0:
216,48,171140,1,2,0:0:0:0:
384,112,171290,1,2,0:0:0:0:
256,240,171440,1,2,0:0:0:0:
200,64,171590,5,2,0:0:0:0:
200,64,171665,1,0,0:0:0:0:
200,64,171740,1,2,0:0:0:0:
256,240,171890,5,2,0:0:0:0:
384,112,172040,1,2,0:0:0:0:
216,48,172190,1,2,0:0:0:0:
256,224,172340,1,2,0:0:0:0:
80,168,172490,1,2,0:0:0:0:
224,56,172640,1,2,0:0:0:0:
256,232,172790,5,2,0:0:0:0:
256,232,172865,1,0,0:0:0:0:
256,232,172940,1,2,0:0:0:0:
384,104,173090,5,2,0:0:0:0:
432,280,173240,1,2,0:0:0:0:
248,256,173390,1,2,0:0:0:0:
360,112,173540,1,2,0:0:0:0:
456,264,173690,1,2,0:0:0:0:
272,240,173840,1,2,0:0:0:0:
464,224,173990,2,0,P|477:175|464:133,1,90.9999958343508,2|0,0:0|0:0,0:0:0:0:
200,136,174290,5,2,0:0:0:0:
104,288,174440,1,2,0:0:0:0:
208,136,174590,1,2,0:0:0:0:
304,288,174740,1,2,0:0:0:0:
120,288,174890,1,2,0:0:0:0:
224,136,175040,1,2,0:0:0:0:
128,288,175190,1,2,0:0:0:0:
312,288,175340,1,2,0:0:0:0:
376,120,175490,6,0,P|408:88|456:72,1,90.9999958343508,2|0,0:0|0:0,0:0:0:0:
248,64,175790,2,0,P|208:48|184:0,1,90.9999958343508,2|0,0:0|0:0,0:0:0:0:
56,104,176090,5,2,0:0:0:0:
176,208,176240,1,2,0:0:0:0:
24,272,176390,1,2,0:0:0:0:
248,272,176540,1,2,0:0:0:0:
152,120,176690,1,2,0:0:0:0:
96,296,176840,1,2,0:0:0:0:
272,256,176990,5,2,0:0:0:0:
80,224,177140,1,2,0:0:0:0:
304,232,177290,2,0,P|352:248|408:232,1,90.9999958343508,2|2,0:0|0:0,0:0:0:0:
182,305,177590,2,0,P|139:289|95:295,1,90.9999958343508,2|2,0:0|0:0,0:0:0:0:
414,185,177890,5,2,0:0:0:0:
211,172,178040,1,2,0:0:0:0:
320,76,178190,1,2,0:0:0:0:
307,281,178340,1,2,0:0:0:0:
352,140,178490,1,2,0:0:0:0:
249,243,178640,1,2,0:0:0:0:
416,121,178790,1,2,0:0:0:0:
179,236,178940,1,2,0:0:0:0:
384,57,179090,5,2,0:0:0:0:
217,307,179240,1,2,0:0:0:0:
320,76,179390,1,2,0:0:0:0:
307,281,179540,1,2,0:0:0:0:
256,102,179690,1,8,0:0:0:0:
352,152,184790,6,0,P|400:120|464:112,1,90.9999958343508,2|0,0:0|0:0,0:0:0:0:
432,296,185090,2,0,P|392:320|336:328,1,90.9999958343508,2|0,0:0|0:0,0:0:0:0:
272,184,185390,5,2,0:0:0:0:
360,32,185540,1,2,0:0:0:0:
200,64,185690,1,2,0:0:0:0:
352,120,185840,1,2,0:0:0:0:
192,152,185990,1,2,0:0:0:0:
272,8,186140,1,2,0:0:0:0:
296,192,186290,5,2,0:0:0:0:
296,192,186365,1,2,0:0:0:0:
296,192,186440,1,2,0:0:0:0:
144,88,186590,1,2,0:0:0:0:
128,272,186740,1,2,0:0:0:0:
288,184,186890,1,2,0:0:0:0:
136,88,187040,1,2,0:0:0:0:
120,272,187190,5,2,0:0:0:0:
216,120,187340,1,2,0:0:0:0:
312,272,187490,1,2,0:0:0:0:
184,144,187640,1,2,0:0:0:0:
288,296,187790,1,2,0:0:0:0:
256,120,187940,1,2,0:0:0:0:
248,304,188090,5,2,0:0:0:0:
376,168,188240,1,2,0:0:0:0:
176,120,188390,1,2,0:0:0:0:
280,304,188540,1,2,0:0:0:0:
208,104,188690,5,2,0:0:0:0:
384,216,188840,1,2,0:0:0:0:
184,160,188990,1,2,0:0:0:0:
368,264,189140,1,2,0:0:0:0:
336,56,189290,2,0,L|448:56,1,105.000004005432,2|0,0:0|0:0,0:0:0:0:
280,192,189590,5,2,0:0:0:0:
136,72,189740,1,2,0:0:0:0:
88,256,189890,1,2,0:0:0:0:
264,152,190040,1,2,0:0:0:0:
96,80,190190,1,2,0:0:0:0:
112,272,190340,1,2,0:0:0:0:
320,248,190490,5,2,0:0:0:0:
352,240,190565,1,2,0:0:0:0:
392,248,190640,1,2,0:0:0:0:
328,64,190790,1,2,0:0:0:0:
280,248,190940,1,2,0:0:0:0:
472,216,191090,5,2,0:0:0:0:
480,248,191165,1,2,0:0:0:0:
464,280,191240,1,2,0:0:0:0:
272,168,191390,5,2,0:0:0:0:
416,312,191540,1,2,0:0:0:0:
192,288,191690,1,2,0:0:0:0:
168,312,191765,1,2,0:0:0:0:
136,320,191840,1,2,0:0:0:0:
72,128,191990,5,2,0:0:0:0:
224,272,192140,1,2,0:0:0:0:
368,120,192290,1,2,0:0:0:0:
368,80,192365,1,2,0:0:0:0:
352,40,192440,1,2,0:0:0:0:
160,128,192590,5,2,0:0:0:0:
320,264,192740,1,2,0:0:0:0:
240,72,192890,1,2,0:0:0:0:
144,256,193040,1,2,0:0:0:0:
320,144,193190,1,2,0:0:0:0:
224,336,193340,1,2,0:0:0:0:
240,104,193490,5,2,0:0:0:0:
240,72,193565,1,2,0:0:0:0:
240,40,193640,1,2,0:0:0:0:
64,184,193790,5,2,0:0:0:0:
272,192,193940,1,2,0:0:0:0:
64,232,194090,1,2,0:0:0:0:
256,152,194240,1,2,0:0:0:0:
80,272,194390,1,2,0:0:0:0:
224,120,194540,1,2,0:0:0:0:
192,328,194690,5,2,0:0:0:0:
216,336,194765,1,2,0:0:0:0:
248,328,194840,1,2,0:0:0:0:
248,80,194990,5,2,0:0:0:0:
64,224,195140,1,2,0:0:0:0:
280,320,195290,1,2,0:0:0:0:
302,308,195365,1,2,0:0:0:0:
319,280,195440,1,2,0:0:0:0:
192,80,195590,5,2,0:0:0:0:
64,280,195740,1,2,0:0:0:0:
335,256,195890,1,2,0:0:0:0:
344,232,195965,1,2,0:0:0:0:
344,200,196040,1,2,0:0:0:0:
88,72,196190,5,2,0:0:0:0:
368,56,196340,1,2,0:0:0:0:
136,216,196490,1,2,0:0:0:0:
120,232,196565,1,2,0:0:0:0:
104,248,196640,1,2,0:0:0:0:
376,176,196790,1,2,0:0:0:0:
392,160,196865,1,2,0:0:0:0:
408,144,196940,1,2,0:0:0:0:
256,64,197090,5,2,0:0:0:0:
256,320,197240,1,2,0:0:0:0:
152,120,197390,1,2,0:0:0:0:
368,120,197540,1,2,0:0:0:0:
152,256,197690,1,2,0:0:0:0:
368,256,197840,1,2,0:0:0:0:
152,120,197990,5,2,0:0:0:0:
256,320,198140,1,2,0:0:0:0:
368,120,198290,1,2,0:0:0:0:
152,256,198440,1,2,0:0:0:0:
368,256,198590,1,2,0:0:0:0:
256,64,198740,1,2,0:0:0:0:
256,192,198890,5,10,0:0:0:0:
