osu file format v12

[General]
AudioFilename: Flower Dance.mp3
AudioLeadIn: 0
PreviewTime: 45480
Countdown: 0
SampleSet: Soft
StackLeniency: 0.7
Mode: 0
LetterboxInBreaks: 1
WidescreenStoryboard: 1

[Editor]
DistanceSpacing: 1
BeatDivisor: 4
GridSize: 8

[Metadata]
Title:Flower Dance
TitleUnicode:Flower Dance
Artist:DJ Okawari
ArtistUnicode:DJ Okawari
Creator:Luyuja
Version:ShaoNormal
Source:Kaleidoscope
Tags:shaoshengss
BeatmapID:289301
BeatmapSetID:108035

[Difficulty]
HPDrainRate:0
CircleSize:3
OverallDifficulty:2
ApproachRate:2
SliderMultiplier:1.7
SliderTickRate:1

[Events]
//Background and Video events
0,0,"bg.jpg",0,0
//Break Periods
2,122180,140220
//Storyboard Layer 0 (Background)
//Storyboard Layer 1 (Fail)
//Storyboard Layer 2 (Pass)
//Storyboard Layer 3 (Foreground)
//Storyboard Sound Samples
//Background Colour Transformations
3,100,163,162,255

[TimingPoints]
26580,600,4,2,1,5,1,0
38580,-100,4,2,1,60,0,0
45780,-100,4,2,1,30,0,1
64680,-100,4,2,1,20,0,0
74280,-100,4,2,1,60,0,0
84180,-100,4,2,1,35,0,0
95880,-100,4,2,1,50,0,0
103380,-100,4,2,2,70,0,1
122580,-100,4,2,1,60,0,0
141780,-100,4,2,1,30,0,0
201780,-100,4,2,1,84,0,1
230580,-100,4,2,2,45,0,0

[Colours]
Combo1 : 241,117,5
Combo2 : 252,139,235
Combo3 : 251,34,50
Combo4 : 182,47,240

[HitObjects]
48,64,26580,6,0,P|136:48|232:96,1,170,0|8,0:0|0:0,0:0:0:0:
376,56,27780,2,0,P|448:104|456:192,1,170,0|8,0:0|0:0,0:0:0:0:
288,176,28980,5,0,0:0:0:0:
160,96,29580,2,0,P|104:176|144:248,1,170,8|0,0:0|0:0,0:0:0:0:
296,192,30780,1,0,0:0:0:0:
128,152,31380,5,0,0:0:0:0:
272,56,31980,1,0,0:0:0:0:
184,200,32580,2,0,L|344:96,1,170
432,304,33780,2,0,L|400:216,1,85
328,264,34380,2,0,L|288:176,1,85
376,184,34980,2,0,L|480:224,2,85
296,216,35880,5,0,0:0:0:0:
208,224,36180,2,0,P|256:128|344:144,1,170
176,232,37380,1,2,0:0:0:0:
200,64,37980,1,4,0:0:0:0:
48,136,38580,5,0,0:0:0:0:
128,112,38880,1,0,0:0:0:0:
112,192,39180,1,0,0:0:0:0:
192,168,39480,1,0,0:0:0:0:
216,88,39780,2,0,L|304:48,1,85
320,136,40380,2,0,L|408:96,1,85
440,176,40980,6,0,L|344:224,2,85
336,40,42180,2,0,L|412:1,2,85,0|0|0,0:0|0:0|0:0,0:0:0:0:
168,40,43380,2,0,L|91:78,4,85
504,48,45780,6,0,L|400:24,2,85
456,120,46680,1,0,0:0:0:0:
424,200,46980,2,0,L|344:280,2,85
256,240,48180,2,0,P|152:208|128:136,1,170
152,80,49080,1,0,0:0:0:0:
224,40,49380,2,0,P|280:40|312:56,2,85
272,112,50280,1,0,0:0:0:0:
352,96,50580,5,0,0:0:0:0:
400,168,50880,1,0,0:0:0:0:
320,200,51180,2,0,L|264:128,1,85
192,168,51780,1,0,0:0:0:0:
240,240,52080,1,0,0:0:0:0:
160,272,52380,2,0,L|104:200,1,85
56,136,52980,6,0,L|120:72,1,85
144,160,53580,2,0,L|208:96,1,85
232,184,54180,1,8,0:0:0:0:
296,128,54480,1,2,0:0:0:0:
312,208,54780,1,4,0:0:0:0:
352,40,55380,5,0,0:0:0:0:
416,96,55680,2,0,P|456:144|448:192,1,85
424,240,56280,1,2,0:0:0:0:
344,272,56580,1,8,0:0:0:0:
272,232,56880,1,8,0:0:0:0:
216,296,57180,1,8,0:0:0:0:
64,224,57780,2,0,L|96:144,1,85
160,200,58380,2,0,L|192:120,1,85
256,176,58980,1,0,0:0:0:0:
280,96,59280,1,0,0:0:0:0:
344,160,59580,1,0,0:0:0:0:
376,80,59880,6,0,P|424:120|432:160,1,85
376,208,60480,2,0,P|272:256|200:216,1,170
280,176,61380,2,0,P|336:144|368:104,1,85
376,48,61980,2,0,P|320:40|272:56,1,85
240,112,62580,1,0,0:0:0:0:
160,80,62880,1,0,0:0:0:0:
168,168,63180,1,0,0:0:0:0:
88,128,63480,1,0,0:0:0:0:
80,216,63780,2,0,P|128:256|160:256,2,85
216,112,64980,5,0,0:0:0:0:
384,88,65580,2,0,P|376:192|320:248,1,170
216,120,66780,1,0,0:0:0:0:
88,232,67380,1,0,0:0:0:0:
392,176,69180,5,0,0:0:0:0:
232,112,69780,1,0,0:0:0:0:
64,80,70380,1,0,0:0:0:0:
232,48,70980,1,0,0:0:0:0:
296,104,71280,1,0,0:0:0:0:
312,24,71580,1,0,0:0:0:0:
376,80,71880,1,0,0:0:0:0:
440,24,72180,2,0,B|480:80|456:144|400:176|328:144|328:144|216:216|216:216|376:272,1,510
456,184,74280,5,0,0:0:0:0:
368,176,74580,1,0,0:0:0:0:
216,96,75180,2,0,P|152:128|216:184,1,170
368,160,76380,1,0,0:0:0:0:
72,144,76980,5,8,0:0:0:0:
128,80,77280,1,0,0:0:0:0:
160,160,77580,1,8,0:0:0:0:
216,96,77880,1,0,0:0:0:0:
240,176,78180,2,0,B|248:120|216:96|216:96|192:136|160:160|160:160|200:192|200:256,1,255
256,288,79380,6,0,L|336:256,1,85
352,176,79980,1,0,0:0:0:0:
424,328,80580,2,0,P|456:272|448:224,1,85
368,264,81180,1,0,0:0:0:0:
48,160,81780,5,0,0:0:0:0:
112,216,82080,1,0,0:0:0:0:
192,240,82380,1,0,0:0:0:0:
272,216,82680,1,0,0:0:0:0:
240,136,82980,2,0,P|160:160|112:96,1,170
280,80,84180,5,0,0:0:0:0:
320,248,84780,1,0,0:0:0:0:
360,80,85380,1,0,0:0:0:0:
192,80,85980,1,0,0:0:0:0:
360,80,86580,1,0,0:0:0:0:
120,80,88380,1,0,0:0:0:0:
288,64,88980,6,0,L|344:128,1,85
256,136,89580,2,0,L|312:200,1,85,0|0,0:0|0:0,0:0:0:0:
224,208,90180,2,0,L|280:272,1,85
192,280,90780,2,0,L|248:344,1,85,0|0,0:0|0:0,0:0:0:0:
312,288,91380,5,0,0:0:0:0:
368,224,91680,2,0,L|280:168,1,85
224,136,92280,1,0,0:0:0:0:
152,96,92580,1,0,0:0:0:0:
208,32,92880,2,0,L|288:72,1,85
368,48,93480,5,2,0:0:0:0:
432,104,93780,1,2,0:0:0:0:
336,248,94380,2,0,L|248:184,1,85
216,128,94980,2,0,L|368:32,1,170
456,176,96180,6,0,L|400:112,1,85
336,168,96780,1,0,0:0:0:0:
280,104,97080,1,0,0:0:0:0:
224,168,97380,2,0,P|208:64|272:24,1,170
392,128,98580,2,0,L|272:96,2,85
264,240,99780,2,0,L|368:200,2,85
104,192,100980,2,0,L|72:88,1,85
160,120,101580,2,0,L|248:88,2,85
128,136,103380,5,8,0:0:0:0:
200,88,103680,1,2,0:0:0:0:
280,64,103980,2,0,P|376:80|432:144,1,170
440,216,104880,2,0,P|440:280|408:320,1,85
280,216,105780,6,0,L|192:176,1,85
272,128,106380,2,0,L|184:88,1,85
120,56,106980,2,0,P|56:144|88:216,1,170
216,144,108180,2,0,P|296:56|456:80,1,255
432,144,109380,2,0,P|309:183|262:292,1,255
184,264,110580,2,0,P|96:240|96:144,1,170
256,176,111780,2,0,P|189:113|234:28,1,170
376,80,112980,5,0,0:0:0:0:
208,120,113580,1,0,0:0:0:0:
360,200,114180,1,0,0:0:0:0:
208,120,114780,1,0,0:0:0:0:
64,32,115380,2,0,P|24:120|72:192,1,170
216,136,116580,2,0,P|256:224|208:296,1,170
360,184,117780,5,0,0:0:0:0:
304,120,118080,2,0,P|232:64|136:104,1,170
80,96,118980,1,0,0:0:0:0:
152,48,119280,2,0,P|240:56|296:112,1,170
224,160,120180,1,0,0:0:0:0:
144,192,120480,1,0,0:0:0:0:
208,248,120780,1,0,0:0:0:0:
288,208,121080,2,0,L|200:136,1,85
296,112,121680,1,2,0:0:0:0:
368,160,121980,1,4,0:0:0:0:
80,128,141780,5,2,0:0:0:0:
232,48,142380,1,2,0:0:0:0:
344,176,142980,1,2,0:0:0:0:
192,248,143580,1,2,0:0:0:0:
344,176,144180,5,2,0:0:0:0:
192,96,144780,1,2,0:0:0:0:
80,224,145380,1,2,0:0:0:0:
232,296,145980,1,2,0:0:0:0:
360,184,146580,5,0,0:0:0:0:
216,88,147180,1,0,0:0:0:0:
208,256,147780,1,0,0:0:0:0:
360,184,148380,1,0,0:0:0:0:
216,88,148980,6,0,L|136:128,1,85
160,304,150180,2,0,L|80:344,1,85
240,264,151080,1,8,0:0:0:0:
184,200,151380,5,2,0:0:0:0:
280,64,151980,1,2,0:0:0:0:
184,200,152580,1,2,0:0:0:0:
280,64,153180,1,2,0:0:0:0:
432,136,153780,6,0,L|344:88,1,85
224,216,154980,2,0,L|136:168,1,85,0|0,0:0|0:0,0:0:0:0:
64,136,156180,5,2,0:0:0:0:
216,56,156780,1,2,0:0:0:0:
328,184,157380,1,2,0:0:0:0:
456,72,157980,1,2,0:0:0:0:
256,192,158580,12,0,160380,0:0:0:0:
56,320,160980,5,0,0:0:0:0:
184,208,161580,2,0,L|264:144,2,85
56,96,162780,2,0,L|144:56,2,85
200,184,163980,2,0,L|296:192,1,85
296,272,164580,2,0,P|416:248|424:192,1,170
344,200,165480,2,0,L|288:112,1,85
136,88,166380,2,0,L|248:96,2,85
152,256,167580,2,0,P|272:280|320:224,1,170
176,144,168780,5,0,0:0:0:0:
240,96,169080,1,0,0:0:0:0:
320,80,169380,1,0,0:0:0:0:
256,208,169980,2,0,L|432:128,1,170
248,88,171180,6,0,L|160:136,1,85
216,200,171780,1,0,0:0:0:0:
176,32,172380,2,0,L|88:80,1,85
144,144,172980,1,0,0:0:0:0:
312,112,173580,1,2,0:0:0:0:
232,128,173880,1,8,0:0:0:0:
288,192,174180,1,8,0:0:0:0:
128,144,174780,5,8,0:0:0:0:
120,56,175080,1,2,0:0:0:0:
192,96,175380,2,0,P|216:176|144:224,1,170
128,144,176280,1,8,0:0:0:0:
120,56,176580,1,2,0:0:0:0:
288,72,177180,6,0,L|352:144,1,85
272,176,177780,2,0,L|336:248,1,85
400,192,178380,2,0,P|400:288|320:328,1,170
200,240,179580,6,0,P|192:136|272:96,1,170
264,184,180480,1,0,0:0:0:0:
200,240,180780,1,0,0:0:0:0:
128,200,181080,1,0,0:0:0:0:
192,144,181380,2,0,P|272:104|344:160,1,170
264,184,182280,1,0,0:0:0:0:
192,144,182580,5,0,0:0:0:0:
112,104,182880,1,0,0:0:0:0:
176,48,183180,2,0,L|264:96,1,85
192,152,183780,2,0,L|280:200,1,85
208,256,184380,2,0,L|296:304,1,85
336,232,184980,6,0,P|424:168|408:96,1,170
336,144,185880,1,0,0:0:0:0:
256,176,186180,2,0,P|248:117|336:56,1,170
336,144,187080,1,0,0:0:0:0:
264,104,187380,5,8,0:0:0:0:
192,64,187680,1,0,0:0:0:0:
104,72,187980,1,8,0:0:0:0:
48,136,188280,1,0,0:0:0:0:
128,152,188580,1,8,0:0:0:0:
208,184,188880,1,0,0:0:0:0:
256,256,189180,1,8,0:0:0:0:
176,288,189480,1,0,0:0:0:0:
104,248,189780,6,0,L|280:176,1,170
104,112,190980,2,0,L|280:40,1,170
384,168,192180,1,0,0:0:0:0:
312,120,192480,1,8,0:0:0:0:
304,208,192780,1,2,0:0:0:0:
232,160,193080,1,0,0:0:0:0:
208,80,193380,2,0,P|144:144|184:224,1,170
320,280,194580,6,0,P|400:200|376:136,1,170
232,80,195780,2,0,L|168:144,3,85
256,192,196980,12,0,199380,0:0:0:0:
256,192,199680,12,0,201480,0:0:0:0:
40,96,201780,5,0,0:0:0:0:
120,56,202080,1,0,0:0:0:0:
120,144,202380,1,0,0:0:0:0:
192,104,202680,1,0,0:0:0:0:
256,48,202980,2,0,P|280:136|216:192,1,170
384,104,204180,2,0,L|488:56,1,85
464,152,204780,1,0,0:0:0:0:
312,232,205380,1,0,0:0:0:0:
248,176,205680,2,0,L|184:112,1,85
64,232,206580,6,0,P|184:296|288:240,1,255,0|0,0:0|0:0,0:0:0:0:
352,192,207780,2,0,L|256:160,3,85
296,80,208980,5,0,0:0:0:0:
352,16,209280,1,0,0:0:0:0:
376,96,209580,1,0,0:0:0:0:
432,32,209880,1,0,0:0:0:0:
456,112,210180,1,0,0:0:0:0:
400,176,210480,1,0,0:0:0:0:
320,160,210780,1,0,0:0:0:0:
176,64,211380,5,0,0:0:0:0:
96,96,211680,1,0,0:0:0:0:
128,176,211980,2,0,L|216:144,1,85
224,64,212580,1,0,0:0:0:0:
296,112,212880,1,0,0:0:0:0:
280,192,213180,1,0,0:0:0:0:
136,168,213780,5,0,0:0:0:0:
200,224,214080,1,0,0:0:0:0:
280,240,214380,1,0,0:0:0:0:
360,208,214680,1,0,0:0:0:0:
424,152,214980,1,0,0:0:0:0:
448,232,215280,1,0,0:0:0:0:
440,320,215580,1,0,0:0:0:0:
280,264,216180,5,0,0:0:0:0:
144,168,216780,1,0,0:0:0:0:
56,24,217380,1,0,0:0:0:0:
224,48,217980,1,0,0:0:0:0:
392,72,218580,1,0,0:0:0:0:
232,120,219180,1,0,0:0:0:0:
64,120,219780,2,0,P|80:216|168:256,1,170
432,56,220980,5,0,0:0:0:0:
352,88,221280,1,0,0:0:0:0:
272,56,221580,2,0,L|192:104,1,85
120,64,222180,2,0,L|40:112,2,85
144,144,223080,1,0,0:0:0:0:
224,120,223380,2,0,P|288:144|320:112,1,85
296,56,223980,2,0,P|360:48|392:80,1,85
368,144,224580,2,0,P|328:208|296:216,2,85
296,104,225480,5,0,0:0:0:0:
216,80,225780,1,0,0:0:0:0:
128,72,226080,2,0,P|96:152|168:232,1,170
176,144,226980,1,0,0:0:0:0:
216,216,227280,2,0,P|256:144|200:64,1,170
304,64,228180,1,0,0:0:0:0:
144,120,228780,1,0,0:0:0:0:
184,288,229380,1,0,0:0:0:0:
344,232,229980,1,0,0:0:0:0:
416,80,230580,5,0,0:0:0:0:
344,232,231180,1,0,0:0:0:0:
216,120,231780,2,0,P|136:184|128:264,1,170
104,80,232980,5,0,0:0:0:0:
176,232,233580,1,0,0:0:0:0:
304,120,234180,2,0,P|384:184|392:264,1,170
224,232,235380,2,2,P|120:160|200:64,1,255
256,88,236580,5,0,0:0:0:0:
424,128,237180,1,0,0:0:0:0:
256,88,237780,1,0,0:0:0:0:
280,256,238380,1,0,0:0:0:0:
256,88,238980,1,0,0:0:0:0:
