osu file format v12

[General]
AudioFilename: Flower Dance.mp3
AudioLeadIn: 0
PreviewTime: 45480
Countdown: 0
SampleSet: Soft
StackLeniency: 0.7
Mode: 0
LetterboxInBreaks: 0
WidescreenStoryboard: 0

[Editor]
DistanceSpacing: 1.1
BeatDivisor: 4
GridSize: 8

[Metadata]
Title:Flower Dance
TitleUnicode:Flower Dance
Artist:DJ Okawari
ArtistUnicode:DJ Okawari
Creator:Luyuja
Version:ShaoInsane
Source:Kaleidoscope
Tags:shaoshengss
BeatmapID:284411
BeatmapSetID:108035

[Difficulty]
HPDrainRate:5
CircleSize:4
OverallDifficulty:6
ApproachRate:9
SliderMultiplier:1.7
SliderTickRate:1

[Events]
//Background and Video events
0,0,"bg.jpg",0,0
//Break Periods
2,122180,141180
2,198980,201180
//Storyboard Layer 0 (Background)
//Storyboard Layer 1 (Fail)
//Storyboard Layer 2 (Pass)
//Storyboard Layer 3 (Foreground)
//Storyboard Sound Samples
//Background Colour Transformations
3,100,163,162,255

[TimingPoints]
26580,600,4,2,1,30,1,0
38580,-55.5555555555556,4,2,1,60,0,0
45780,-50,4,2,2,30,0,1
64680,-100,4,2,1,20,0,0
74280,-66.6666666666667,4,2,1,60,0,0
84180,-100,4,2,1,35,0,0
95880,-50,4,2,1,50,0,0
103380,-50,4,2,2,70,0,1
108180,-66.6666666666667,4,2,2,70,0,1
108780,-62.5,4,2,2,70,0,1
109380,-58.8235294117647,4,2,2,70,0,1
122580,-100,4,2,2,60,0,0
141780,-100,4,2,2,30,0,0
148980,-66.6666666666667,4,2,2,70,0,0
160980,-50,4,2,1,60,0,0
180180,-66.6666666666667,4,2,1,60,0,0
180630,-50,4,2,1,60,0,0
184830,-66.6666666666667,4,2,1,60,0,0
192180,-50,4,2,1,60,0,0
201780,-50,4,2,2,84,0,1
228480,-50,4,2,2,50,0,1
230580,-50,4,2,2,35,0,0

[Colours]
Combo1 : 241,117,5
Combo2 : 252,139,235
Combo3 : 251,34,50
Combo4 : 182,47,240

[HitObjects]
22,62,26580,2,0,P|94:42|135:98,1,127.5,0|8,0:0|0:0,0:0:0:0:
73,104,27330,1,8,0:0:0:0:
128,152,27480,1,0,0:0:0:0:
192,120,27630,1,8,0:0:0:0:
140,79,27780,2,0,P|180:55|236:71,1,85
192,120,28380,2,0,P|248:136|288:96,1,85
232,72,28980,6,0,P|280:40|368:64,1,127.5
304,120,29580,1,2,0:0:0:0:
456,168,30030,1,0,0:0:0:0:
424,232,30180,2,8,P|376:264|312:240,1,127.5
366,197,30780,2,0,P|316:173|267:191,1,85
392,304,31380,5,8,0:0:0:0:
232,72,31980,1,8,0:0:0:0:
64,296,32580,1,8,0:0:0:0:
68,163,32880,1,2,0:0:0:0:
96,168,32980,1,2,0:0:0:0:
132,185,33080,1,2,0:0:0:0:
155,202,33180,1,2,0:0:0:0:
64,296,33480,5,0,0:0:0:0:
128,184,33780,1,0,0:0:0:0:
232,280,34080,1,0,0:0:0:0:
280,144,34380,1,0,0:0:0:0:
392,232,34680,1,0,0:0:0:0:
424,96,34980,1,0,0:0:0:0:
392,232,35280,1,0,0:0:0:0:
280,144,35580,1,0,0:0:0:0:
64,120,35880,5,4,0:0:0:0:
16,80,36180,2,0,P|80:56|128:120,1,127.5
152,168,36930,1,0,0:0:0:0:
216,200,37080,1,8,0:0:0:0:
280,168,37230,1,0,0:0:0:0:
218,137,37380,2,0,P|256:104|328:120,1,127.5
280,168,37980,2,0,P|336:184|368:176,1,85,0|4,0:0|0:0,0:0:0:0:
408,72,38580,5,0,0:0:0:0:
272,32,38880,1,0,0:0:0:0:
408,72,39180,1,0,0:0:0:0:
272,32,39480,1,0,0:0:0:0:
336,160,39780,5,2,0:0:0:0:
280,112,39930,1,8,0:0:0:0:
224,152,40080,1,2,0:0:0:0:
240,216,40230,1,8,0:0:0:0:
312,224,40380,5,2,0:0:0:0:
352,280,40530,1,8,0:0:0:0:
416,248,40680,1,2,0:0:0:0:
408,176,40830,1,8,0:0:0:0:
336,160,40980,6,0,P|312:127|264:112,1,76.4999976654053
280,192,41280,2,2,P|248:224|200:240,1,76.4999976654053
224,160,41580,2,0,P|192:128|144:112,1,76.4999976654053
168,192,41880,2,2,P|136:224|96:240,1,76.4999976654053
224,160,42180,2,0,P|256:128|296:112,1,76.4999976654053
280,192,42480,2,2,P|312:224|352:240,1,76.4999976654053
336,160,42780,2,0,P|368:128|408:112,1,76.4999976654053
392,192,43080,2,2,P|424:224|464:240,1,76.4999976654053,2|6,0:0|0:0,0:0:0:0:
448,160,43380,6,0,P|451:114|432:72,1,76.4999976654053,0|0,0:0|0:0,0:0:0:0:
384,136,43680,2,2,P|368:93|336:56,1,76.4999976654053,0|0,0:0|0:0,0:0:0:0:
312,136,43980,2,0,P|276:108|232:96,1,76.4999976654053,0|0,0:0|0:0,0:0:0:0:
256,176,44280,2,2,P|212:162|152:168,1,76.4999976654053,0|0,0:0|0:0,0:0:0:0:
296,208,44580,6,0,P|248:232|208:232,1,76.4999976654053
256,176,44880,2,0,P|192:176|168:144,1,76.4999976654053
216,120,45180,1,0,0:0:0:0:
456,8,45480,1,4,0:0:0:0:
320,64,45780,6,0,B|272:40|208:56,1,85
296,128,46080,2,8,B|246:147|216:208,1,85
352,173,46380,2,0,B|330:222|352:288,1,85
408,128,46680,2,8,B|430:176|496:208,1,85
384,64,46980,1,0,0:0:0:0:
208,40,47280,1,0,0:0:0:0:
272,208,47580,1,4,0:0:0:0:
104,136,47880,6,0,P|96:96|120:56,1,85
160,168,48180,2,8,P|200:152|240:160,1,85
152,232,48480,2,0,P|184:272|192:320,1,85
88,240,48780,2,8,P|64:280|16:296,1,85
64,184,49080,2,0,P|24:168|0:128,1,85
116,196,49380,1,2,0:0:0:0:
116,196,49680,1,2,0:0:0:0:
116,196,49980,1,2,0:0:0:0:
272,40,50280,6,0,P|301:18|384:32,1,85
324,82,50580,2,0,P|360:76|432:128,1,85,2|0,0:0|0:0,0:0:0:0:
360,144,50880,2,0,P|393:158|424:240,1,85,2|0,0:0|0:0,0:0:0:0:
349,210,51180,2,0,P|371:238|352:328,1,85,2|0,0:0|0:0,0:0:0:0:
312,272,51480,2,0,P|316:308|256:376,1,85,2|0,0:0|0:0,0:0:0:0:
304,224,51780,5,2,0:0:0:0:
336,168,51930,1,8,0:0:0:0:
304,112,52080,1,2,0:0:0:0:
240,136,52230,1,8,0:0:0:0:
240,200,52380,5,2,0:0:0:0:
176,216,52530,1,8,0:0:0:0:
144,160,52680,1,2,0:0:0:0:
184,104,52830,1,8,0:0:0:0:
240,136,52980,5,8,0:0:0:0:
280,80,53130,1,8,0:0:0:0:
248,24,53280,1,8,0:0:0:0:
184,40,53430,1,8,0:0:0:0:
184,104,53580,5,2,0:0:0:0:
144,160,53730,1,2,0:0:0:0:
176,216,53880,1,2,0:0:0:0:
240,200,54030,1,2,0:0:0:0:
192,160,54180,1,0,0:0:0:0:
232,72,54480,1,0,0:0:0:0:
192,160,54780,2,0,P|304:128|432:168,1,255
459,109,55380,6,0,P|421:87|360:64,1,85
416,160,55680,2,0,P|377:141|320:128,1,85
377,215,55980,2,0,P|336:199|280:192,1,85
351,275,56280,2,0,P|309:262|256:256,1,85
351,275,56580,1,0,0:0:0:0:
417,165,56880,1,0,0:0:0:0:
351,275,57180,1,4,0:0:0:0:
115,58,57480,6,0,P|161:31|208:40,1,85
170,97,57780,2,0,P|225:107|256:144,1,85
193,160,58080,2,0,P|229:198|232:256,1,85
166,220,58380,2,0,P|168:275|136:320,1,85
79,158,58680,1,0,0:0:0:0:
237,50,58980,1,0,0:0:0:0:
399,151,59280,1,0,0:0:0:0:
394,342,59580,1,4,0:0:0:0:
490,176,59880,6,0,B|486:116|448:80,1,85
390,39,60180,1,0,0:0:0:0:
208,56,60480,5,8,0:0:0:0:
152,24,60630,1,0,0:0:0:0:
104,64,60780,1,8,0:0:0:0:
128,120,60930,1,0,0:0:0:0:
192,120,61080,1,8,0:0:0:0:
344,72,61380,5,0,0:0:0:0:
296,32,61530,1,0,0:0:0:0:
272,104,61680,1,8,0:0:0:0:
208,56,61830,1,0,0:0:0:0:
176,136,61980,1,0,0:0:0:0:
104,64,62130,1,8,0:0:0:0:
80,168,62280,1,0,0:0:0:0:
168,240,62430,1,0,0:0:0:0:
80,168,62580,5,8,0:0:0:0:
296,32,62880,1,4,0:0:0:0:
80,168,63180,1,0,0:0:0:0:
296,32,63480,1,4,0:0:0:0:
80,168,63780,1,0,0:0:0:0:
80,168,64080,1,4,0:0:0:0:
80,168,64380,1,4,0:0:0:0:
464,56,64980,6,0,P|392:48|320:80,1,127.5
360,112,65580,2,0,L|304:144,1,42.5
296,88,65880,2,0,L|240:80,1,42.5
258,138,66180,2,0,P|189:151|154:73,1,127.5
216,88,66780,2,0,P|176:40|104:56,1,127.5
155,113,67380,6,0,P|195:147|243:155,1,85
216,88,67830,1,0,0:0:0:0:
216,88,67980,1,0,0:0:0:0:
384,80,68430,1,0,0:0:0:0:
352,24,68580,2,0,P|416:24|448:96,1,127.5
384,80,69180,1,4,0:0:0:0:
161,52,69780,5,0,0:0:0:0:
67,182,70080,1,8,0:0:0:0:
161,52,70380,1,0,0:0:0:0:
67,182,70680,1,8,0:0:0:0:
161,52,70980,5,0,0:0:0:0:
248,60,71280,1,0,0:0:0:0:
242,88,71380,1,0,0:0:0:0:
226,112,71480,1,0,0:0:0:0:
204,131,71580,1,0,0:0:0:0:
161,52,71880,1,0,0:0:0:0:
113,125,72180,5,8,0:0:0:0:
123,228,72480,1,0,0:0:0:0:
231,176,72780,1,8,0:0:0:0:
231,319,73080,1,0,0:0:0:0:
376,240,73380,1,8,0:0:0:0:
376,240,73680,1,0,0:0:0:0:
376,240,73980,1,8,0:0:0:0:
488,32,74280,5,0,0:0:0:0:
248,64,74580,2,0,L|384:40,1,127.500004863739
128,80,75180,2,0,L|32:96,3,63.7500024318696
136,16,75780,2,0,P|192:56|136:144,1,191.250007295609
128,80,76380,2,0,P|71:134|146:208,1,191.250007295609
224,136,76980,1,0,0:0:0:0:
440,40,77280,1,0,0:0:0:0:
224,136,77580,1,0,0:0:0:0:
440,232,77880,1,0,0:0:0:0:
256,88,78180,6,0,L|160:112,3,63.7500024318696
160,48,78780,1,0,0:0:0:0:
104,80,78930,1,2,0:0:0:0:
104,144,79080,1,0,0:0:0:0:
168,160,79230,1,2,0:0:0:0:
200,104,79380,6,0,L|264:120,3,63.7500024318696
296,64,79980,1,0,0:0:0:0:
352,96,80130,1,2,0:0:0:0:
352,160,80280,1,0,0:0:0:0:
288,176,80430,1,2,0:0:0:0:
248,120,80580,6,0,L|152:144,3,63.7500024318696
152,80,81180,1,0,0:0:0:0:
96,112,81330,1,2,0:0:0:0:
96,176,81480,1,0,0:0:0:0:
160,192,81630,1,2,0:0:0:0:
192,136,81780,6,0,L|288:160,3,63.7500024318696
288,96,82380,1,0,0:0:0:0:
344,128,82530,1,2,0:0:0:0:
344,192,82680,1,0,0:0:0:0:
280,208,82830,1,2,0:0:0:0:
248,152,82980,5,0,0:0:0:0:
288,96,83130,1,2,0:0:0:0:
344,128,83280,1,0,0:0:0:0:
344,192,83430,1,2,0:0:0:0:
280,208,83580,1,4,0:0:0:0:
424,80,84180,6,0,P|368:40|304:72,1,127.5
360,104,84780,2,0,L|320:128,1,42.5
272,96,85080,1,0,0:0:0:0:
272,96,85230,1,0,0:0:0:0:
312,144,85380,2,0,P|360:168|416:128,1,127.5
360,104,85980,2,0,P|416:64|472:100,1,127.5
417,129,86580,6,0,P|393:161|337:153,1,85
361,106,87030,1,0,0:0:0:0:
361,105,87180,1,4,0:0:0:0:
192,48,87630,1,0,0:0:0:0:
136,64,87780,2,0,P|88:80|40:120,1,85
136,192,88380,2,0,P|184:208|232:240,1,85
120,192,88980,5,2,0:0:0:0:
184,144,89280,1,2,0:0:0:0:
184,240,89580,1,2,0:0:0:0:
256,104,89880,1,2,0:0:0:0:
256,280,90180,5,8,0:0:0:0:
328,64,90480,1,8,0:0:0:0:
336,312,90780,1,8,0:0:0:0:
400,24,91080,1,8,0:0:0:0:
400,24,91380,5,2,0:0:0:0:
328,64,91680,1,8,0:0:0:0:
432,104,91980,1,2,0:0:0:0:
264,120,92280,1,2,0:0:0:0:
440,184,92580,1,8,0:0:0:0:
208,176,92880,1,2,0:0:0:0:
432,264,93180,1,12,0:0:0:0:
344,296,93480,5,0,0:0:0:0:
320,208,93630,1,0,0:0:0:0:
264,120,93780,1,0,0:0:0:0:
282,177,94380,1,0,0:0:0:0:
217,155,94530,1,0,0:0:0:0:
217,87,94680,1,0,0:0:0:0:
282,66,94830,1,0,0:0:0:0:
321,121,94980,1,0,0:0:0:0:
264,120,95580,1,6,0:0:0:0:
72,120,96180,5,0,0:0:0:0:
144,64,96480,1,0,0:0:0:0:
192,168,96780,1,0,0:0:0:0:
280,72,97080,1,0,0:0:0:0:
160,224,97380,6,0,L|248:288,3,85
200,168,97980,5,0,0:0:0:0:
272,216,98130,1,2,0:0:0:0:
200,168,98280,1,0,0:0:0:0:
272,216,98430,1,2,0:0:0:0:
296,152,98580,6,0,L|384:224,3,85
337,96,99180,5,0,0:0:0:0:
407,147,99330,1,2,0:0:0:0:
337,96,99480,1,0,0:0:0:0:
407,147,99630,1,2,0:0:0:0:
471,91,99780,5,0,0:0:0:0:
377,69,99930,1,0,0:0:0:0:
411,160,100080,5,0,0:0:0:0:
328,111,100230,1,2,0:0:0:0:
323,210,100380,5,0,0:0:0:0:
265,123,100530,1,0,0:0:0:0:
226,212,100680,5,0,0:0:0:0:
200,120,100830,1,2,0:0:0:0:
132,190,100980,5,0,0:0:0:0:
146,97,101130,1,0,0:0:0:0:
57,139,101280,5,8,0:0:0:0:
92,67,101430,1,2,0:0:0:0:
78,249,101580,6,0,L|176:304,3,85
232,203,102180,6,0,L|328:256,3,85
232,203,102780,1,0,0:0:0:0:
384,88,103080,1,4,0:0:0:0:
192,96,103380,6,0,P|144:80|80:80,1,85
192,96,103680,2,0,P|176:152|184:192,1,85
192,96,103980,2,0,P|248:112|288:88,1,85
192,96,104280,2,0,P|208:56|208:0,1,85
192,96,104580,1,0,0:0:0:0:
192,96,104880,1,0,0:0:0:0:
192,96,105180,1,0,0:0:0:0:
0,112,105480,6,0,P|32:64|64:40,1,85
56,144,105780,2,0,P|88:192|120:216,1,85,0|0,0:0|0:0,0:0:0:0:
112,112,106080,2,0,P|144:64|176:40,1,85
168,144,106380,2,0,P|200:192|232:216,1,85,0|0,0:0|0:0,0:0:0:0:
216,112,106680,1,0,0:0:0:0:
392,40,106980,1,0,0:0:0:0:
216,112,107280,1,0,0:0:0:0:
392,192,107580,1,4,0:0:0:0:
264,48,107880,6,0,P|200:48|160:64,1,85
264,112,108180,6,0,L|185:130,1,63.7500024318696
264,112,108480,1,8,0:0:0:0:
203,127,108630,1,0,0:0:0:0:
296,168,108780,6,0,L|218:206,1,68
296,168,109080,1,8,0:0:0:0:
235,198,109230,1,0,0:0:0:0:
328,224,109380,6,0,L|276:304,1,72.2500013780594
328,224,109680,1,8,0:0:0:0:
289,284,109830,1,0,0:0:0:0:
376,272,109980,6,0,L|368:360,1,85
376,272,110280,1,8,0:0:0:0:
369,357,110430,1,0,0:0:0:0:
376,264,110580,5,0,0:0:0:0:
456,88,110880,1,2,0:0:0:0:
376,264,111180,1,0,0:0:0:0:
256,112,111480,1,0,0:0:0:0:
152,272,111780,1,2,0:0:0:0:
256,112,112080,1,0,0:0:0:0:
256,112,112380,1,6,0:0:0:0:
24,336,112980,6,0,P|24:280|40:240,1,85
88,301,113280,2,0,P|104:253|80:197,1,85
33,252,113580,2,0,P|33:196|49:156,1,85
97,220,113880,2,0,P|113:172|89:116,1,85
42,168,114180,1,0,0:0:0:0:
176,88,114480,1,2,0:0:0:0:
42,168,114780,1,0,0:0:0:0:
176,88,115080,6,0,P|224:64|288:72,1,85
304,0,115380,2,2,P|376:0|416:24,1,85
336,64,115680,2,0,P|408:88|432:112,1,85
328,128,115980,2,2,P|385:171|400:216,1,85
312,197,116280,2,0,P|355:259|360:296,1,85
376,200,116580,5,0,0:0:0:0:
440,216,116730,1,8,0:0:0:0:
472,160,116880,1,8,0:0:0:0:
432,112,117030,1,2,0:0:0:0:
376,136,117180,1,4,0:0:0:0:
288,40,117480,6,0,P|240:32|192:48,1,85
152,64,117780,1,0,0:0:0:0:
72,176,118080,1,8,0:0:0:0:
88,168,118230,1,0,0:0:0:0:
96,184,118380,1,8,0:0:0:0:
88,200,118530,1,0,0:0:0:0:
72,192,118680,1,2,0:0:0:0:
176,120,118980,6,0,P|216:128|240:176,1,85
176,184,119280,2,0,P|208:224|272:208,1,85
239,164,119580,2,0,P|279:180|303:220,1,85
240,227,119880,2,0,P|272:267|336:251,1,85
300,215,120180,5,0,0:0:0:0:
32,88,120480,1,0,0:0:0:0:
320,136,120780,1,0,0:0:0:0:
32,152,121080,1,0,0:0:0:0:
304,64,121380,1,0,0:0:0:0:
424,168,121680,1,0,0:0:0:0:
384,320,121980,1,4,0:0:0:0:
163,88,141780,6,0,P|128:120|128:168,1,85,0|2,0:0|0:0,0:0:0:0:
348,295,142380,2,0,P|381:269|387:228,1,85,0|8,0:0|0:0,0:0:0:0:
348,88,142980,2,0,P|384:120|384:168,1,85,0|2,0:0|0:0,0:0:0:0:
163,295,143580,2,0,P|130:269|124:228,1,85,0|4,0:0|0:0,0:0:0:0:
352,56,144180,6,0,P|416:80|424:128,1,85
160,328,144780,2,0,P|96:304|88:256,1,85
160,56,145380,2,0,P|96:80|88:128,1,85
352,328,145980,2,0,P|416:304|424:256,1,85
112,32,146580,6,0,P|80:64|64:104,1,85
400,352,147180,2,8,P|432:320|448:280,1,85
67,288,147780,2,0,P|80:320|120:360,1,85,0|0,0:0|0:0,0:0:0:0:
446,95,148380,2,8,P|432:64|392:32,1,85
432,56,148980,6,0,P|400:48|360:48,1,63.7500024318696
400,112,149280,2,0,P|368:120|336:120,1,63.7500024318696
296,64,149580,2,0,P|263:63|224:72,1,63.7500024318696
277,125,149880,2,0,P|247:139|216:144,1,63.7500024318696
168,96,150180,5,0,0:0:0:0:
208,152,150330,1,0,0:0:0:0:
144,184,150480,1,0,0:0:0:0:
208,152,150630,1,0,0:0:0:0:
208,152,150780,1,0,0:0:0:0:
288,32,151080,5,4,0:0:0:0:
432,48,151380,2,0,B|464:80|480:128,1,63.7500024318696,0|8,0:0|0:0,0:0:0:0:
400,112,151680,2,0,B|426:148|432:200,1,63.7500024318696
352,168,151980,2,0,B|376:208|368:248,1,63.7500024318696,0|8,0:0|0:0,0:0:0:0:
296,208,152280,2,0,P|304:256|296:288,1,63.7500024318696
232,248,152580,5,0,0:0:0:0:
160,248,152730,1,0,0:0:0:0:
96,224,152880,1,0,0:0:0:0:
56,168,153030,1,2,0:0:0:0:
24,104,153180,2,0,P|32:56|56:40,1,63.7500024318696
96,96,153480,2,2,P|102:102|112:160,1,63.7500024318696
176,176,153780,5,0,0:0:0:0:
272,72,154080,2,0,L|216:128,1,63.7500024318696
176,176,154380,1,0,0:0:0:0:
368,216,154680,2,0,L|288:200,1,63.7500024318696,0|2,0:0|0:0,0:0:0:0:
176,176,154980,1,0,0:0:0:0:
328,360,155280,2,0,L|272:296,1,63.7500024318696,0|2,0:0|0:0,0:0:0:0:
224,240,155580,1,2,0:0:0:0:
176,176,155730,1,0,0:0:0:0:
176,176,155880,1,4,0:0:0:0:
384,56,156180,5,4,0:0:0:0:
384,56,156780,1,0,0:0:0:0:
128,328,157380,1,0,0:0:0:0:
128,328,157980,1,0,0:0:0:0:
256,128,158280,1,0,0:0:0:0:
312,176,158430,1,8,0:0:0:0:
256,192,158580,12,0,160830,0:0:0:0:
256,136,160980,6,0,P|304:168|304:224,3,85,0|0|8|8,0:0|0:0|0:0|0:0,0:0:0:0:
310,191,161580,2,0,P|286:231|230:247,3,85,0|0|0|8,0:0|0:0|0:0|0:0,0:0:0:0:
253,246,162180,2,0,P|205:214|205:158,3,85,0|0|0|8,0:0|0:0|0:0|0:0,0:0:0:0:
198,190,162780,2,0,P|222:150|278:134,3,85,0|0|8|0,0:0|0:0|0:0|0:0,0:0:0:0:
163,129,163380,6,2,P|188:92|232:80,1,85
288,80,163680,6,0,P|336:80|368:112,1,85
384,160,163980,6,2,P|395:196|384:240,1,85
352,289,164280,6,0,P|328:320|272:328,1,85
228,325,164580,6,2,P|184:320|160:288,1,85
117,249,164881,6,0,P|112:208|136:160,1,85
176,112,165180,1,2,0:0:0:0:
336,88,165480,1,4,0:0:0:0:
80,72,165780,5,0,0:0:0:0:
80,72,166380,1,10,0:0:0:0:
432,312,166980,1,0,0:0:0:0:
432,312,167580,1,10,0:0:0:0:
336,184,167880,6,0,P|344:144|320:96,1,85
280,216,168180,2,0,B|220:201|176:240,1,85
304,280,168480,2,0,P|272:312|280:352,1,85
368,280,168780,2,2,B|403:308|456:312,1,85
392,216,169080,2,2,B|451:201|464:144,1,85,2|10,0:0|0:0,0:0:0:0:
336,224,169380,1,8,0:0:0:0:
136,96,169680,2,0,P|168:32|256:56,1,170
200,88,170280,5,8,0:0:0:0:
432,40,170580,2,8,P|480:72|496:128,1,85
424,112,170880,2,0,P|456:160|442:219,1,85
384,168,171180,2,8,P|368:224|323:258,1,85
313,185,171480,2,0,P|280:232|218:239,1,85
240,208,171780,5,8,0:0:0:0:
192,176,171930,1,8,0:0:0:0:
288,208,172080,1,8,0:0:0:0:
168,128,172230,1,8,0:0:0:0:
328,64,172380,5,0,0:0:0:0:
280,40,172530,1,8,0:0:0:0:
344,120,172680,1,8,0:0:0:0:
224,40,172830,1,8,0:0:0:0:
192,176,172980,5,0,0:0:0:0:
328,64,173280,1,0,0:0:0:0:
168,128,173580,1,0,0:0:0:0:
344,120,173880,1,2,0:0:0:0:
176,72,174180,1,0,0:0:0:0:
336,184,174480,1,2,0:0:0:0:
224,40,174780,1,0,0:0:0:0:
288,208,175080,1,4,0:0:0:0:
330,88,175380,6,0,B|362:104|362:104|394:104|394:104|416:112,1,85,0|0,0:0|0:0,2:0:0:0:
386,168,175680,6,0,B|397:201|397:201|419:224|419:224|424:248,1,85,0|0,0:0|0:0,2:0:0:0:
362,256,175980,6,0,B|346:288|346:288|346:320|346:320|336:336,1,85,0|0,0:0|0:0,2:0:0:0:
282,304,176280,6,0,B|248:315|248:315|225:337|225:337|200:344,1,85,0|0,0:0|0:0,2:0:0:0:
186,287,176580,6,0,B|153:271|153:271|121:271|121:271|104:264,1,85,0|0,0:0|0:0,2:0:0:0:
136,208,176880,6,0,B|124:174|124:174|102:151|102:151|96:128,1,85,0|0,0:0|0:0,2:0:0:0:
152,112,177180,6,0,B|168:79|168:79|168:47|168:47|176:32,1,85,0|0,0:0|0:0,2:0:0:0:
232,64,177480,6,0,B|265:52|265:52|288:30|288:30|304:24,1,85,0|0,0:0|0:0,2:0:0:0:
256,192,177780,6,0,P|240:144|256:96,1,85
256,192,178080,6,0,P|280:144|320:120,1,85
256,192,178380,6,0,P|304:176|352:191,1,85
256,192,178680,6,0,P|304:216|323:259,1,85
256,192,178980,6,0,P|272:240|256:288,1,85
256,192,179280,6,0,P|232:232|188:259,1,85
256,192,179580,6,0,P|208:208|160:192,1,85
184,146,180180,6,0,L|168:78,3,63.7500024318696
240,96,180780,6,0,B|272:72|272:72|272:64|272:64|320:40,3,85
328,112,181380,6,0,P|368:96|432:104,4,85
184,104,182280,6,0,P|136:56|80:72,1,85
120,120,182580,2,0,B|136:184|224:168,1,85
184,104,182880,2,0,B|232:102|246:159,1,85
247,218,183180,2,0,P|228:214|180:168,1,85
312,200,183480,2,0,P|248:154|205:160,1,85
247,217,183780,2,0,B|263:281|351:265,1,85
312,200,184080,2,0,B|360:192|377:251,1,85
377,309,184380,2,8,P|358:307|310:259,2,85
48,80,184980,6,0,P|64:160|104:192,2,127.500004863739,0|0|8,0:0|0:0|0:0,0:0:0:0:
136,112,185880,1,2,0:0:0:0:
232,136,186180,2,0,P|226:73|183:27,2,127.500004863739,8|0|8,0:0|0:0|0:0,0:0:0:0:
136,112,187080,6,2,L|200:72,1,63.7500024318696
184,160,187380,2,0,L|256:136,1,63.7500024318696
224,216,187680,2,0,L|312:200,1,63.7500024318696
287,204,187980,1,0,0:0:0:0:
152,120,188280,1,2,0:0:0:0:
304,64,188580,1,0,0:0:0:0:
368,88,188730,1,0,0:0:0:0:
416,136,188880,1,0,0:0:0:0:
440,200,189030,1,0,0:0:0:0:
440,200,189180,1,0,0:0:0:0:
304,64,189480,1,4,0:0:0:0:
312,128,189780,6,0,P|288:144|265:175,3,63.7500024318696
312,128,190380,6,0,P|288:96|240:72,3,63.7500024318696
312,128,190980,6,0,P|336:112|358:80,3,63.7500024318696
312,128,191580,6,0,P|336:160|384:184,3,63.7500024318696
400,104,192180,6,2,P|392:40|328:8,1,85
336,80,192480,2,2,P|272:64|224:88,1,85
296,128,192780,2,0,P|256:192|272:256,1,85
328,184,193080,2,0,P|352:232|432:232,1,85
384,160,193380,2,2,P|448:176|496:144,1,85
496,88,193680,1,2,0:0:0:0:
432,32,193830,1,2,0:0:0:0:
360,80,193980,1,0,0:0:0:0:
384,160,194130,1,0,0:0:0:0:
472,168,194280,1,0,0:0:0:0:
360,80,194580,6,0,P|320:56|256:56,3,85
296,120,195180,6,2,P|248:128|200:168,3,85
280,192,195780,6,0,P|251:229|245:292,3,85
312,256,196380,1,8,0:0:0:0:
256,240,196530,1,0,0:0:0:0:
192,248,196680,1,2,0:0:0:0:
128,192,196980,5,0,0:0:0:0:
192,128,197130,1,0,0:0:0:0:
264,96,197280,1,0,0:0:0:0:
336,96,197430,1,0,0:0:0:0:
392,120,197580,1,8,0:0:0:0:
432,160,197730,1,0,0:0:0:0:
448,208,197880,1,8,0:0:0:0:
432,240,198030,1,0,0:0:0:0:
416,256,198180,1,8,0:0:0:0:
400,264,198330,1,8,0:0:0:0:
392,264,198480,1,8,0:0:0:0:
328,280,198630,2,2,P|288:272|256:240,1,85,2|6,0:0|0:0,0:0:0:0:
40,48,201780,6,0,P|88:32|144:40,1,85
88,96,202080,2,0,P|136:104|168:136,1,85
104,160,202380,2,0,P|152:200|152:256,1,85
96,224,202680,2,0,P|128:280|176:288,1,85
160,224,202980,5,0,0:0:0:0:
184,158,203130,1,0,0:0:0:0:
184,158,203280,1,0,0:0:0:0:
232,104,203430,1,0,0:0:0:0:
296,64,203580,1,0,0:0:0:0:
472,48,203880,6,0,P|424:32|368:40,1,85
424,96,204180,2,0,P|376:104|344:136,1,85
408,160,204480,2,0,P|368:208|368:264,1,85
432,232,204780,2,0,P|400:288|352:296,1,85
360,232,205080,5,0,0:0:0:0:
224,184,205230,1,0,0:0:0:0:
336,96,205380,1,0,0:0:0:0:
224,184,205530,1,0,0:0:0:0:
224,184,205680,1,0,0:0:0:0:
176,48,205830,1,0,0:0:0:0:
224,184,205980,1,4,0:0:0:0:
112,96,206280,6,0,P|64:120|56:184,1,85
112,160,206580,1,0,0:0:0:0:
176,120,206730,1,0,0:0:0:0:
248,120,206880,1,0,0:0:0:0:
296,168,207030,1,0,0:0:0:0:
224,184,207180,5,0,0:0:0:0:
264,240,207330,1,0,0:0:0:0:
336,232,207480,1,0,0:0:0:0:
368,168,207630,1,0,0:0:0:0:
296,168,207780,5,0,0:0:0:0:
248,120,207930,1,0,0:0:0:0:
248,120,208080,1,0,0:0:0:0:
280,56,208230,1,0,0:0:0:0:
352,72,208380,1,0,0:0:0:0:
360,144,208530,2,4,P|336:176|280:160,1,85
168,96,208980,6,0,L|80:48,1,85
184,160,209280,2,0,L|128:264,1,85
248,144,209580,2,0,L|336:192,1,85
232,80,209880,2,0,L|288:-24,1,85
208,120,210180,1,0,0:0:0:0:
208,120,210480,1,8,0:0:0:0:
208,120,210630,1,8,0:0:0:0:
208,120,210780,2,0,P|224:200|304:256,1,170
488,32,211380,6,0,P|416:16|376:32,1,85
440,80,211680,2,0,P|392:88|344:112,1,85
408,152,211980,2,0,P|346:192|336:232,1,85
408,224,212280,2,0,P|381:260|365:311,1,85
344,240,212580,1,0,0:0:0:0:
272,216,212730,1,0,0:0:0:0:
272,216,212880,1,0,0:0:0:0:
216,168,213030,1,0,0:0:0:0:
176,112,213180,1,0,0:0:0:0:
304,48,213480,6,0,P|320:104|304:144,1,85
168,128,213780,2,0,P|159:99|175:43,1,85
314,128,214080,2,0,P|330:184|314:224,1,85
160,207,214380,2,0,P|151:178|168:127,1,85
304,48,214680,2,0,P|320:104|304:144,1,85
240,88,214980,1,0,0:0:0:0:
240,176,215130,1,0,0:0:0:0:
240,176,215280,1,0,0:0:0:0:
328,208,215430,1,0,0:0:0:0:
392,144,215580,1,2,0:0:0:0:
248,8,215880,6,0,P|184:8|144:24,1,85
112,72,216180,1,2,0:0:0:0:
117,140,216330,1,0,0:0:0:0:
163,195,216480,1,2,0:0:0:0:
235,219,216630,1,0,0:0:0:0:
392,304,216780,5,2,0:0:0:0:
387,236,216930,1,2,0:0:0:0:
341,181,217080,1,2,0:0:0:0:
269,157,217230,1,4,0:0:0:0:
400,72,217380,5,0,0:0:0:0:
395,140,217530,1,2,0:0:0:0:
349,195,217680,1,0,0:0:0:0:
277,219,217830,1,2,0:0:0:0:
120,304,217980,5,2,0:0:0:0:
125,236,218130,1,2,0:0:0:0:
171,181,218280,1,2,0:0:0:0:
243,157,218430,1,4,0:0:0:0:
256,192,218580,5,4,0:0:0:0:
488,24,218880,1,4,0:0:0:0:
256,192,219180,1,0,0:0:0:0:
24,368,219480,1,0,0:0:0:0:
256,192,219780,1,4,0:0:0:0:
16,24,220080,1,0,0:0:0:0:
256,192,220380,1,4,0:0:0:0:
256,128,220980,6,0,P|288:88|344:80,1,85,0|2,0:0|0:0,0:0:0:0:
320,176,221280,2,0,P|368:200|384:248,1,85
288,248,221580,2,0,P|280:304|224:320,1,85,0|2,0:0|0:0,0:0:0:0:
208,240,221880,2,0,P|160:256|104:232,1,85
184,168,222180,2,0,P|144:128|144:80,1,85,0|2,0:0|0:0,0:0:0:0:
256,128,222480,2,0,P|288:88|344:80,1,85
320,176,222780,2,0,P|368:200|384:248,1,85,0|2,0:0|0:0,0:0:0:0:
352,88,223080,6,0,P|384:112|344:144,1,85
216,144,223380,2,0,P|200:184|240:200,1,85
376,168,223680,2,0,P|416:200|408:248,1,85
272,216,223980,2,0,P|280:272|320:288,1,85
304,144,224280,2,2,L|360:256,1,85
240,120,224580,1,0,0:0:0:0:
320,80,224880,1,0,0:0:0:0:
304,144,225180,1,4,0:0:0:0:
112,80,225480,6,0,P|144:40|200:48,1,85
168,96,225780,1,4,0:0:0:0:
368,48,226080,5,2,0:0:0:0:
408,96,226230,1,0,0:0:0:0:
384,152,226380,1,2,0:0:0:0:
320,144,226530,1,2,0:0:0:0:
312,80,226680,1,2,0:0:0:0:
104,136,226980,5,0,0:0:0:0:
272,176,227280,5,2,0:0:0:0:
312,224,227430,1,0,0:0:0:0:
288,280,227580,1,2,0:0:0:0:
224,272,227730,1,2,0:0:0:0:
216,208,227880,1,2,0:0:0:0:
400,96,228180,5,0,0:0:0:0:
192,40,228480,5,0,0:0:0:0:
232,88,228630,1,2,0:0:0:0:
208,144,228780,1,2,0:0:0:0:
144,136,228930,1,2,0:0:0:0:
136,72,229080,1,0,0:0:0:0:
192,40,229230,5,0,0:0:0:0:
272,48,229380,1,2,0:0:0:0:
328,104,229530,1,2,0:0:0:0:
344,184,229680,1,4,0:0:0:0:
296,248,229830,1,4,0:0:0:0:
272,160,229980,5,2,0:0:0:0:
216,232,230130,1,2,0:0:0:0:
248,320,230280,1,2,0:0:0:0:
336,320,230430,1,2,0:0:0:0:
454,252,230580,5,8,0:0:0:0:
192,328,230880,1,0,0:0:0:0:
336,97,231180,1,8,0:0:0:0:
71,35,231480,1,0,0:0:0:0:
231,254,231780,1,0,0:0:0:0:
315,261,232080,1,0,0:0:0:0:
368,195,232380,1,0,0:0:0:0:
225,46,232680,6,0,L|262:143,1,85
284,195,232980,1,0,0:0:0:0:
224,46,233280,1,0,0:0:0:0:
334,313,233580,1,0,0:0:0:0:
224,46,233880,1,0,0:0:0:0:
197,240,234180,1,0,0:0:0:0:
298,231,234480,1,0,0:0:0:0:
366,155,234780,1,0,0:0:0:0:
224,46,235080,5,0,0:0:0:0:
224,46,235230,1,0,0:0:0:0:
241,93,235380,1,0,0:0:0:0:
197,240,235680,1,0,0:0:0:0:
366,155,235980,1,0,0:0:0:0:
197,240,236280,1,4,0:0:0:0:
256,63,236580,5,0,0:0:0:0:
384,191,236880,1,8,0:0:0:0:
256,320,237180,1,0,0:0:0:0:
127,192,237480,1,4,0:0:0:0:
384,191,237780,1,0,0:0:0:0:
384,191,238080,1,0,0:0:0:0:
384,191,238380,1,0,0:0:0:0:
127,192,238830,5,0,0:0:0:0:
127,192,238980,1,4,0:0:0:0:
