osu file format v12

[General]
AudioFilename: Flower Dance.mp3
AudioLeadIn: 0
PreviewTime: 45480
Countdown: 0
SampleSet: None
StackLeniency: 0.7
Mode: 0
LetterboxInBreaks: 0
WidescreenStoryboard: 1

[Editor]
DistanceSpacing: 1.1
BeatDivisor: 4
GridSize: 8

[Metadata]
Title:Flower Dance
TitleUnicode:Flower Dance
Artist:DJ Okawari
ArtistUnicode:DJ Okawari
Creator:Luyuja
Version:ShaoHard
Source:Kaleidoscope
Tags:shaoshengss
BeatmapID:366533
BeatmapSetID:108035

[Difficulty]
HPDrainRate:5
CircleSize:4
OverallDifficulty:4
ApproachRate:7
SliderMultiplier:1.7
SliderTickRate:1

[Events]
//Background and Video events
0,0,"bg.jpg",0,0
//Break Periods
2,122179,140880
2,198979,200880
//Storyboard Layer 0 (Background)
//Storyboard Layer 1 (Fail)
//Storyboard Layer 2 (Pass)
//Storyboard Layer 3 (Foreground)
//Storyboard Sound Samples
//Background Colour Transformations
3,100,163,162,255

[TimingPoints]
26580,600,4,2,1,30,1,0
45780,-100,4,2,2,50,0,1
64680,-100,4,2,1,20,0,0
74280,-100,4,2,1,60,0,0
84180,-100,4,2,1,35,0,0
95880,-100,4,2,1,50,0,0
103380,-100,4,2,2,70,0,1
122580,-100,4,2,2,60,0,0
141780,-100,4,2,1,30,0,0
148980,-100,4,2,1,70,0,0
160980,-100,4,2,1,60,0,0
201780,-100,4,2,2,84,0,1
220680,-100,4,2,1,84,0,1
230580,-100,4,2,2,45,0,0

[Colours]
Combo1 : 241,117,5
Combo2 : 252,139,235
Combo3 : 251,34,50
Combo4 : 182,47,240

[HitObjects]
32,32,26580,1,2,0:0:0:0:
80,112,26880,2,0,P|152:184|240:168,1,170
176,96,27780,2,2,P|232:48|264:48,1,85
256,136,28380,2,2,P|280:192|272:232,1,85
296,304,28980,1,0,0:0:0:0:
376,256,29280,1,8,0:0:0:0:
368,160,29580,1,0,0:0:0:0:
280,120,29880,1,8,0:0:0:0:
280,216,30180,2,0,P|208:224|168:200,1,85
280,216,30780,1,4,0:0:0:0:
128,112,31380,5,0,0:0:0:0:
304,56,31980,1,8,0:0:0:0:
176,192,32580,1,0,0:0:0:0:
128,112,32880,2,0,L|104:72,3,28.3333333333333
176,192,33480,1,4,0:0:0:0:
240,128,33780,2,0,P|192:96|144:104,1,85
80,120,34380,1,0,0:0:0:0:
72,216,34680,1,0,0:0:0:0:
160,176,34980,1,0,0:0:0:0:
152,272,35280,2,0,P|176:232|152:168,1,85
80,176,35880,5,8,0:0:0:0:
144,112,36180,2,0,P|248:96|304:144,1,170
320,176,36930,1,0,0:0:0:0:
360,160,37080,1,8,0:0:0:0:
368,112,37230,1,0,0:0:0:0:
360,64,37380,2,0,P|328:32|272:48,1,85
200,64,37980,1,0,0:0:0:0:
80,208,38580,5,8,0:0:0:0:
152,272,38880,1,0,0:0:0:0:
240,248,39180,2,0,L|328:200,1,85
240,152,39780,1,8,0:0:0:0:
152,128,40080,2,0,P|176:232|248:272,1,170
304,320,40980,5,8,0:0:0:0:
368,248,41280,1,0,0:0:0:0:
296,192,41580,2,0,L|224:136,1,85
152,88,42180,1,8,0:0:0:0:
96,160,42480,1,0,0:0:0:0:
176,216,42780,2,0,L|256:280,1,85
256,192,43380,12,0,45480,0:0:0:0:
464,96,45780,5,0,0:0:0:0:
384,48,46080,1,0,0:0:0:0:
360,136,46380,2,0,L|264:192,1,85
200,152,46980,1,0,0:0:0:0:
176,240,47280,1,2,0:0:0:0:
264,280,47580,1,0,0:0:0:0:
360,288,47880,6,0,L|424:264,1,42.5
440,256,48180,1,4,0:0:0:0:
368,192,48480,1,0,0:0:0:0:
416,112,48780,1,0,0:0:0:0:
360,32,49080,1,0,0:0:0:0:
320,120,49380,2,0,L|216:136,1,85
144,144,49980,1,4,0:0:0:0:
192,64,50280,6,0,L|256:56,1,42.5
280,48,50580,2,0,L|352:112,1,85,0|2,0:0|0:0,0:0:0:0:
288,176,51180,2,0,L|360:240,1,85,0|2,0:0|0:0,0:0:0:0:
272,280,51780,2,0,L|192:344,1,85,0|2,0:0|0:0,0:0:0:0:
176,248,52380,2,0,L|96:304,1,85,0|2,0:0|0:0,0:0:0:0:
112,200,52980,6,0,L|192:160,3,85,0|0|0|2,0:0|0:0|0:0|0:0,0:0:0:0:
112,104,54180,1,0,0:0:0:0:
192,56,54480,1,0,0:0:0:0:
288,64,54780,1,4,0:0:0:0:
152,200,55380,6,0,L|224:144,1,85
256,232,55980,2,0,L|328:176,1,85,0|0,0:0|0:0,0:0:0:0:
360,264,56580,1,2,0:0:0:0:
272,240,56880,1,0,0:0:0:0:
184,216,57180,1,2,0:0:0:0:
256,160,57480,6,0,L|296:136,2,42.5,0|0|2,0:0|0:0|0:0,0:0:0:0:
168,136,58080,1,0,0:0:0:0:
240,80,58380,2,0,L|336:24,1,85,0|2,0:0|0:0,0:0:0:0:
400,72,58980,1,0,0:0:0:0:
448,152,59280,1,0,0:0:0:0:
400,232,59580,1,4,0:0:0:0:
352,152,59880,6,0,L|296:152,2,42.5
448,152,60480,2,0,L|496:152,2,42.5
400,152,60930,1,2,0:0:0:0:
352,152,61080,1,2,0:0:0:0:
256,152,61380,2,0,L|208:152,1,42.5
168,152,61680,1,0,0:0:0:0:
120,152,61830,1,0,0:0:0:0:
72,152,61980,2,0,L|24:152,3,42.5
32,104,62580,5,0,0:0:0:0:
32,200,62880,1,2,0:0:0:0:
72,96,63180,1,0,0:0:0:0:
72,208,63480,1,4,0:0:0:0:
144,152,63780,2,0,L|240:152,1,85
320,152,64380,1,4,0:0:0:0:
424,304,64980,6,0,L|368:232,1,85
288,280,65580,2,0,L|224:312,2,42.5,0|0|8,0:0|0:0|0:0,0:0:0:0:
368,232,66180,2,0,L|448:184,1,85,0|8,0:0|0:0,0:0:0:0:
360,136,66780,1,0,0:0:0:0:
176,88,67380,5,8,0:0:0:0:
232,216,67830,1,2,0:0:0:0:
264,248,67980,2,0,L|336:312,1,85
368,328,68430,1,2,0:0:0:0:
408,304,68580,2,0,L|480:248,1,85
416,176,69180,1,4,0:0:0:0:
288,40,69780,6,0,L|200:72,1,85
120,96,70380,1,4,0:0:0:0:
296,152,70980,1,8,0:0:0:0:
224,216,71280,2,8,L|192:248,3,28.3333333333333
288,272,71880,1,0,0:0:0:0:
368,224,72180,2,0,P|376:88|208:88,1,340
72,328,74280,5,8,0:0:0:0:
168,344,74580,2,0,P|120:240|64:232,1,170
72,184,75330,1,0,0:0:0:0:
112,160,75480,1,8,0:0:0:0:
160,160,75630,1,0,0:0:0:0:
200,176,75780,2,0,P|256:216|272:248,1,85
304,312,76380,1,4,0:0:0:0:
400,152,76980,5,0,0:0:0:0:
328,88,77280,1,8,0:0:0:0:
240,64,77580,1,0,0:0:0:0:
144,72,77880,1,8,0:0:0:0:
208,136,78180,1,0,0:0:0:0:
240,224,78480,1,0,0:0:0:0:
152,200,78780,2,8,P|80:176|40:184,1,85
56,272,79380,5,0,0:0:0:0:
136,320,79680,1,0,0:0:0:0:
224,304,79980,2,8,P|280:264|288:232,1,85
200,216,80580,1,0,0:0:0:0:
264,152,80880,1,0,0:0:0:0:
352,184,81180,1,4,0:0:0:0:
312,368,81780,6,8,L|288:280,1,85
264,192,82380,1,0,0:0:0:0:
240,104,82680,1,0,0:0:0:0:
144,88,82980,2,0,P|192:16|296:32,1,170,0|4,0:0|0:0,0:0:0:0:
184,184,84180,6,0,P|240:216|288:200,1,85
248,120,84780,1,0,0:0:0:0:
216,152,84930,1,8,0:0:0:0:
184,184,85080,2,0,L|144:224,1,42.5
120,240,85380,2,0,L|192:304,1,85,0|8,0:0|0:0,0:0:0:0:
248,232,85980,2,0,L|312:176,1,85,0|4,0:0|0:0,0:0:0:0:
392,128,86580,5,0,0:0:0:0:
304,88,86880,1,0,0:0:0:0:
320,184,87180,1,0,0:0:0:0:
224,192,87480,1,0,0:0:0:0:
288,264,87780,2,0,L|208:304,1,85,0|8,0:0|0:0,0:0:0:0:
168,216,88380,2,0,L|88:176,1,85,0|8,0:0|0:0,0:0:0:0:
104,88,88980,5,0,0:0:0:0:
288,72,89580,1,2,0:0:0:0:
128,176,90180,1,0,0:0:0:0:
200,240,90480,2,8,L|224:264,3,28.3333333333333
296,320,91080,1,0,0:0:0:0:
256,192,91380,12,0,93180,0:0:0:0:
432,72,93480,5,0,0:0:0:0:
344,96,93780,2,0,L|248:128,1,85
176,144,94380,2,8,L|136:192,1,42.5
184,208,94680,2,8,L|176:256,1,42.5
224,240,94980,2,0,L|288:304,1,85
272,208,95580,1,4,0:0:0:0:
120,96,96180,5,0,0:0:0:0:
208,64,96480,1,0,0:0:0:0:
304,80,96780,1,2,0:0:0:0:
376,136,97080,1,8,0:0:0:0:
288,168,97380,1,0,0:0:0:0:
208,216,97680,2,2,P|136:264|96:336,1,170
64,248,98580,5,0,0:0:0:0:
152,216,98880,1,0,0:0:0:0:
176,128,99180,1,8,0:0:0:0:
320,240,99780,5,0,0:0:0:0:
336,152,100080,1,0,0:0:0:0:
280,80,100380,1,8,0:0:0:0:
96,128,100980,6,0,P|112:184|160:216,1,85
216,232,101580,1,0,0:0:0:0:
304,200,101880,1,8,0:0:0:0:
376,136,102180,2,4,P|440:56|392:32,1,170
232,64,103380,6,0,L|296:136,1,85,0|2,0:0|0:0,0:0:0:0:
216,184,103980,2,2,L|280:256,1,85
176,256,104580,1,0,0:0:0:0:
264,272,104880,1,0,0:0:0:0:
328,336,105180,1,4,0:0:0:0:
392,272,105480,6,4,L|432:224,1,42.5
448,200,105780,2,0,L|368:144,1,85
432,72,106380,2,0,L|352:16,1,85
272,56,106980,1,0,0:0:0:0:
184,72,107280,1,0,0:0:0:0:
104,128,107580,1,4,0:0:0:0:
56,208,107880,6,2,L|96:152,2,42.5
136,264,108480,1,0,0:0:0:0:
224,288,108780,1,0,0:0:0:0:
312,264,109080,1,0,0:0:0:0:
368,192,109380,2,0,L|264:152,1,85,0|8,0:0|0:0,0:0:0:0:
360,104,109980,2,0,L|448:136,1,85,0|8,0:0|0:0,0:0:0:0:
472,48,110580,6,0,L|384:24,1,85
304,72,111180,1,4,0:0:0:0:
248,248,111780,2,0,L|344:208,1,85
416,248,112380,1,4,0:0:0:0:
360,72,112980,6,0,L|256:104,1,85
352,152,113580,2,0,L|448:120,1,85
400,216,114180,1,0,0:0:0:0:
304,216,114480,1,0,0:0:0:0:
240,144,114780,1,4,0:0:0:0:
184,72,115080,6,0,L|136:40,1,42.5
112,24,115380,2,0,L|40:88,1,85
128,136,115980,2,0,L|144:232,1,85,0|2,0:0|0:0,0:0:0:0:
208,152,116580,1,0,0:0:0:0:
288,112,116880,1,0,0:0:0:0:
384,120,117180,1,0,0:0:0:0:
456,176,117480,6,0,L|424:216,1,42.5
400,248,117780,1,0,0:0:0:0:
320,200,118080,2,0,L|280:176,1,42.5
240,152,118380,2,0,L|160:104,1,85
88,56,118980,1,0,0:0:0:0:
112,144,119280,2,0,L|128:192,1,42.5
136,232,119580,1,0,0:0:0:0:
224,272,119880,1,0,0:0:0:0:
216,176,120180,5,4,0:0:0:0:
304,144,120480,1,0,0:0:0:0:
392,184,120780,1,0,0:0:0:0:
296,288,121230,1,0,0:0:0:0:
296,240,121380,2,0,P|192:272|120:224,1,170,0|4,0:0|0:0,0:0:0:0:
48,40,141780,5,8,0:0:0:0:
232,48,142380,1,0,0:0:0:0:
408,120,142980,1,0,0:0:0:0:
488,288,143580,1,4,0:0:0:0:
488,104,144180,5,0,0:0:0:0:
400,272,144780,1,2,0:0:0:0:
224,328,145380,1,2,0:0:0:0:
56,256,145980,1,0,0:0:0:0:
128,200,146280,1,8,0:0:0:0:
88,112,146580,5,8,0:0:0:0:
272,88,147180,1,0,0:0:0:0:
440,168,147780,1,8,0:0:0:0:
496,344,148380,1,4,0:0:0:0:
312,352,148980,5,0,0:0:0:0:
144,272,149580,1,0,0:0:0:0:
80,96,150180,1,0,0:0:0:0:
352,160,151080,1,4,0:0:0:0:
288,96,151380,6,0,L|200:136,1,85,0|0,0:0|0:0,0:0:0:0:
248,216,151980,2,0,L|160:256,1,85,0|8,0:0|0:0,0:0:0:0:
96,200,152580,1,0,0:0:0:0:
216,56,153180,1,0,0:0:0:0:
160,128,153480,6,8,L|208:176,1,42.5
224,184,153780,1,8,0:0:0:0:
312,144,154080,1,0,0:0:0:0:
400,176,154380,1,2,0:0:0:0:
432,264,154680,1,8,0:0:0:0:
480,184,154980,2,0,P|480:120|448:88,1,85,2|8,0:0|0:0,0:0:0:0:
376,80,155580,2,0,P|328:56|272:64,1,85,2|8,0:0|0:0,0:0:0:0:
272,144,156180,5,0,0:0:0:0:
312,232,156480,2,2,L|360:208,2,42.5
216,240,157080,2,8,L|176:208,2,42.5
280,168,157680,2,2,L|296:112,2,42.5
184,152,158280,2,0,L|144:128,1,42.5,0|0,0:0|0:0,0:0:0:0:
256,192,158580,12,0,160680,0:0:0:0:
32,48,160980,6,0,L|112:96,1,85
200,88,161580,1,0,0:0:0:0:
296,80,161880,1,4,0:0:0:0:
280,168,162180,2,0,L|360:216,1,85
408,288,162780,5,0,0:0:0:0:
320,320,163080,1,4,0:0:0:0:
272,240,163380,2,0,L|199:196,1,85
240,112,163980,1,0,0:0:0:0:
320,160,164280,1,4,0:0:0:0:
320,64,164580,2,0,L|256:168,1,85
224,56,165180,5,0,0:0:0:0:
128,64,165480,1,0,0:0:0:0:
184,144,165780,2,2,L|192:232,1,85
280,256,166380,1,0,0:0:0:0:
376,248,166680,1,0,0:0:0:0:
320,168,166980,2,0,L|312:80,2,85,0|0|2,0:0|0:0|0:0,0:0:0:0:
328,264,167880,6,0,L|336:320,2,42.5
312,176,168480,1,0,0:0:0:0:
232,120,168780,1,2,0:0:0:0:
176,40,169080,1,2,0:0:0:0:
264,64,169380,1,0,0:0:0:0:
360,64,169680,2,4,P|432:56|448:40,1,85,0|4,0:0|0:0,0:0:0:0:
464,144,170280,5,0,0:0:0:0:
400,208,170580,1,0,0:0:0:0:
312,168,170880,2,0,L|256:200,2,42.5
232,120,171480,2,2,L|184:88,2,42.5
152,176,172080,2,0,L|96:208,2,42.5
152,80,172680,6,0,L|208:88,1,42.5
240,88,172980,1,2,0:0:0:0:
336,104,173280,1,0,0:0:0:0:
424,72,173580,1,2,0:0:0:0:
480,144,173880,1,0,0:0:0:0:
392,184,174180,2,0,L|416:96,1,85,2|0,0:0|0:0,0:0:0:0:
480,168,174780,2,0,L|457:250,1,85,8|0,0:0|0:0,0:0:0:0:
384,304,175380,5,0,0:0:0:0:
328,128,175980,1,0,0:0:0:0:
296,216,176280,1,2,0:0:0:0:
232,144,176580,2,0,L|264:40,1,85
168,48,177180,5,0,0:0:0:0:
136,136,177480,1,2,0:0:0:0:
232,144,177780,2,0,L|207:225,1,85
296,256,178380,1,0,0:0:0:0:
384,272,178680,1,0,0:0:0:0:
352,184,178980,1,4,0:0:0:0:
200,72,179580,6,0,L|280:40,1,85
296,136,180180,1,0,0:0:0:0:
376,304,180780,2,8,L|456:272,1,85
472,368,181380,1,4,0:0:0:0:
368,208,181980,2,0,L|272:264,1,85,0|8,0:0|0:0,0:0:0:0:
240,176,182580,2,0,L|144:232,1,85,0|8,0:0|0:0,0:0:0:0:
184,128,183180,2,0,L|257:85,1,85,0|8,0:0|0:0,0:0:0:0:
320,160,183780,1,4,0:0:0:0:
168,48,184380,5,0,0:0:0:0:
264,40,184680,1,0,0:0:0:0:
344,88,184980,2,2,P|384:136|392:168,1,85
296,168,185580,5,0,0:0:0:0:
220,226,185880,1,0,0:0:0:0:
126,229,186180,2,2,P|66:210|42:188,1,85
112,128,186780,5,0,0:0:0:0:
188,69,187080,1,0,0:0:0:0:
281,66,187380,2,2,P|340:84|364:106,1,85
304,176,187980,2,2,P|344:232|344:280,1,85
256,280,188580,5,8,0:0:0:0:
256,280,188880,1,0,0:0:0:0:
256,280,189180,1,8,0:0:0:0:
256,280,189480,1,4,0:0:0:0:
256,280,189780,5,2,0:0:0:0:
128,144,190380,1,0,0:0:0:0:
304,208,190980,1,2,0:0:0:0:
256,24,191580,1,0,0:0:0:0:
384,160,192180,2,0,L|384:64,1,85,0|8,0:0|0:0,0:0:0:0:
296,112,192780,2,0,L|216:80,1,85,0|8,0:0|0:0,0:0:0:0:
192,168,193380,1,4,0:0:0:0:
48,56,193980,6,0,L|144:72,1,85
96,160,194580,1,0,0:0:0:0:
272,96,195180,1,8,0:0:0:0:
232,280,195780,5,0,0:0:0:0:
320,248,196080,1,8,0:0:0:0:
296,336,196380,1,0,0:0:0:0:
392,352,196680,1,8,0:0:0:0:
424,264,196980,2,0,P|440:152|400:96,1,170
336,48,197880,1,8,0:0:0:0:
240,40,198180,2,0,P|136:72|104:144,1,170
48,80,201780,6,0,L|144:56,1,85
128,152,202380,1,0,0:0:0:0:
208,192,202680,1,2,0:0:0:0:
216,96,202980,1,0,0:0:0:0:
312,80,203280,1,0,0:0:0:0:
360,160,203580,1,0,0:0:0:0:
264,160,203880,6,2,L|232:216,1,42.5
216,240,204180,1,0,0:0:0:0:
288,304,204480,1,0,0:0:0:0:
376,264,204780,1,0,0:0:0:0:
360,176,205080,1,0,0:0:0:0:
280,128,205380,2,0,L|200:80,2,85,4|0|4,0:0|0:0|0:0,0:0:0:0:
184,144,206280,6,0,L|120:168,2,42.5
272,184,206880,1,0,0:0:0:0:
360,144,207180,1,0,0:0:0:0:
368,48,207480,1,0,0:0:0:0:
280,88,207780,2,0,L|192:136,1,85
280,88,208380,2,0,L|354:47,1,85,0|4,0:0|0:0,0:0:0:0:
352,144,208980,6,2,P|416:176|432:208,1,85
344,240,209580,2,2,P|368:288|352:336,1,85
272,296,210180,1,0,0:0:0:0:
184,280,210480,1,0,0:0:0:0:
128,208,210780,1,4,0:0:0:0:
296,128,211380,5,0,0:0:0:0:
376,176,211680,1,4,0:0:0:0:
392,88,211980,1,0,0:0:0:0:
464,144,212280,1,4,0:0:0:0:
456,240,212580,2,0,P|408:272|352:272,2,85
384,176,213480,5,0,0:0:0:0:
384,176,213630,1,0,0:0:0:0:
384,176,213780,2,0,P|352:112|320:96,1,85
288,184,214380,2,0,P|240:184|176:216,1,85
256,272,214980,1,0,0:0:0:0:
160,288,215280,1,0,0:0:0:0:
72,248,215580,1,4,0:0:0:0:
168,232,215880,6,0,L|176:160,1,42.5
176,144,216180,1,0,0:0:0:0:
272,128,216480,2,0,L|328:120,1,42.5
352,144,216780,2,0,L|400:192,2,42.5
296,216,217380,6,0,L|232:240,1,42.5
264,184,217680,2,0,L|224:144,1,42.5
280,152,217980,2,0,L|312:104,4,42.5
192,112,218880,1,4,0:0:0:0:
152,192,219180,2,0,P|176:272|208:288,1,85
248,208,219780,2,0,P|352:168|376:104,1,170
192,64,220980,6,0,L|288:64,1,85,0|8,0:0|0:0,0:0:0:0:
328,144,221580,2,0,L|243:144,1,85,0|8,0:0|0:0,0:0:0:0:
200,224,222180,2,0,P|240:272|296:280,1,85,0|8,0:0|0:0,0:0:0:0:
280,192,222780,1,4,0:0:0:0:
224,120,223080,6,0,L|288:120,1,42.5
312,120,223380,1,0,0:0:0:0:
432,144,223680,1,2,0:0:0:0:
440,264,223980,1,0,0:0:0:0:
344,328,224280,1,2,0:0:0:0:
232,288,224580,2,0,L|152:256,2,85,0|0|4,0:0|0:0|0:0,0:0:0:0:
296,184,225480,5,0,0:0:0:0:
296,184,225630,1,0,0:0:0:0:
296,184,225780,1,0,0:0:0:0:
400,128,226080,1,2,0:0:0:0:
296,72,226380,2,0,L|208:24,1,85,0|8,0:0|0:0,0:0:0:0:
128,104,226980,1,0,0:0:0:0:
232,160,227280,1,8,0:0:0:0:
328,224,227580,1,8,0:0:0:0:
96,288,228180,5,2,0:0:0:0:
328,352,228780,1,8,0:0:0:0:
224,136,229380,1,8,0:0:0:0:
392,304,229980,1,4,0:0:0:0:
400,64,230580,5,0,0:0:0:0:
320,104,230880,1,8,0:0:0:0:
232,80,231180,1,0,0:0:0:0:
200,168,231480,1,0,0:0:0:0:
288,192,231780,2,0,L|232:88,2,85
376,224,232680,5,0,0:0:0:0:
368,272,232830,1,0,0:0:0:0:
328,296,232980,1,0,0:0:0:0:
232,288,233280,1,0,0:0:0:0:
312,240,233580,2,2,L|256:160,1,85
352,152,234180,1,0,0:0:0:0:
424,208,234480,1,0,0:0:0:0:
400,296,234780,1,4,0:0:0:0:
216,280,235380,6,0,P|160:192|208:144,1,170
376,184,236580,1,0,0:0:0:0:
192,152,237180,1,4,0:0:0:0:
48,40,237780,1,0,0:0:0:0:
224,104,238380,1,0,0:0:0:0:
336,248,238980,2,0,P|216:280|168:240,1,170,0|4,0:0|0:0,0:0:0:0:
