osu file format v11

[General]
AudioFilename: DJ Okawari - Canon.mp3
AudioLeadIn: 0
PreviewTime: 97833
Countdown: 0
SampleSet: Normal
StackLeniency: 0.7
Mode: 0
LetterboxInBreaks: 0

[Editor]
Bookmarks: 19771,147118,153406
DistanceSpacing: 1.7
BeatDivisor: 4
GridSize: 4

[Metadata]
Title:Canon (Short Ver.)
TitleUnicode:Canon (Short Ver.)
Artist:DJ Okawari
ArtistUnicode:DJ Okawari
Creator:backstep
Version:Tranquil
Source:
Tags:Johann Pachelbel spboxer3 bossandy cohana 2nd~ oriental classical
BeatmapID:194666
BeatmapSetID:44305

[Difficulty]
HPDrainRate:6
CircleSize:4
OverallDifficulty:6
ApproachRate:6
SliderMultiplier:1.79999990463257
SliderTickRate:2

[Events]
//Background and Video events
0,0,"Canon-BG.jpg"
//Break Periods
//Storyboard Layer 0 (Background)
//Storyboard Layer 1 (Fail)
//Storyboard Layer 2 (Pass)
//Storyboard Layer 3 (Foreground)
Sprite,Foreground,Centre,"SB\clouds-0.png",320,240 S,0,0,,0.7030402 M,0,0,137334,561,140,-36,140 F,0,137028,137334,1,0
Sprite,Foreground,Centre,"spinner-metre.png",320,240 S,0,93253,,0.6825598 F,0,93253,93559,0,1 M,0,93253,98151,327,243 F,0,93559,96926,1 F,0,96926,98151,1,0
Sprite,Foreground,Centre,"SB\Ring.png",320,240 M,0,98151,,320,240 F,0,98151,99069,1 S,0,98151,99375,0.1,2.8136 F,0,99069,99375,1,0
Sprite,Foreground,Centre,"SB\Mini Light.png",320,240 F,0,98151,98763,1 S,0,98151,99375,0.1,1.124 R,0,98151,99375,0,-3.11296 F,0,98763,99375,1,0
Sprite,Foreground,Centre,"SB\Ring.png",320,240 R,0,117743,,0 F,0,117743,118661,1 S,0,117743,118967,0.1,2.9672 F,0,118661,118967,1,0
Sprite,Foreground,Centre,"SB\Mini Light.png",320,240 F,0,117743,118661,1 S,0,117743,118967,0.1,1.06256 R,0,117743,118967,0,-2.43712 F,0,118661,118967,1,0
Sprite,Foreground,Centre,"SB\Ring.png",320,240 F,0,137334,137947,1 S,0,137334,138559,0.1,2.85456 F,0,137947,138559,1,0
Sprite,Foreground,Centre,"SB\Mini Light.png",320,240 F,0,137334,137947,1 S,0,137334,138559,0.1,1.00112 R,0,137334,138559,0,-1.78176 F,0,137947,138559,1,0
Sprite,Foreground,TopLeft,"SB\pole.png",10,0 F,0,0,153391,1
//Storyboard Sound Samples
//Background Colour Transformations
3,100,163,162,255

[TimingPoints]
192,612.244897959184,4,1,0,100,1,0
19783,-200,4,2,2,40,0,0
24528,-200,4,2,2,30,0,0
29579,-200,4,2,2,30,0,0
33865,-200,4,2,2,10,0,0
34018,-200,4,2,2,30,0,0
35089,-200,4,2,2,20,0,0
35243,-200,4,2,2,30,0,0
37538,-200,4,2,2,40,0,0
39222,-133.333333333333,4,2,2,30,0,0
39528,-133.333333333333,4,2,2,50,0,0
40447,-133.333333333333,4,2,1,50,0,0
40753,-133.333333333333,4,2,2,50,0,0
41671,-133.333333333333,4,2,1,50,0,0
42283,-133.333333333333,4,2,2,50,0,0
42896,-133.333333333333,4,2,1,50,0,0
43202,-133.333333333333,4,2,2,50,0,0
44273,-133.333333333333,4,2,1,50,0,0
44426,-133.333333333333,4,2,2,50,0,0
45345,-133.333333333333,4,2,1,50,0,0
45651,-133.333333333333,4,2,2,50,0,0
46646,-200,4,2,0,50,0,0
46799,-200,4,2,2,50,0,0
48100,-133.333333333333,4,2,2,50,0,0
49171,-133.333333333333,4,2,2,70,0,0
49324,-133.333333333333,4,2,2,70,0,0
50089,-133.333333333333,4,2,1,70,0,0
50855,-133.333333333333,4,2,2,70,0,0
51467,-133.333333333333,4,2,1,70,0,0
52079,-133.333333333333,4,2,2,70,0,0
52692,-133.333333333333,4,2,1,70,0,0
53151,-133.333333333333,4,2,2,70,0,0
54069,-133.333333333333,4,2,1,70,0,0
54528,-133.333333333333,4,2,2,70,0,0
55140,-133.333333333333,4,2,1,70,0,0
55600,-133.333333333333,4,2,2,70,0,0
56365,-133.333333333333,4,2,1,70,0,0
56977,-133.333333333333,4,2,2,70,0,0
57589,-133.333333333333,4,2,1,70,0,0
58049,-133.333333333333,4,2,2,70,0,0
58967,-133.333333333333,4,2,1,70,0,0
59426,-133.333333333333,4,2,2,70,0,0
59732,-133.333333333333,4,2,1,70,0,0
60651,-133.333333333333,4,2,2,70,0,0
60957,-133.333333333333,4,2,1,70,0,0
61875,-133.333333333333,4,2,2,70,0,0
62181,-133.333333333333,4,2,1,70,0,0
63253,-133.333333333333,4,2,2,70,0,0
63712,-133.333333333333,4,2,1,70,0,0
64477,-133.333333333333,4,2,2,70,0,0
64630,-133.333333333333,4,2,1,70,0,0
65702,-133.333333333333,4,2,2,70,0,0
65855,-133.333333333333,4,2,1,70,0,0
66926,-133.333333333333,4,2,2,70,0,0
67079,-133.333333333333,4,2,1,70,0,0
68151,-133.333333333333,4,2,2,70,0,0
68610,-133.333333333333,4,2,1,70,0,0
69375,-133.333333333333,4,2,2,70,0,0
69681,-133.333333333333,4,2,1,70,0,0
70600,-133.333333333333,4,2,2,70,0,0
70753,-133.333333333333,4,2,1,70,0,0
71824,-133.333333333333,4,2,2,70,0,0
71977,-133.333333333333,4,2,1,70,0,0
73049,-133.333333333333,4,2,2,70,0,0
73508,-133.333333333333,4,2,1,70,0,0
74273,-133.333333333333,4,2,2,70,0,0
74426,-133.333333333333,4,2,1,70,0,0
75498,-133.333333333333,4,2,2,70,0,0
75651,-133.333333333333,4,2,1,70,0,0
76722,-133.333333333333,4,2,2,70,0,0
76875,-133.333333333333,4,2,1,70,0,0
77947,-133.333333333333,4,2,2,70,0,0
78406,-133.333333333333,4,2,1,70,0,0
79171,-133.333333333333,4,2,2,70,0,0
79324,-133.333333333333,4,2,1,70,0,0
80396,-133.333333333333,4,2,2,70,0,0
80549,-133.333333333333,4,2,1,70,0,0
81620,-133.333333333333,4,2,2,70,0,0
81773,-133.333333333333,4,2,1,70,0,0
82845,-133.333333333333,4,2,2,70,0,0
83304,-133.333333333333,4,2,1,70,0,0
84069,-133.333333333333,4,2,2,70,0,0
84222,-133.333333333333,4,2,1,70,0,0
85294,-133.333333333333,4,2,2,70,0,0
85447,-133.333333333333,4,2,1,70,0,0
86518,-133.333333333333,4,2,2,70,0,0
86671,-133.333333333333,4,2,1,70,0,0
87743,-133.333333333333,4,2,2,70,0,0
88202,-133.333333333333,4,2,1,70,0,0
88967,-133.333333333333,4,2,2,70,0,0
89120,-133.333333333333,4,2,1,70,0,0
90192,-133.333333333333,4,2,2,70,0,0
90345,-133.333333333333,4,2,1,70,0,0
91416,-133.333333333333,4,2,2,70,0,0
91569,-133.333333333333,4,2,1,70,0,0
92640,-133.333333333333,4,2,2,70,0,0
93100,-133.333333333333,4,2,0,70,0,0
97232,-133.333333333333,4,2,2,70,0,0
98151,-100,4,2,0,80,0,1
98304,-100,4,2,1,100,0,1
98763,-100,4,2,2,100,0,1
98916,-100,4,2,1,100,0,1
99987,-100,4,2,2,100,0,1
100140,-100,4,2,1,100,0,1
101212,-100,4,2,2,100,0,1
101365,-100,4,2,1,100,0,1
102436,-100,4,2,2,100,0,1
102589,-100,4,2,1,100,0,1
103661,-100,4,2,2,100,0,1
103814,-100,4,2,1,100,0,1
104885,-100,4,2,2,100,0,1
105038,-100,4,2,1,100,0,1
106110,-100,4,2,2,100,0,1
106263,-100,4,2,1,100,0,1
107334,-100,4,2,2,100,0,1
107487,-100,4,2,1,100,0,1
108559,-100,4,2,2,100,0,1
108712,-100,4,2,1,100,0,1
109783,-100,4,2,2,100,0,1
109936,-100,4,2,1,100,0,1
111008,-100,4,2,2,100,0,1
111161,-100,4,2,1,100,0,1
112232,-100,4,2,2,100,0,1
112385,-100,4,2,1,100,0,1
113457,-100,4,2,2,100,0,1
113610,-100,4,2,1,100,0,1
114681,-100,4,2,2,100,0,1
114834,-100,4,2,1,100,0,1
115906,-100,4,2,2,100,0,1
116059,-100,4,2,1,100,0,1
117130,-100,4,2,2,100,0,1
117283,-100,4,2,1,100,0,1
117743,-100,4,2,2,100,0,1
117896,-100,4,2,1,100,0,1
118355,-100,4,2,2,100,0,1
118508,-100,4,2,1,100,0,1
119579,-100,4,2,2,100,0,1
119732,-100,4,2,1,100,0,1
120804,-100,4,2,2,100,0,1
120957,-100,4,2,1,100,0,1
122028,-100,4,2,2,100,0,1
123406,-100,4,2,1,100,0,1
124477,-100,4,2,2,100,0,1
124630,-100,4,2,1,100,0,1
125702,-100,4,2,2,100,0,1
125855,-100,4,2,1,100,0,1
126926,-100,4,2,2,100,0,1
127538,-100,4,2,1,100,0,1
128151,-100,4,2,2,100,0,1
128304,-100,4,2,1,100,0,1
129375,-100,4,2,2,100,0,1
129528,-100,4,2,1,100,0,1
130600,-100,4,2,2,100,0,1
130753,-100,4,2,1,100,0,1
131824,-100,4,2,2,100,0,1
131977,-100,4,2,1,100,0,1
133049,-100,4,2,2,100,0,1
133202,-100,4,2,1,100,0,1
134273,-100,4,2,2,100,0,1
134426,-100,4,2,1,100,0,1
135498,-100,4,2,2,100,0,1
135651,-100,4,2,1,100,0,1
136722,-100,4,2,2,100,0,1
136875,-100,4,2,1,100,0,1
137334,-100,4,2,0,100,0,0

[Colours]
Combo1 : 202,249,155
Combo2 : 0,128,192
SliderBorder : 202,249,155

[HitObjects]
12,192,19783,2,0,B|72:192,1,44.9999976158143,2|0,0:0|0:0,0:0:0
100,256,20396,2,0,B|128:296|180:296,1,89.9999952316285,0|2,0:0|0:0,0:0:0
248,324,21314,1,0,0:0:0
320,304,21620,1,0,0:0:0
392,328,21926,1,0,0:0:0
464,304,22232,6,0,B|508:260,1,44.9999976158143,2|0,0:0|0:0,0:0:0
436,224,22845,2,0,B|396:200|396:144,1,89.9999952316285,0|2,0:0|0:0,0:0:0
406,72,23763,1,0,0:0:0
336,41,24069,1,0,0:0:0
284,97,24375,1,0,0:0:0
321,163,24681,6,0,B|305:211|245:223,1,89.9999952316285,2|0,0:0|0:0,0:0:0
116,280,25906,2,0,B|132:232|192:220,1,89.9999952316285,2|0,0:0|0:0,0:0:0
256,220,26824,1,0,0:0:0
300,284,27130,6,0,B|324:332|388:332,2,89.9999952316285,2|0|2,0:0|0:0|0:0,0:0:0
272,212,28661,1,0,0:0:0
292,136,28967,1,0,0:0:0
352,88,29273,1,0,0:0:0
424,64,29579,5,2,0:0:0
488,204,30192,1,0,0:0:0
392,324,30804,1,2,0:0:0
321,294,31110,1,0,0:0:0
252,260,31416,1,0,0:0:0
280,108,32028,5,2,0:0:0
128,84,32640,1,0,0:0:0
100,236,33252,1,2,0:0:0
116,312,33559,1,0,0:0:0
176,360,33865,1,8,0:0:0
252,352,34171,1,0,0:0:0
308,300,34477,6,0,B|340:311|371:300|371:300|400:300,1,89.9999952316285,2|8,0:0|0:0,0:0:0
452,252,35396,1,0,0:0:0
496,192,35702,2,0,B|512:168|512:136,1,44.9999976158143,2|0,0:0|0:0,0:0:0
436,136,36314,2,0,B|437:107|421:79,1,44.9999976158143,8|0,0:0|0:0,0:0:0
356,116,36926,6,0,B|320:116|320:116|304:112|304:112|264:112,1,89.9999952316285,2|8,0:0|0:0,0:0:0
188,116,37845,2,0,B|160:116|140:136,1,44.9999976158143,0|2,0:0|0:0,0:0:0
184,196,38457,2,0,B|164:216|164:236,1,44.9999976158143,0|8,0:0|0:0,0:0:0
236,264,39069,2,0,B|236:292|256:312,1,44.9999976158143,8|4,0:0|0:0,0:0:0
468,228,39987,6,0,B|436:260|436:260|384:244|340:272,1,134.99998882413,8|2,0:0|0:0,0:0:0
256,332,40906,1,0,0:0:0
163,266,41212,2,0,B|128:244|76:260|76:260|44:228,1,134.99998882413,8|2,0:0|0:0,0:0:0
124,144,42130,6,0,B|76:96,1,67.4999944120648,0|8,0:0|0:0,0:0:0
188,20,42743,2,0,B|206:86,1,67.4999944120648,0|2,0:0|0:0,0:0:0
312,84,43355,2,0,B|329:18,1,67.4999944120648,0|8,0:0|0:0,0:0:0
436,96,43967,2,0,B|388:144,1,67.4999944120648,8|6,0:0|0:0,0:0:0
256,260,44885,5,8,0:0:0
148,296,45192,2,0,B|168:332|208:348,1,67.4999944120648,0|4,0:0|0:0,0:0:0
360,296,45804,2,0,B|340:332|313:343,1,67.4999944120648,2|0,0:0|0:0,0:0:0
256,260,46416,2,0,B|256:188,1,67.4999944120648,2|4,0:0|0:0,0:0:0
256,192,46875,12,4,49171,0:0:0
256,192,49783,5,8,0:0:0
372,192,50089,2,0,B|408:192,2,33.7499972060324,0|4|4,0:0|0:0|0:0,0:0:0
364,308,50702,2,0,B|344:340|308:352,1,67.4999944120648,2|8,0:0|0:0,0:0:0
148,308,51314,2,0,B|168:340|199:350,1,67.4999944120648,2|4,0:0|0:0,0:0:0
256,264,51926,6,0,B|256:192,1,67.4999944120648,4|8,0:0|0:0,0:0:0
164,132,52538,2,0,B|208:56,1,67.4999944120648,0|4,0:0|0:0,0:0:0
314,73,53151,2,0,B|348:132,2,67.4999944120648,2|8|8,0:0|0:0|0:0,0:0:0
419,27,54069,5,4,0:0:0
498,109,54375,1,0,0:0:0
446,211,54681,1,8,0:0:0
336,190,54987,1,0,0:0:0
314,74,55294,2,0,B|294:96|222:48|182:76,2,134.99998882413,4|8|4,0:0|0:0|0:0,0:0:0
236,272,56824,6,0,B|260:240|260:200,1,67.4999944120648,4|8,0:0|0:0,0:0:0
148,236,57436,2,0,B|152:196|132:161,1,67.4999944120648,0|4,0:0|0:0,0:0:0
60,256,58049,2,0,B|44:219|9:199,2,67.4999944120648,2|8|8,0:0|0:0|0:0,0:0:0
77,101,58967,5,4,0:0:0
199,43,59273,1,0,0:0:0
143,165,59579,1,8,0:0:0
119,32,59885,1,4,0:0:0
216,126,60192,1,4,0:0:0
322,152,60498,5,2,0:0:0
190,232,60804,1,8,0:0:0
296,258,61110,1,2,0:0:0
216,126,61416,2,0,B|152:104|72:104,2,134.99998882413,4|8|4,0:0|0:0|0:0,0:0:0
376,232,62947,5,2,0:0:0
244,260,63253,1,8,0:0:0
352,100,63559,1,8,0:0:0
449,197,63865,6,0,B|461:245|445:277,1,67.4999944120648,4|0,0:0|0:0,0:0:0
360,332,64477,2,0,B|312:344|280:328,1,67.4999944120648,8|4,0:0|0:0,0:0:0
180,360,65089,2,0,B|168:312|184:280,1,67.4999944120648,4|2,0:0|0:0,0:0:0
129,181,65702,2,0,B|177:169|196:180,1,67.4999944120648,8|2,0:0|0:0,0:0:0
28,236,66314,6,0,B|12:200|32:156,2,67.4999944120648,4|0|8,0:0|0:0|0:0,0:0:0
118,306,67232,2,0,B|134:342|114:386,2,67.4999944120648,4|4|2,0:0|0:0|0:0,0:0:0
140,192,68151,1,8,0:0:0
228,264,68457,1,8,0:0:0
228,264,68763,6,0,B|296:320,1,67.4999944120648,4|0,0:0|0:0,0:0:0
372,376,69375,1,8,0:0:0
372,260,69681,2,0,B|372:216,2,33.7499972060324,4|0|4,0:0|0:0|0:0,0:0:0
476,308,70294,2,0,B|496:280|496:244,1,67.4999944120648,2|8,0:0|0:0,0:0:0
468,132,70906,1,2,0:0:0
447,54,71212,5,4,0:0:0
331,126,71518,1,0,0:0:0
467,134,71824,1,8,0:0:0
363,50,72130,1,4,0:0:0
395,182,72436,1,4,0:0:0
279,250,72743,1,2,0:0:0
331,126,73049,1,8,0:0:0
363,258,73355,1,8,0:0:0
261,170,73661,6,0,B|230:173|193:165,1,67.4999944120648,4|0,0:0|0:0,0:0:0
70,210,74273,2,0,B|82:182|107:154,1,67.4999944120648,8|4,0:0|0:0,0:0:0
129,31,74885,2,0,B|146:55|158:91,1,67.4999944120648,4|2,0:0|0:0,0:0:0
261,170,75498,2,0,B|230:173|193:165,1,67.4999944120648,8|2,0:0|0:0,0:0:0
68,208,76110,6,0,B|75:245|93:276,1,67.4999944120648,4|0,0:0|0:0,0:0:0
276,356,76722,2,0,B|269:319|251:288,1,67.4999944120648,8|4,0:0|0:0,0:0:0
192,172,77334,1,4,0:0:0
311,109,77640,1,2,0:0:0
374,228,77947,1,8,0:0:0
254,291,78253,1,8,0:0:0
284,200,78559,5,4,0:0:0
344,320,78865,1,0,0:0:0
254,291,79171,1,8,0:0:0
374,228,79477,1,4,0:0:0
374,228,79783,2,0,B|448:208|460:120,1,134.99998882413,4|8,0:0|0:0,0:0:0
348,52,80702,6,0,B|392:52,2,33.7499972060324,2|0|4,0:0|0:0|0:0,0:0:0
232,52,81314,1,4,0:0:0
124,84,81620,2,0,B|56:108|8:168,1,134.99998882413,8|4,0:0|0:0,0:0:0
16,276,82538,2,0,P|12:320|-8:352,2,67.499998998642,2|8|8,0:0|0:0|0:0,0:0:0
132,276,83457,6,0,B|156:276|156:276|172:268|172:268|204:268,1,67.4999944120648,4|0,0:0|0:0,0:0:0
314,268,84069,2,0,B|340:268|340:268|356:276|356:276|380:276,1,67.4999944120648,8|4,0:0|0:0,0:0:0
456,192,84681,1,4,0:0:0
368,116,84987,1,2,0:0:0
256,84,85294,1,8,0:0:0
144,116,85600,1,2,0:0:0
56,192,85906,6,0,B|56:228|24:268,1,67.4999944120648,4|0,0:0|0:0,0:0:0
148,256,86518,2,0,B|130:287|82:305,2,67.4999944120648,8|4|4,0:0|0:0|0:0,0:0:0
196,356,87436,2,0,B|164:374|114:366,2,67.4999944120648,2|8|8,0:0|0:0|0:0,0:0:0
300,304,88355,6,0,B|328:276|380:276,1,67.4999944120648,4|0,0:0|0:0,0:0:0
476,272,88967,1,8,0:0:0
408,364,89273,1,4,0:0:0
376,204,89579,1,4,0:0:0
300,304,89885,2,0,P|262:308|224:303,1,67.499998998642,2|8,0:0|0:0,0:0:0
116,300,90498,2,0,B|92:276|92:236,1,67.4999944120648,2|4,0:0|0:0,0:0:0
168,156,91110,5,0,0:0:0
292,104,91416,1,8,0:0:0
344,228,91722,1,4,0:0:0
220,280,92028,1,4,0:0:0
219,104,92334,5,2,0:0:0
343,155,92640,1,8,0:0:0
292,279,92946,1,8,0:0:0
168,228,93252,1,4,0:0:0
256,192,93406,12,0,96926,0:0:0
256,332,97538,5,2,0:0:0
256,332,98151,5,4,0:0:0
166,192,98457,2,0,B|124:208,2,44.9999976158143,0|0|8,0:0|0:0|0:0,0:0:0
345,192,99069,2,0,B|388:208,2,44.9999976158143,0|0|4,0:0|0:0|0:0,0:0:0
300,64,99681,6,0,B|256:40|196:72,1,89.9999952316285,2|8,0:0|0:0,0:0:0
166,192,100294,2,0,B|214:212,2,44.9999976158143,2|0|0,0:0|0:0|0:0,0:0:0
346,192,100906,2,0,B|298:212,2,44.9999976158143,0|0|8,0:0|0:0|0:0,0:0:0
232,256,101518,5,4,0:0:0
96,320,101824,1,4,0:0:0
167,190,102130,1,2,0:0:0
184,336,102436,1,8,0:0:0
88,232,102743,2,0,P|59:195|55:135,1,89.9999952316285,4|4,0:0|0:0,0:0:0
116,68,103355,6,0,P|180:36,2,44.9999976158143,0|0|8,0:0|0:0|0:0,0:0:0
248,84,103967,2,0,P|280:148,2,44.9999976158143,4|0|4,0:0|0:0|0:0,0:0:0
236,220,104579,2,0,P|172:252,2,44.9999976158143,2|0|8,0:0|0:0|0:0,0:0:0
100,208,105192,2,0,P|68:144,2,44.9999976158143,2|0|4,0:0|0:0|0:0,0:0:0
100,344,105804,6,0,P|120:292,2,44.9999976158143,4|0|8,0:0|0:0|0:0,0:0:0
195,240,106416,1,4,0:0:0
256,372,106722,1,4,0:0:0
312,236,107028,1,2,0:0:0
412,344,107334,1,8,0:0:0
412,344,107640,2,0,P|395:301,2,44.9999976158143,0|0|4,0:0|0:0|0:0,0:0:0
416,200,108253,6,0,P|399:157,2,44.9999976158143,0|0|8,0:0|0:0|0:0,0:0:0
324,88,108865,2,0,P|367:71,2,44.9999976158143,0|0|4,0:0|0:0|0:0,0:0:0
244,128,109477,2,0,P|200:144|136:128,1,89.9999952316285,2|8,0:0|0:0,0:0:0
76,100,110089,2,0,P|59:57,2,44.9999976158143,2|0|4,0:0|0:0|0:0,0:0:0
80,192,110702,2,0,P|48:248,2,44.9999976158143,0|0|8,0:0|0:0|0:0,0:0:0
192,272,111314,6,0,P|160:328,2,44.9999976158143,4|0|4,0:0|0:0|0:0,0:0:0
300,188,111926,2,0,P|256:180|208:188,1,89.9999952316285,2|8,0:0|0:0,0:0:0
320,272,112538,2,0,P|352:328,2,44.9999976158143,4|0|4,0:0|0:0|0:0,0:0:0
256,104,113151,6,0,P|256:48,2,44.9999976158143,4|0|8,0:0|0:0|0:0,0:0:0
384,152,113763,2,0,P|432:128,2,44.9999976158143,4|0|4,0:0|0:0|0:0,0:0:0
300,188,114375,2,0,P|256:208|212:216,1,89.9999952316285,2|8,0:0|0:0,0:0:0
124,228,114987,2,0,P|60:228,2,44.9999976158143,2|0|4,0:0|0:0|0:0,0:0:0
184,296,115600,6,0,P|192:344,2,44.9999976158143,0|0|8,0:0|0:0|0:0,0:0:0
160,144,116212,1,4,0:0:0
312,120,116518,1,4,0:0:0
336,272,116824,1,2,0:0:0
246,207,117130,5,8,0:0:0
336,272,117436,1,0,0:0:0
264,356,117743,2,0,P|128:364,1,134.999992847443,4|0,0:0|0:0,0:0:0
84,368,118355,2,0,P|47:316|94:237,1,134.999992847443,8|0,0:0|0:0,0:0:0
112,248,118967,6,0,P|236:240,1,89.9999952316285,4|2,0:0|0:0,0:0:0
292,232,119579,1,8,0:0:0
380,220,119885,2,0,P|440:212,2,44.9999976158143,2|0|4,0:0|0:0|0:0,0:0:0
352,304,120498,2,0,P|360:352,2,44.9999976158143,0|0|8,0:0|0:0|0:0,0:0:0
324,148,121110,6,4,P|308:56,1,89.9999952316285
380,220,121722,2,0,P|467:252,1,89.9999952316285,2|8,0:0|0:0,0:0:0
292,232,122334,2,4,P|220:291,1,89.9999952316285,8|0,0:0|0:0,0:0:0
148,340,122947,6,0,P|108:372,2,44.9999976158143,0|0|8,0:0|0:0|0:0,0:0:0
89,270,123559,2,0,P|38:278,2,44.9999976158143,4|0|4,0:0|0:0|0:0,0:0:0
73,181,124171,2,0,P|25:162,2,44.9999976158143,2|0|8,0:0|0:0|0:0,0:0:0
104,96,124783,2,0,P|72:56,2,44.9999976158143,2|0|0,0:0|0:0|0:0,0:0:0
180,148,125396,6,0,P|187:192|209:231,1,89.9999952316285,4|8,0:0|0:0,0:0:0
325,351,126008,2,4,P|318:306|296:268,1,89.9999952316285
328,92,126620,2,0,P|335:136|357:175,1,89.9999952316285,2|8,0:0|0:0,0:0:0
464,316,127232,2,0,P|456:271|434:232,1,89.9999952316285,8|4,0:0|0:0,0:0:0
256,220,127845,5,0,0:0:0
256,220,127998,1,0,0:0:0
256,220,128151,2,0,P|208:260|136:268,1,134.999992847443,8|0,0:0|0:0,0:0:0
128,316,128763,2,0,P|88:212,1,89.9999952316285,4|2,0:0|0:0,0:0:0
144,76,129375,2,0,P|176:160,1,89.9999952316285,8|2,0:0|0:0,0:0:0
232,316,129987,1,4,0:0:0
388,276,130294,5,4,0:0:0
388,276,130447,1,0,0:0:0
388,276,130600,2,0,P|432:228|432:152,1,134.999992847443,8|0,0:0|0:0,0:0:0
468,128,131212,2,0,P|432:148|380:140,1,89.9999952316285,4|2,0:0|0:0,0:0:0
236,94,131824,2,0,P|272:74|320:80,2,89.9999952316285,8|0|4,0:0|0:0|0:0,0:0:0
180,164,132743,6,0,P|132:168,2,44.9999976158143,4|0|8,0:0|0:0|0:0,0:0:0
216,264,133355,2,0,P|220:312,2,44.9999976158143,4|0|4,0:0|0:0|0:0,0:0:0
316,228,133967,2,0,P|364:224,2,44.9999976158143,2|0|8,0:0|0:0|0:0,0:0:0
280,128,134579,2,0,P|276:80,2,44.9999976158143,2|0|4,0:0|0:0|0:0,0:0:0
180,164,135192,2,0,P|132:168,2,44.9999976158143,4|0|8,0:0|0:0|0:0,0:0:0
316,228,135804,6,0,P|282:268,2,44.9999976158143,0|4|4,0:0|0:0|0:0,0:0:0
376,260,136263,2,0,P|403:304,2,44.9999976158143,0|2|0,0:0|0:0|0:0,0:0:0
420,208,136722,2,0,P|471:195,2,44.9999976158143,8|0|0,0:0|0:0|0:0,0:0:0
395,145,137181,1,0,0:0:0
327,153,137334,1,4,0:0:0
