osu file format v11

[General]
AudioFilename: DJ Okawari - Canon.mp3
AudioLeadIn: 0
PreviewTime: 97833
Countdown: 0
SampleSet: Normal
StackLeniency: 0.7
Mode: 0
LetterboxInBreaks: 0

[Editor]
Bookmarks: 19771,57737,101818,147118
DistanceSpacing: 1.8
BeatDivisor: 4
GridSize: 4

[Metadata]
Title:Canon (Short Ver.)
TitleUnicode:Canon (Short Ver.)
Artist:DJ Okawari
ArtistUnicode:DJ Okawari
Creator:backstep
Version:Spinboxer
Source:
Tags:Johann Pachelbel spboxer3 bossandy cohana 2nd~ oriental classical
BeatmapID:194665
BeatmapSetID:44305

[Difficulty]
HPDrainRate:7
CircleSize:4
OverallDifficulty:7
ApproachRate:8
SliderMultiplier:1.79999990463257
SliderTickRate:1

[Events]
//Background and Video events
0,0,"Canon-BG.jpg"
//Break Periods
2,93453,97401
//Storyboard Layer 0 (Background)
//Storyboard Layer 1 (Fail)
//Storyboard Layer 2 (Pass)
//Storyboard Layer 3 (Foreground)
Sprite,Foreground,Centre,"SB\clouds-0.png",320,240 S,0,0,,0.7030402 M,0,0,137334,561,140,-36,140 F,0,137028,137334,1,0
Sprite,Foreground,Centre,"spinner-metre.png",320,240 S,0,93253,,0.6825598 F,0,93253,93559,0,1 M,0,93253,98151,327,243 F,0,93559,96926,1 F,0,96926,98151,1,0
Sprite,Foreground,Centre,"SB\Ring.png",320,240 M,0,98151,,320,240 F,0,98151,99069,1 S,0,98151,99375,0.1,2.8136 F,0,99069,99375,1,0
Sprite,Foreground,Centre,"SB\Mini Light.png",320,240 F,0,98151,98763,1 S,0,98151,99375,0.1,1.124 R,0,98151,99375,0,-3.11296 F,0,98763,99375,1,0
Sprite,Foreground,Centre,"SB\Ring.png",320,240 R,0,117743,,0 F,0,117743,118661,1 S,0,117743,118967,0.1,2.9672 F,0,118661,118967,1,0
Sprite,Foreground,Centre,"SB\Mini Light.png",320,240 F,0,117743,118661,1 S,0,117743,118967,0.1,1.06256 R,0,117743,118967,0,-2.43712 F,0,118661,118967,1,0
Sprite,Foreground,Centre,"SB\Ring.png",320,240 F,0,137334,137947,1 S,0,137334,138559,0.1,2.85456 F,0,137947,138559,1,0
Sprite,Foreground,Centre,"SB\Mini Light.png",320,240 F,0,137334,137947,1 S,0,137334,138559,0.1,1.00112 R,0,137334,138559,0,-2.72384 F,0,137947,138559,1,0
Sprite,Foreground,TopLeft,"SB\pole.png",10,0 F,0,0,153391,1
//Storyboard Sound Samples
//Background Colour Transformations
3,100,163,162,255

[TimingPoints]
192,612.244897959184,4,1,0,100,1,0
19783,-100,4,2,0,30,0,0
29579,-100,4,2,1,50,0,0
46722,-100,4,2,0,50,0,0
46875,-100,4,2,1,50,0,0
49171,-100,4,2,1,70,0,0
49783,-100,4,2,2,70,0,0
49936,-100,4,2,1,70,0,0
51008,-100,4,2,2,70,0,0
51161,-100,4,2,1,70,0,0
51467,-100,4,2,2,70,0,0
51620,-100,4,2,1,70,0,0
52232,-100,4,2,2,70,0,0
52385,-100,4,2,1,70,0,0
53457,-100,4,2,2,70,0,0
54069,-100,4,2,1,70,0,0
54681,-100,4,2,2,70,0,0
54834,-100,4,2,1,70,0,0
55906,-100,4,2,2,70,0,0
56059,-100,4,2,1,70,0,0
56365,-100,4,2,2,70,0,0
56518,-100,4,2,1,70,0,0
57130,-100,4,2,2,70,0,0
57283,-100,4,2,1,70,0,0
58355,-100,4,2,2,70,0,0
58967,-100,4,2,0,70,0,0
59120,-100,4,2,1,70,0,0
59579,-100,4,2,2,70,0,0
59732,-100,4,2,1,70,0,0
62028,-100,4,2,2,70,0,0
62181,-100,4,2,1,70,0,0
63253,-100,4,2,2,70,0,0
63865,-100,4,2,0,70,0,0
64018,-100,4,2,2,70,0,0
66314,-100,4,2,1,70,0,0
66926,-100,4,2,2,70,0,0
67538,-100,4,2,1,70,0,0
68151,-100,4,2,2,70,0,0
68763,-100,4,2,0,70,0,0
68916,-100,4,2,2,70,0,0
69987,-100,4,2,1,70,0,0
70447,-100,4,2,2,70,0,0
71212,-100,4,2,1,70,0,0
71824,-100,4,2,2,70,0,0
72436,-100,4,2,1,70,0,0
73049,-100,4,2,2,70,0,0
73661,-100,4,2,0,70,0,0
73814,-100,4,2,1,70,0,0
74120,-100,4,2,2,70,0,0
74885,-100,4,2,1,70,0,0
75345,-100,4,2,2,70,0,0
76110,-100,4,2,1,70,0,0
76722,-100,4,2,2,70,0,0
77334,-100,4,2,1,70,0,0
77947,-100,4,2,2,70,0,0
78559,-100,4,2,1,70,0,0
79018,-100,4,2,2,70,0,0
79783,-100,4,2,1,70,0,0
80243,-100,4,2,2,70,0,0
81008,-100,4,2,1,70,0,0
81467,-100,4,2,2,70,0,0
82232,-100,4,2,1,70,0,0
82692,-100,4,2,2,70,0,0
83457,-100,4,2,1,70,0,0
83916,-100,4,2,2,70,0,0
84681,-100,4,2,1,70,0,0
85140,-100,4,2,2,70,0,0
85906,-100,4,2,1,70,0,0
86365,-100,4,2,2,70,0,0
87130,-100,4,2,1,70,0,0
87743,-100,4,2,2,70,0,0
88355,-100,4,2,1,70,0,0
88814,-100,4,2,2,70,0,0
89579,-100,4,2,1,70,0,0
90038,-100,4,2,2,70,0,0
90804,-100,4,2,1,70,0,0
91263,-100,4,2,2,70,0,0
92028,-100,4,2,1,70,0,0
92487,-100,4,2,2,70,0,0
98151,-100,4,2,0,80,0,1
98304,-100,4,2,2,100,0,1
99375,-100,4,2,1,100,0,1
99834,-100,4,2,2,100,0,1
100600,-100,4,2,1,100,0,1
100753,-100,4,2,2,100,0,1
101824,-100,4,2,1,100,0,1
102283,-100,4,2,2,100,0,1
103049,-100,4,2,1,100,0,1
103202,-100,4,2,2,100,0,1
104273,-100,4,2,1,100,0,1
104732,-100,4,2,2,100,0,1
105498,-100,4,2,1,100,0,1
105651,-100,4,2,2,100,0,1
106722,-100,4,2,1,100,0,1
107181,-100,4,2,2,100,0,1
109171,-100,4,2,1,100,0,1
109630,-100,4,2,2,100,0,1
110396,-100,4,2,1,100,0,1
110549,-100,4,2,2,100,0,1
111620,-100,4,2,1,100,0,1
112079,-100,4,2,2,100,0,1
112845,-100,4,2,1,100,0,1
112998,-100,4,2,2,100,0,1
114069,-100,4,2,1,100,0,1
114528,-100,4,2,2,100,0,1
115294,-100,4,2,1,100,0,1
115447,-100,4,2,2,100,0,1
116518,-100,4,2,1,100,0,1
116977,-100,4,2,2,100,0,1
118967,-100,4,2,1,100,0,1
119426,-100,4,2,2,100,0,1
120192,-100,4,2,1,100,0,1
120345,-100,4,2,2,100,0,1
121416,-100,4,2,1,100,0,1
121875,-100,4,2,2,100,0,1
122640,-100,4,2,1,100,0,1
122794,-100,4,2,2,100,0,1
123865,-100,4,2,1,100,0,1
124324,-100,4,2,2,100,0,1
125089,-100,4,2,1,100,0,1
125243,-100,4,2,2,100,0,1
126314,-100,4,2,1,100,0,1
126773,-100,4,2,2,100,0,1
127538,-100,4,2,1,100,0,1
127692,-100,4,2,2,100,0,1
128763,-100,4,2,1,100,0,1
129222,-100,4,2,2,100,0,1
129987,-100,4,2,1,100,0,1
130140,-100,4,2,2,100,0,1
131212,-100,4,2,1,100,0,1
131671,-100,4,2,2,100,0,1
132436,-100,4,2,1,100,0,1
132589,-100,4,2,2,100,0,1
133661,-100,4,2,1,100,0,1
134120,-100,4,2,2,100,0,1
134885,-100,4,2,1,100,0,1
135038,-100,4,2,2,100,0,1
137334,-100,4,2,0,100,0,0

[Colours]
Combo1 : 202,249,155
Combo2 : 0,128,192
SliderBorder : 202,249,155

[HitObjects]
40,288,19783,1,2,0:0:0
144,352,20089,1,0,0:0:0
256,288,20396,2,0,B|336:256|288:144,1,134.999996423721
344,136,21008,2,0,B|424:56,1,89.9999976158143,2|0,0:0|0:0,0:0:0
488,168,21620,2,0,B|408:248,1,89.9999976158143
336,320,22232,5,2,0:0:0
256,224,22538,1,0,0:0:0
176,320,22845,2,0,B|128:320|128:320|96:296|96:296|40:296,1,134.999996423721
32,232,23457,2,0,B|8:192|8:120,1,89.9999976158143,2|0,0:0|0:0,0:0:0
72,32,24069,2,0,B|104:72|96:144,1,89.9999976158143
184,208,24681,5,2,0:0:0
224,88,24987,1,0,0:0:0
304,192,25294,2,0,B|352:208|408:176|408:176|376:216,1,134.999992847443
416,256,25906,2,0,B|440:320|376:368,1,89.9999952316283,2|0,0:0|0:0,0:0:0
240,360,26518,2,0,B|128:359,1,89.9999952316283
64,344,27130,5,2,0:0:0
152,256,27436,1,0,0:0:0
32,224,27743,2,0,B|16:144|88:96,1,134.999992847443
136,104,28355,2,0,B|240:104,1,89.9999952316283,2|0,0:0|0:0,0:0:0
328,176,28967,2,0,B|208:176,1,89.9999952316283
336,96,29579,5,2,0:0:0
456,128,29885,1,0,0:0:0
456,256,30192,2,0,B|432:312,1,44.9999976158142,8|0,0:0|0:0,0:0:0
320,328,30651,1,0,0:0:0
342,288,30804,2,0,B|216:288,1,89.9999952316283,2|0,0:0|0:0,0:0:0
128,288,31416,2,0,B|64:288|48:208,1,89.9999952316283,8|0,0:0|0:0,0:0:0
104,128,32028,5,2,0:0:0
192,40,32334,1,0,0:0:0
288,120,32640,2,0,B|352:112,1,44.9999976158142,8|0,0:0|0:0,0:0:0
440,176,33100,1,0,0:0:0
403,181,33253,2,0,B|451:95,1,89.9999952316283,2|0,0:0|0:0,0:0:0
336,48,33865,2,0,B|232:48,1,89.9999952316283,8|0,0:0|0:0,0:0:0
128,88,34477,5,2,0:0:0
72,200,34783,1,0,0:0:0
200,192,35089,2,0,B|248:232,1,44.9999976158142,8|0,0:0|0:0,0:0:0
256,344,35549,1,0,0:0:0
221,315,35702,2,0,B|332:315,1,89.9999952316283,2|0,0:0|0:0,0:0:0
416,248,36314,2,0,B|504:192,1,89.9999952316283,8|0,0:0|0:0,0:0:0
400,112,36926,5,2,0:0:0
296,40,37232,1,0,0:0:0
248,160,37538,2,0,B|176:152,1,44.9999976158142,8|0,0:0|0:0,0:0:0
96,88,37998,1,0,0:0:0
72,144,38151,2,0,B|48:200|80:272,1,89.9999952316283,2|0,0:0|0:0,0:0:0
24,352,38763,2,8,B|128:352,1,89.9999952316283
232,304,39375,6,0,B|288:288|304:224,2,89.9999952316283,2|0|8,0:0|0:0|0:0,0:0:0
184,184,40294,1,0,0:0:0
168,168,40447,1,8,0:0:0
152,152,40600,2,0,B|152:56,1,89.9999952316283
56,144,41212,2,0,B|56:248,1,89.9999952316283,8|0,0:0|0:0,0:0:0
16,280,41671,1,0,0:0:0
56,328,41824,6,0,B|56:352|88:368|88:368|152:368,1,89.9999952316283,4|0,0:0|0:0,0:0:0
224,296,42436,1,8,0:0:0
336,352,42743,2,0,B|416:352,1,44.9999976158142,0|8,0:0|0:0,0:0:0
440,352,43049,2,0,B|488:320|464:232,1,89.9999952316283
392,184,43661,2,0,B|328:112,1,89.9999952316283,8|0,0:0|0:0,0:0:0
272,96,44120,1,0,0:0:0
272,160,44273,6,0,B|336:232,2,89.9999952316283,4|0|8,0:0|0:0|0:0,0:0:0
144,160,45191,1,0,0:0:0
136,176,45345,1,8,0:0:0
128,192,45498,2,0,B|16:192,1,89.9999952316283,4|0,0:0|0:0,0:0:0
32,320,46110,2,0,B|144:320,1,89.9999952316283,8|0,0:0|0:0,0:0:0
144,344,46569,1,0,0:0:0
168,376,46722,1,4,0:0:0
256,192,47028,12,0,48559,0:0:0
256,96,49171,5,4,0:0:0
368,152,49477,1,4,0:0:0
312,264,49783,1,10,0:0:0
184,264,50089,2,0,B|128:264,1,44.9999976158143,0|2,0:0|0:0,0:0:0
72,264,50396,2,0,B|0:344,2,89.9999952316285,0|0|8,0:0|0:0|0:0,0:0:0
72,136,51314,2,0,B|72:80,1,44.9999976158143,0|8,0:0|0:0,0:0:0
72,32,51620,5,4,0:0:0
192,64,51926,1,4,0:0:0
312,32,52232,1,8,0:0:0
416,96,52538,2,0,B|368:64,1,44.9999976158143,0|2,0:0|0:0,0:0:0
378,71,52845,2,4,B|410:175,1,89.9999952316285
392,280,53457,2,0,B|352:336,1,44.9999976158143,8|0,0:0|0:0,0:0:0
368,280,53763,2,8,B|311:318,1,44.9999976158143
336,280,54069,6,0,B|240:280,1,89.9999952316285,4|4,0:0|0:0,0:0:0
160,192,54681,1,10,0:0:0
112,304,54987,2,0,B|56:256,1,44.9999976158143,0|2,0:0|0:0,0:0:0
32,232,55294,2,4,B|32:104,1,89.9999952316285
104,40,55906,1,10,0:0:0
216,96,56212,2,0,B|272:96,1,44.9999976158143,0|8,0:0|0:0,0:0:0
320,96,56518,2,0,B|352:96|352:96|384:80|384:80|448:80,2,89.9999952316285,0|0|8,0:0|0:0|0:0,0:0:0
360,216,57436,2,0,B|384:288,1,44.9999976158143,0|2,0:0|0:0,0:0:0
400,320,57743,5,4,0:0:0
344,352,57896,1,0,0:0:0
280,336,58049,1,4,0:0:0
240,288,58202,1,0,0:0:0
184,264,58355,1,8,0:0:0
120,280,58508,1,0,0:0:0
88,336,58661,2,0,B|40:304,1,44.9999976158143,8|8,0:0|0:0,0:0:0
24,256,58967,6,0,B|64:240|80:152,1,89.9999952316285,4|0,0:0|0:0,0:0:0
24,64,59579,2,0,B|144:64,1,89.9999952316285,10|0,0:0|0:0,0:0:0
144,40,60038,1,0,0:0:0
176,16,60191,2,4,B|296:16,1,89.9999952316285
376,80,60804,1,2,0:0:0
296,184,61110,2,0,B|248:240,1,44.9999976158143
224,264,61416,6,4,B|104:264,1,89.9999952316285
136,368,62028,2,0,B|64:368|64:368|16:352|16:296,1,134.999992847443,10|0,0:0|0:0,0:0:0
24,264,62640,2,4,B|32:144,1,89.9999952316285
128,88,63253,2,0,B|168:32,1,44.9999976158143,8|0,0:0|0:0,0:0:0
152,88,63559,2,8,B|208:49,1,44.9999976158143
184,88,63865,6,0,B|280:88,1,89.9999952316285,4|0,0:0|0:0,0:0:0
328,296,64477,2,0,B|232:296,1,89.9999952316285,8|0,0:0|0:0,0:0:0
360,120,65089,2,0,B|360:216,1,89.9999952316285,2|0,0:0|0:0,0:0:0
152,264,65702,2,0,B|152:168,1,89.9999952316285,8|0,0:0|0:0,0:0:0
128,152,66161,1,2,0:0:0
104,128,66314,6,4,B|104:32,1,89.9999952316285,0|0,0:0|0:0,0:0:0
224,80,66926,1,8,0:0:0
352,72,67232,2,0,B|400:48,1,44.9999976158143,0|8,0:0|0:0,0:0:0
352,72,67538,2,4,B|464:72,1,89.9999952316285
400,192,68151,1,8,0:0:0
384,208,68304,1,0,0:0:0
368,224,68457,1,8,0:0:0
352,240,68610,1,8,0:0:0
336,256,68763,6,0,B|224:256,1,89.9999952316285,4|0,0:0|0:0,0:0:0
144,184,69375,1,8,0:0:0
24,232,69681,2,0,B|88:232,1,44.9999976158143,0|2,0:0|0:0,0:0:0
24,232,69987,2,4,B|136:296,1,89.9999952316285
208,344,70600,2,0,B|328:344,1,89.9999952316285,8|0,0:0|0:0,0:0:0
320,320,71059,1,0,0:0:0
344,296,71212,6,4,B|432:296,1,89.9999952316285
504,192,71824,1,8,0:0:0
432,88,72130,2,0,B|384:88,1,44.9999976158143,0|2,0:0|0:0,0:0:0
336,120,72436,2,4,B|216:120,1,89.9999952316285
128,72,73049,2,0,B|128:136,1,44.9999976158143,8|0,0:0|0:0,0:0:0
80,160,73355,2,8,B|80:232,1,44.9999976158143
80,264,73661,6,0,B|120:320|192:272,1,89.9999952316285,4|4,0:0|0:0,0:0:0
214,176,74273,2,0,B|232:160|280:160|301:177,1,89.9999952316285,8|0,0:0|0:0,0:0:0
353,289,74885,2,4,B|400:304|432:264,1,89.9999952316285
448,232,75345,1,0,0:0:0
464,200,75498,2,0,B|464:104,1,89.9999952316285,8|0,0:0|0:0,0:0:0
344,64,76110,6,0,B|296:80,1,44.9999976158143,4|0,0:0|0:0,0:0:0
344,64,76416,2,0,B|320:112,1,44.9999976158143,4|0,0:0|0:0,0:0:0
344,64,76722,2,0,B|344:192,1,89.9999952316285,8|0,0:0|0:0,0:0:0
168,64,77334,2,0,B|216:80,1,44.9999976158143,4|0,0:0|0:0,0:0:0
168,64,77640,2,0,B|192:112,1,44.9999976158143,4|0,0:0|0:0,0:0:0
168,64,77947,2,0,B|168:192,1,89.9999952316285,8|8,0:0|0:0,0:0:0
144,176,78406,1,8,0:0:0
120,200,78559,6,4,B|120:312,1,89.9999952316285
224,360,79171,1,8,0:0:0
240,232,79477,1,0,0:0:0
344,304,79783,2,4,B|400:304|424:264,1,89.9999952316285
456,216,80243,1,0,0:0:0
400,184,80396,2,0,B|312:136,1,89.9999952316285,8|0,0:0|0:0,0:0:0
312,80,80855,1,8,0:0:0
256,112,81008,6,4,B|168:160,1,89.9999952316285
120,272,81620,2,0,B|208:224,1,89.9999952316285,8|0,0:0|0:0,0:0:0
256,256,82079,1,8,0:0:0
248,320,82232,2,4,B|160:368,1,89.9999952316285
40,360,82845,1,8,0:0:0
40,232,83151,1,8,0:0:0
56,200,83304,1,8,0:0:0
72,168,83457,6,4,B|168:168,1,89.9999952316285
216,56,84069,1,8,0:0:0
328,112,84375,2,0,B|392:112,1,44.9999976158143,0|8,0:0|0:0,0:0:0
328,112,84681,2,4,B|440:176,1,89.9999952316285
440,280,85294,1,8,0:0:0
320,304,85600,2,0,B|264:304,1,44.9999976158143
224,344,85906,6,4,B|104:344,1,89.9999952316285
88,224,86518,2,0,B|104:264,1,44.9999976158143,8|0,0:0|0:0,0:0:0
128,144,86977,2,0,B|96:96,1,44.9999976158143,0|4,0:0|0:0,0:0:0
128,144,87283,2,0,B|128:88,1,44.9999976158143,0|4,0:0|0:0,0:0:0
128,144,87589,2,0,B|160:96,1,44.9999976158143
128,144,87896,2,0,B|168:123,1,44.9999976158143,0|8,0:0|0:0,0:0:0
156,204,88202,1,8,0:0:0
184,144,88355,6,0,B|288:144,1,89.9999952316285,4|4,0:0|0:0,0:0:0
384,208,88967,1,8,0:0:0
360,256,89120,2,0,B|248:256,1,89.9999952316285
224,296,89579,2,0,B|192:320|192:320|112:320,2,89.9999952316285,4|4|8,0:0|0:0|0:0,0:0:0
144,200,90498,1,8,0:0:0
120,176,90651,1,8,0:0:0
96,152,90804,6,4,B|96:56,1,89.9999952316285
216,88,91416,2,0,B|272:104,1,44.9999976158143,8|0,0:0|0:0,0:0:0
384,88,91875,2,0,B|328:72,1,44.9999976158143,0|4,0:0|0:0,0:0:0
384,192,92334,1,4,0:0:0
392,212,92487,1,0,0:0:0
392,236,92640,1,8,0:0:0
384,256,92794,1,0,0:0:0
368,272,92947,1,8,0:0:0
348,280,93100,1,8,0:0:0
324,280,93253,1,4,0:0:0
256,80,98151,5,4,0:0:0
256,304,98457,1,2,0:0:0
216,232,98610,1,0,0:0:0
296,232,98763,1,8,0:0:0
456,192,99069,6,0,B|400:192,1,44.9999976158143
360,128,99375,1,6,0:0:0
336,48,99528,1,0,0:0:0
256,72,99681,1,4,0:0:0
280,152,99834,1,0,0:0:0
360,80,99987,1,10,0:0:0
286,40,100140,1,0,0:0:0
248,112,100294,1,2,0:0:0
320,153,100447,1,2,0:0:0
286,40,100600,6,0,B|176:40,1,89.9999952316285,4|2,0:0|0:0,0:0:0
120,72,101059,1,0,0:0:0
80,144,101212,2,0,B|16:240,1,89.9999952316285,10|0,0:0|0:0,0:0:0
8,296,101671,1,0,0:0:0
80,336,101824,5,6,0:0:0
120,264,101977,1,0,0:0:0
184,216,102130,1,4,0:0:0
224,288,102283,1,0,0:0:0
288,344,102436,2,0,B|360:344,1,44.9999976158143,10|0,0:0|0:0,0:0:0
392,288,102743,2,2,B|464:288,1,44.9999976158143
488,224,103049,5,4,0:0:0
392,96,103355,1,2,0:0:0
320,56,103508,1,0,0:0:0
248,96,103661,2,0,B|120:96,1,89.9999952316285,8|0,0:0|0:0,0:0:0
96,144,104120,1,0,0:0:0
128,216,104273,6,0,B|88:264,1,44.9999976158143,6|0,0:0|0:0,0:0:0
152,192,104579,2,0,B|97:223,1,44.9999976158143,4|0,0:0|0:0,0:0:0
184,176,104885,2,0,B|122:187,1,44.9999976158143,10|0,0:0|0:0,0:0:0
216,168,105191,2,2,B|154:157,1,44.9999976158143
256,168,105498,6,0,B|168:112,1,89.9999952316285,4|2,0:0|0:0,0:0:0
136,48,105957,1,0,0:0:0
216,48,106110,2,0,B|248:48|248:48|280:40|280:40|320:40,1,89.9999952316285,8|0,0:0|0:0,0:0:0
384,40,106569,1,0,0:0:0
424,112,106722,5,6,0:0:0
344,136,106875,1,0,0:0:0
448,192,107028,1,4,0:0:0
368,216,107181,1,0,0:0:0
433,90,107334,5,10,0:0:0
323,123,107487,1,0,0:0:0
466,200,107640,1,10,0:0:0
356,233,107794,1,10,0:0:0
240,264,107947,6,0,B|272:312|344:312,1,89.9999952316285,4|2,0:0|0:0,0:0:0
392,328,108406,1,0,0:0:0
314,309,108559,2,0,B|271:306|239:354,1,89.9999952316285,8|0,0:0|0:0,0:0:0
160,352,109018,1,0,0:0:0
112,288,109171,6,0,B|72:224,1,44.9999976158143,6|0,0:0|0:0,0:0:0
104,112,109477,2,0,B|144:176,1,44.9999976158143,4|0,0:0|0:0,0:0:0
21,206,109783,2,0,B|85:166,1,44.9999976158143,10|0,0:0|0:0,0:0:0
197,198,110089,2,2,B|133:238,1,44.9999976158143,0|0,0:0|0:0,0:0:0
236,196,110396,6,0,B|364:196,1,89.9999952316285,4|2,0:0|0:0,0:0:0
400,168,110855,1,0,0:0:0
336,120,111008,1,8,0:0:0
184,64,111314,2,0,B|120:64,1,44.9999976158143
112,136,111620,5,6,0:0:0
168,200,111773,1,0,0:0:0
80,128,111926,1,4,0:0:0
192,208,112079,1,0,0:0:0
40,144,112232,1,10,0:0:0
232,192,112385,1,0,0:0:0
24,176,112538,1,2,0:0:0
248,160,112691,1,2,0:0:0
32,216,112845,6,0,B|88:304,1,89.9999952316285,4|2,0:0|0:0,0:0:0
152,328,113304,1,0,0:0:0
216,272,113457,2,0,B|312:272,1,89.9999952316285,8|0,0:0|0:0,0:0:0
368,328,113916,1,0,0:0:0
440,288,114069,5,6,0:0:0
440,368,114222,1,0,0:0:0
432,232,114375,1,4,0:0:0
459,307,114528,1,0,0:0:0
424,176,114681,1,10,0:0:0
475,237,114834,1,0,0:0:0
400,128,114987,1,2,0:0:0
468,167,115140,1,2,0:0:0
368,88,115294,6,0,B|240:88,1,89.9999952316285,4|2,0:0|0:0,0:0:0
216,136,115753,1,0,0:0:0
152,184,115906,2,0,B|48:184,1,89.9999952316285,8|0,0:0|0:0,0:0:0
96,256,116365,1,0,0:0:0
32,312,116518,5,6,0:0:0
176,288,116671,1,0,0:0:0
48,344,116824,1,4,0:0:0
200,280,116977,1,0,0:0:0
88,360,117130,1,10,0:0:0
240,296,117283,1,0,0:0:0
120,352,117436,1,10,0:0:0
256,328,117589,1,10,0:0:0
336,336,117743,6,0,B|384:352|432:304,1,89.9999952316285,4|2,0:0|0:0,0:0:0
464,248,118202,1,0,0:0:0
424,176,118355,2,0,B|388:139|340:155,1,89.9999952316285,8|0,0:0|0:0,0:0:0
280,208,118814,1,0,0:0:0
200,208,118967,6,0,B|128:208,1,44.9999976158143,6|0,0:0|0:0,0:0:0
32,136,119273,2,0,B|104:136,1,44.9999976158143,4|0,0:0|0:0,0:0:0
208,224,119579,2,0,B|136:224,1,44.9999976158143,10|0,0:0|0:0,0:0:0
40,152,119885,2,2,B|112:152,1,44.9999976158143,2|2,0:0|0:0,0:0:0
216,240,120191,6,0,B|248:240|248:240|272:232|272:232|328:232,1,89.9999952316285,4|2,0:0|0:0,0:0:0
304,312,120651,1,0,0:0:0
376,272,120804,2,0,B|408:272|408:272|432:264|432:264|488:264,1,89.9999952316285,8|0,0:0|0:0,0:0:0
440,184,121263,1,0,0:0:0
397,114,121416,5,6,0:0:0
421,34,121569,1,0,0:0:0
341,58,121722,2,0,B|261:82,1,44.9999976158143,4|0,0:0|0:0,0:0:0
216,72,122028,2,0,B|172:59,1,44.9999976158143,10|0,0:0|0:0,0:0:0
92,33,122334,1,2,0:0:0
116,113,122487,1,2,0:0:0
80,184,122640,6,0,B|64:256|144:272,1,89.9999952316285,4|2,0:0|0:0,0:0:0
56,328,123100,1,0,0:0:0
136,328,123253,2,0,B|168:328|168:328|192:336|192:336|256:336,1,89.9999952316285,8|0,0:0|0:0,0:0:0
272,272,123712,1,0,0:0:0
336,320,123865,5,6,0:0:0
416,336,124018,1,0,0:0:0
352,240,124171,1,4,0:0:0
432,256,124324,1,0,0:0:0
328,160,124477,1,10,0:0:0
428,180,124630,1,0,0:0:0
348,60,124783,1,2,0:0:0
448,80,124936,1,2,0:0:0
240,64,125089,6,0,B|192:96|128:72,1,89.9999952316285,4|2,0:0|0:0,0:0:0
80,40,125549,1,0,0:0:0
88,120,125702,2,0,B|96:224,1,89.9999952316285,8|0,0:0|0:0,0:0:0
48,280,126161,1,0,0:0:0
112,328,126314,5,6,0:0:0
160,264,126467,1,0,0:0:0
232,304,126620,2,0,B|288:304,1,44.9999976158143,4|0,0:0|0:0,0:0:0
320,232,126926,2,0,B|264:232,1,44.9999976158143,10|0,0:0|0:0,0:0:0
200,336,127232,2,8,B|272:336,1,44.9999976158143,10|10,0:0|0:0,0:0:0
350,212,127538,6,0,B|448:136,1,89.9999952316285,4|2,0:0|0:0,0:0:0
480,96,127998,1,0,0:0:0
408,56,128151,2,0,B|360:24|296:48,1,89.9999952316285,8|0,0:0|0:0,0:0:0
280,112,128610,1,0,0:0:0
200,120,128763,5,6,0:0:0
40,144,128916,1,0,0:0:0
120,104,129069,1,4,0:0:0
0,216,129222,1,0,0:0:0
48,64,129375,1,10,0:0:0
80,232,129528,1,0,0:0:0
40,144,129681,1,2,0:0:0
152,272,129834,1,2,0:0:0
192,344,129987,6,0,B|240:360|288:336,1,89.9999952316285,4|2,0:0|0:0,0:0:0
328,272,130447,1,0,0:0:0
376,208,130600,2,0,B|415:187|463:203,1,89.9999952316285,8|0,0:0|0:0,0:0:0
456,120,131059,1,0,0:0:0
408,56,131212,5,6,0:0:0
256,72,131365,1,0,0:0:0
328,40,131518,1,4,0:0:0
216,144,131671,1,0,0:0:0
296,144,131824,1,10,0:0:0
184,40,131977,1,0,0:0:0
256,72,132130,1,2,0:0:0
104,56,132283,1,2,0:0:0
72,128,132436,6,0,B|56:184|96:248,1,89.9999952316285,4|2,0:0|0:0,0:0:0
48,288,132896,1,0,0:0:0
128,288,133049,2,0,B|160:288|160:288|192:304|192:304|224:304,1,89.9999952316285,8|0,0:0|0:0,0:0:0
248,232,133508,1,0,0:0:0
320,272,133661,5,6,0:0:0
360,344,133814,1,0,0:0:0
440,200,133967,1,4,0:0:0
400,272,134120,1,0,0:0:0
240,128,134273,1,10,0:0:0
280,200,134426,1,0,0:0:0
480,128,134579,1,2,0:0:0
400,128,134732,1,2,0:0:0
320,128,134885,6,0,B|328:72|256:40,1,89.9999952316285,4|2,0:0|0:0,0:0:0
199,53,135345,1,0,0:0:0
160,120,135498,2,0,B|128:160|56:160,1,89.9999952316285,8|0,0:0|0:0,0:0:0
256,192,136110,12,4,137334,0:0:0
