osu file format v11

[General]
AudioFilename: DJ Okawari - Canon.mp3
AudioLeadIn: 0
PreviewTime: 97833
Countdown: 0
SampleSet: Soft
StackLeniency: 0.7
Mode: 0
LetterboxInBreaks: 0

[Editor]
Bookmarks: 19771,147118
DistanceSpacing: 1.4
BeatDivisor: 4
GridSize: 4

[Metadata]
Title:Canon (Short Ver.)
TitleUnicode:Canon (Short Ver.)
Artist:DJ Okawari
ArtistUnicode:DJ Okawari
Creator:backstep
Version:Restful
Source:
Tags:Johann Pachelbel spboxer3 bossandy cohana 2nd~ oriental classical
BeatmapID:139312
BeatmapSetID:44305

[Difficulty]
HPDrainRate:4
CircleSize:3
OverallDifficulty:4
ApproachRate:4
SliderMultiplier:1.49999990463257
SliderTickRate:2

[Events]
//Background and Video events
0,0,"Canon-BG.jpg"
//Break Periods
2,93453,96831
//Storyboard Layer 0 (Background)
//Storyboard Layer 1 (Fail)
//Storyboard Layer 2 (Pass)
//Storyboard Layer 3 (Foreground)
Sprite,Foreground,Centre,"SB\clouds-0.png",320,240 S,0,0,,0.7030402 M,0,0,137334,561,140,-36,140 F,0,137028,137334,1,0
Sprite,Foreground,Centre,"spinner-metre.png",320,240 S,0,93253,,0.6825598 F,0,93253,93559,0,1 M,0,93253,98151,327,243 F,0,93559,96926,1 F,0,96926,98151,1,0
Sprite,Foreground,Centre,"SB\Ring.png",320,240 M,0,98151,,320,240 F,0,98151,99069,1 S,0,98151,99375,0.1,2.8136 F,0,99069,99375,1,0
Sprite,Foreground,Centre,"SB\Mini Light.png",320,240 F,0,98151,98763,1 S,0,98151,99375,0.1,1.124 R,0,98151,99375,0,-3.11296 F,0,98763,99375,1,0
Sprite,Foreground,Centre,"SB\Ring.png",320,240 R,0,117743,,0 F,0,117743,118661,1 S,0,117743,118967,0.1,2.9672 F,0,118661,118967,1,0
Sprite,Foreground,Centre,"SB\Mini Light.png",320,240 F,0,117743,118661,1 S,0,117743,118967,0.1,1.06256 R,0,117743,118967,0,-2.43712 F,0,118661,118967,1,0
Sprite,Foreground,Centre,"SB\Ring.png",320,240 F,0,137334,137947,1 S,0,137334,138559,0.1,2.85456 F,0,137947,138559,1,0
Sprite,Foreground,Centre,"SB\Mini Light.png",320,240 F,0,137334,137947,1 S,0,137334,138559,0.1,1.00112 R,0,137334,138559,0,-1.78176 F,0,137947,138559,1,0
Sprite,Foreground,TopLeft,"SB\pole.png",10,0 F,0,0,153391,1
//Storyboard Sound Samples
//Background Colour Transformations
3,100,163,162,255

[TimingPoints]
192,612.244897959184,4,1,0,100,1,0
19783,-200,4,2,2,40,0,0
24528,-200,4,2,2,30,0,0
33865,-200,4,2,2,10,0,0
34018,-200,4,2,2,30,0,0
35089,-200,4,2,2,20,0,0
35243,-200,4,2,2,30,0,0
37232,-200,4,2,1,30,0,0
37385,-200,4,2,2,30,0,0
39222,-133.333333333333,4,2,2,30,0,0
39528,-133.333333333333,4,2,2,50,0,0
40447,-133.333333333333,4,2,1,50,0,0
40753,-133.333333333333,4,2,2,50,0,0
41518,-133.333333333333,4,2,1,50,0,0
42283,-133.333333333333,4,2,2,50,0,0
42896,-133.333333333333,4,2,1,50,0,0
43202,-133.333333333333,4,2,2,50,0,0
44273,-133.333333333333,4,2,1,50,0,0
44426,-133.333333333333,4,2,2,50,0,0
45345,-133.333333333333,4,2,1,50,0,0
45651,-133.333333333333,4,2,2,50,0,0
46646,-200,4,2,0,50,0,0
46799,-200,4,2,2,50,0,0
49171,-133.333333333333,4,2,2,70,0,0
50089,-133.333333333333,4,2,1,70,0,0
50855,-133.333333333333,4,2,2,70,0,0
51467,-133.333333333333,4,2,1,70,0,0
52079,-133.333333333333,4,2,2,70,0,0
52692,-133.333333333333,4,2,1,70,0,0
53151,-133.333333333333,4,2,2,70,0,0
53763,-133.333333333333,4,2,1,70,0,0
54528,-133.333333333333,4,2,2,70,0,0
55140,-133.333333333333,4,2,1,70,0,0
55600,-133.333333333333,4,2,2,70,0,0
56365,-133.333333333333,4,2,1,70,0,0
56977,-133.333333333333,4,2,2,70,0,0
57589,-133.333333333333,4,2,1,70,0,0
58049,-133.333333333333,4,2,2,70,0,0
58967,-133.333333333333,4,2,1,70,0,0
59426,-133.333333333333,4,2,2,70,0,0
59732,-133.333333333333,4,2,1,70,0,0
60651,-133.333333333333,4,2,2,70,0,0
60957,-133.333333333333,4,2,1,70,0,0
61875,-133.333333333333,4,2,2,70,0,0
62181,-133.333333333333,4,2,1,70,0,0
63253,-133.333333333333,4,2,2,70,0,0
63712,-133.333333333333,4,2,1,70,0,0
64477,-133.333333333333,4,2,2,70,0,0
64630,-133.333333333333,4,2,1,70,0,0
65702,-133.333333333333,4,2,2,70,0,0
65855,-133.333333333333,4,2,1,70,0,0
66926,-133.333333333333,4,2,2,70,0,0
67079,-133.333333333333,4,2,1,70,0,0
68151,-133.333333333333,4,2,2,70,0,0
68610,-133.333333333333,4,2,1,70,0,0
69375,-133.333333333333,4,2,2,70,0,0
69681,-133.333333333333,4,2,1,70,0,0
70600,-133.333333333333,4,2,2,70,0,0
70753,-133.333333333333,4,2,1,70,0,0
71824,-133.333333333333,4,2,2,70,0,0
71977,-133.333333333333,4,2,1,70,0,0
73049,-133.333333333333,4,2,2,70,0,0
73508,-133.333333333333,4,2,1,70,0,0
74273,-133.333333333333,4,2,2,70,0,0
74426,-133.333333333333,4,2,1,70,0,0
75498,-133.333333333333,4,2,2,70,0,0
75651,-133.333333333333,4,2,1,70,0,0
76722,-133.333333333333,4,2,2,70,0,0
76875,-133.333333333333,4,2,1,70,0,0
77947,-133.333333333333,4,2,2,70,0,0
78406,-133.333333333333,4,2,1,70,0,0
79171,-133.333333333333,4,2,2,70,0,0
79324,-133.333333333333,4,2,1,70,0,0
80396,-133.333333333333,4,2,2,70,0,0
80549,-133.333333333333,4,2,1,70,0,0
81620,-133.333333333333,4,2,2,70,0,0
81773,-133.333333333333,4,2,1,70,0,0
82845,-133.333333333333,4,2,2,70,0,0
83304,-133.333333333333,4,2,1,70,0,0
84069,-133.333333333333,4,2,2,70,0,0
84222,-133.333333333333,4,2,1,70,0,0
85294,-133.333333333333,4,2,2,70,0,0
85447,-133.333333333333,4,2,1,70,0,0
86518,-133.333333333333,4,2,2,70,0,0
86671,-133.333333333333,4,2,1,70,0,0
87743,-133.333333333333,4,2,2,70,0,0
88202,-133.333333333333,4,2,1,70,0,0
88967,-133.333333333333,4,2,2,70,0,0
89120,-133.333333333333,4,2,1,70,0,0
90192,-133.333333333333,4,2,2,70,0,0
90345,-133.333333333333,4,2,1,70,0,0
91416,-133.333333333333,4,2,2,70,0,0
91569,-133.333333333333,4,2,1,70,0,0
92640,-133.333333333333,4,2,2,70,0,0
93100,-133.333333333333,4,2,0,70,0,0
98151,-100,4,2,0,80,0,1
98763,-100,4,2,2,100,0,1
98916,-100,4,2,1,100,0,1
99987,-100,4,2,2,100,0,1
100140,-100,4,2,1,100,0,1
101212,-100,4,2,2,100,0,1
101365,-100,4,2,1,100,0,1
102436,-100,4,2,2,100,0,1
103049,-100,4,2,1,100,0,1
103661,-100,4,2,2,100,0,1
103814,-100,4,2,1,100,0,1
104885,-100,4,2,2,100,0,1
105038,-100,4,2,1,100,0,1
106110,-100,4,2,2,100,0,1
106263,-100,4,2,1,100,0,1
107334,-100,4,2,2,100,0,1
107794,-100,4,2,1,100,0,1
108559,-100,4,2,2,100,0,1
108712,-100,4,2,1,100,0,1
109783,-100,4,2,2,100,0,1
109936,-100,4,2,1,100,0,1
111008,-100,4,2,2,100,0,1
111161,-100,4,2,1,100,0,1
112232,-100,4,2,2,100,0,1
112692,-100,4,2,1,100,0,1
113457,-100,4,2,2,100,0,1
113610,-100,4,2,1,100,0,1
114681,-100,4,2,2,100,0,1
114834,-100,4,2,1,100,0,1
115906,-100,4,2,2,100,0,1
116059,-100,4,2,1,100,0,1
117130,-100,4,2,2,100,0,1
117896,-100,4,2,2,100,0,1
118355,-100,4,2,2,100,0,1
118508,-100,4,2,1,100,0,1
119579,-100,4,2,2,100,0,1
119732,-100,4,2,1,100,0,1
120804,-100,4,2,2,100,0,1
120957,-100,4,2,1,100,0,1
122028,-100,4,2,2,100,0,1
122487,-100,4,2,1,100,0,1
123253,-100,4,2,2,100,0,1
123406,-100,4,2,1,100,0,1
124477,-100,4,2,2,100,0,1
124630,-100,4,2,1,100,0,1
125702,-100,4,2,2,100,0,1
125855,-100,4,2,1,100,0,1
126926,-100,4,2,2,100,0,1
127385,-100,4,2,1,100,0,1
128151,-100,4,2,2,100,0,1
128304,-100,4,2,1,100,0,1
129375,-100,4,2,2,100,0,1
129528,-100,4,2,1,100,0,1
130600,-100,4,2,2,100,0,1
130753,-100,4,2,1,100,0,1
131824,-100,4,2,2,100,0,1
132283,-100,4,2,1,100,0,1
133049,-100,4,2,2,100,0,1
133202,-100,4,2,1,100,0,1
134273,-100,4,2,2,100,0,1
134426,-100,4,2,1,100,0,1
135498,-100,4,2,2,100,0,1
135651,-100,4,2,1,100,0,1
136722,-100,4,2,2,100,0,1
137334,-100,4,2,0,100,0,0

[Colours]
Combo1 : 202,249,155
Combo2 : 0,128,192
SliderBorder : 202,249,155

[HitObjects]
256,48,19783,1,2,0:0:0
324,128,20396,2,0,B|364:128|388:96,2,74.9999952316285,0|2|0,0:0|0:0|0:0,0:0:0
256,208,22232,2,0,B|208:208|192:112|136:112,1,149.999990463257,2|2,0:0|0:0,0:0:0
40,112,24069,1,0,0:0:0
100,200,24681,6,0,B|81:263|114:295|114:295|164:310,1,149.999990463257,2|2,0:0|0:0,0:0:0
256,264,26518,1,0,0:0:0
320,348,27130,1,2,0:0:0
416,304,27743,1,0,0:0:0
416,304,28355,2,0,B|464:258|451:214|451:214|416:176,1,149.999990463257,2|2,0:0|0:0,0:0:0
381,140,29885,6,0,B|349:108,1,37.4999976158143,0|0,0:0|0:0,0:0:0
256,72,30804,2,0,B|256:32,2,37.4999976158143,2|0|0,0:0|0:0|0:0,0:0:0
157,113,32028,6,0,B|131:140,2,37.4999976158143,2|0|0,0:0|0:0|0:0,0:0:0
256,152,33253,2,0,B|256:200,2,37.4999976158143,2|0|8,0:0|0:0|0:0,0:0:0
160,112,34477,5,2,0:0:0
76,52,35089,1,8,0:0:0
4,128,35702,1,2,0:0:0
92,184,36314,1,8,0:0:0
96,296,36926,6,0,B|48:296,2,37.4999976158143,2|4|8,0:0|0:0|0:0,0:0:0
144,320,37845,1,0,0:0:0
192,296,38151,2,0,B|280:296,1,74.9999952316285,2|8,0:0|0:0,0:0:0
424,288,39375,6,0,B|424:160,1,112.499989494682,4|8,0:0|0:0,0:0:0
368,120,40294,1,0,0:0:0
424,64,40600,2,0,B|424:32|456:16,2,56.2499947473409,6|0|8,0:0|0:0|0:0,0:0:0
368,120,41518,1,4,0:0:0
288,120,41824,6,0,B|240:168|168:168,2,112.499989494682,6|8|6,0:0|0:0|0:0,0:0:0
240,56,43355,1,0,0:0:0
160,56,43661,1,8,0:0:0
104,112,43967,1,8,0:0:0
24,112,44273,6,0,B|24:248,1,112.499989494682,6|8,0:0|0:0,0:0:0
136,336,45498,1,6,0:0:0
216,336,45804,2,0,B|248:336|272:312,1,56.2499947473409,0|8,0:0|0:0,0:0:0
320,256,46416,2,0,B|344:232|376:232,1,56.2499947473409,2|4,0:0|0:0,0:0:0
256,192,46875,12,4,49171,0:0:0
296,248,49783,5,8,0:0:0
152,312,50396,1,6,0:0:0
212,256,50702,2,0,P|212:224|184:200,1,56.2499985694885,0|0,0:0|0:0,0:0:0
140,152,51314,2,0,P|120:124|116:84,2,56.2499985694885,0|2|0,0:0|0:0|0:0,0:0:0
200,88,52232,6,0,B|256:56|320:96,1,112.499989494682,8|6,0:0|0:0,0:0:0
360,144,53151,2,0,B|408:192,2,56.2499947473409,0|8|4,0:0|0:0|0:0,0:0:0
304,200,54069,6,0,B|264:256|312:320,1,112.499989494682,6|8,0:0|0:0,0:0:0
380,324,54987,2,0,B|436:324,2,56.2499947473409,0|6|0,0:0|0:0|0:0,0:0:0
301,306,55906,1,10,0:0:0
224,323,56212,1,0,0:0:0
144,304,56518,6,0,B|144:240|96:200,1,112.499989494682,6|8,0:0|0:0,0:0:0
152,56,57743,2,0,B|152:120|208:160,1,112.499989494682,6|8,0:0|0:0,0:0:0
256,96,58661,1,8,0:0:0
312,152,58967,6,0,B|344:128|344:96,1,56.2499947473409,6|0,0:0|0:0,0:0:0
408,64,59579,2,0,B|432:40|472:40,2,56.2499947473409,8|4|6,0:0|0:0|0:0,0:0:0
440,136,60498,2,0,B|456:168|496:168,2,56.2499947473409,0|8|0,0:0|0:0|0:0,0:0:0
408,64,61416,5,6,0:0:0
256,32,62028,1,8,0:0:0
104,64,62640,1,6,0:0:0
56,128,62947,2,0,B|28:140|20:172,2,56.2499985694885,0|8|8,0:0|0:0|0:0,0:0:0
108,188,63865,6,0,B|89:212|98:244,2,56.2499985694885,2|0|8,0:0|0:0|0:0,0:0:0
176,228,64783,2,0,B|172:258|196:281,1,56.2499985694885,2|2,0:0|0:0,0:0:0
272,292,65396,1,0,0:0:0
336,244,65702,1,8,0:0:0
344,164,66008,1,2,0:0:0
284,112,66314,6,0,B|324:72|396:72,1,112.499989494682,6|8,0:0|0:0,0:0:0
464,56,67232,2,0,P|454:25|431:3,2,56.2499985694885,2|2|0,0:0|0:0|0:0,0:0:0
432,128,68151,1,8,0:0:0
464,200,68457,1,10,0:0:0
432,272,68763,6,0,B|304:272,1,112.499989494682,6|8,0:0|0:0,0:0:0
180,340,69987,1,6,0:0:0
120,288,70294,2,0,B|93:275|77:250,2,56.2499947473409,0|8|0,0:0|0:0|0:0,0:0:0
152,216,71212,6,0,B|116:168|156:112,1,112.499989494682,6|8,0:0|0:0,0:0:0
216,168,72130,2,0,B|288:168,1,56.2499947473409,4|6,0:0|0:0,0:0:0
272,88,72743,2,0,B|240:88|216:48,2,56.2499947473409,0|8|8,0:0|0:0|0:0,0:0:0
338,130,73661,6,0,B|394:186|330:250,1,112.499989494682,6|8,0:0|0:0,0:0:0
424,256,74579,2,0,B|440:216|488:216,2,56.2499947473409,6|6|0,0:0|0:0|0:0,0:0:0
368,312,75498,2,0,B|288:312,1,56.2499947473409,8|2,0:0|0:0,0:0:0
232,312,76110,6,0,B|200:312|200:312|160:296|160:296|124:296,1,112.499989494682,6|8,0:0|0:0,0:0:0
232,180,77334,2,0,B|200:180|200:180|160:164|160:164|124:164,1,112.499989494682,6|8,0:0|0:0,0:0:0
80,232,78253,1,8,0:0:0
80,232,78559,6,0,B|40:200|40:172|40:140|56:120,1,112.499989494682,2|8,0:0|0:0,0:0:0
80,60,79477,1,6,0:0:0
160,60,79783,2,0,B|272:60,1,112.499989494682,6|8,0:0|0:0,0:0:0
352,60,80702,1,2,0:0:0
352,60,81008,6,0,B|416:60|464:108,2,112.499989494682,6|8|6,0:0|0:0|0:0,0:0:0
332,136,82538,2,0,B|293:124|271:85,2,56.2499947473409,0|8|2,0:0|0:0|0:0,0:0:0
400,172,83457,5,6,0:0:0
444,236,83763,1,0,0:0:0
432,312,84069,1,8,0:0:0
368,356,84375,2,0,P|308:360,1,56.2499985694885,6|6,0:0|0:0,0:0:0
240,332,84987,1,0,0:0:0
200,264,85294,1,8,0:0:0
216,188,85600,1,2,0:0:0
176,120,85906,6,0,P|212:60,2,56.2499985694885,6|0|8,0:0|0:0|0:0,0:0:0
100,96,86824,1,6,0:0:0
24,116,87130,1,6,0:0:0
4,192,87436,2,0,P|12:228|40:256,1,56.2499985694885,0|8,0:0|0:0,0:0:0
84,292,88049,1,10,0:0:0
160,316,88355,6,0,P|228:316,3,56.2499985694885,6|0|8|6,0:0|0:0|0:0|0:0,0:0:0
276,368,89579,2,0,P|334:334,3,56.2499985694885,6|0|8|2,0:0|0:0|0:0|0:0,0:0:0
404,348,90804,6,0,P|437:289,3,56.2499985694885,6|0|8|6,0:0|0:0|0:0|0:0,0:0:0
508,272,92028,2,0,P|508:204,3,56.2499985694885,6|0|0|8,0:0|0:0|0:0|0:0,0:0:0
508,136,93253,5,4,0:0:0
256,192,98151,5,4,0:0:0
48,260,98763,1,8,0:0:0
256,328,99375,1,4,0:0:0
358,305,99681,2,0,B|338:266|349:225,1,74.9999952316285,2|8,0:0|0:0,0:0:0
368,129,100294,1,2,0:0:0
448,192,100600,6,0,B|488:120|440:48,1,149.999990463257,4|8,0:0|0:0,0:0:0
368,128,101518,2,0,B|312:128|280:88,1,74.9999952316285,4|4,0:0|0:0,0:0:0
200,64,102130,2,0,B|168:40|120:40,2,74.9999952316285,2|8|8,0:0|0:0|0:0,0:0:0
216,168,103049,6,0,B|128:168|64:216,1,149.999990463257,4|8,0:0|0:0,0:0:0
16,296,103967,1,4,0:0:0
104,352,104273,1,4,0:0:0
168,272,104579,2,0,B|200:256|248:256,2,74.9999952316285,2|8|2,0:0|0:0|0:0,0:0:0
256,328,105498,6,0,B|304:320|328:256|296:208,1,149.999990463257,4|8,0:0|0:0,0:0:0
272,104,106416,1,4,0:0:0
376,72,106722,1,4,0:0:0
400,176,107028,2,0,B|448:176|480:144,2,74.9999952316285,2|8|8,0:0|0:0|0:0,0:0:0
304,220,107947,6,0,P|256:248|204:184|152:216,1,149.999990463257,0|8,0:0|0:0,0:0:0
128,312,108865,2,0,B|82:281|42:281,1,74.9999952316285,4|4,0:0|0:0,0:0:0
82,177,109477,2,0,B|32:160|0:176,2,74.9999952316285,2|8|2,0:0|0:0|0:0,0:0:0
128,80,110396,6,0,B|208:80|280:24,1,149.999990463257,4|8,0:0|0:0,0:0:0
336,112,111314,2,4,B|336:192,1,74.9999952316285
416,256,111926,2,0,B|416:344,2,74.9999952316285,2|8|8,0:0|0:0|0:0,0:0:0
336,328,112845,6,0,B|248:328|160:280,1,149.999990463257,4|8,0:0|0:0,0:0:0
112,224,113763,2,4,B|32:224,1,74.9999952316285
40,120,114375,2,0,B|128:120,1,74.9999952316285,2|8,0:0|0:0,0:0:0
208,176,114987,1,2,0:0:0
208,176,115294,6,0,B|288:176|360:120,1,149.999990463257,4|8,0:0|0:0,0:0:0
264,64,116212,1,4,0:0:0
264,64,116518,2,0,B|344:40,1,74.9999952316285,4|2,0:0|0:0,0:0:0
424,100,117130,2,0,B|344:132,1,74.9999952316285,8|8,0:0|0:0,0:0:0
384,228,117743,6,0,P|356:296|280:312,1,149.999990463257,4|8,0:0|0:0,0:0:0
184,292,118661,1,4,0:0:0
160,192,118967,1,4,0:0:0
184,92,119273,2,0,P|144:84|104:84,1,74.9999952316285,2|8,0:0|0:0,0:0:0
4,88,119885,1,2,0:0:0
52,180,120191,6,0,B|12:252|60:324,1,149.999990463257,4|8,0:0|0:0,0:0:0
144,260,121110,2,4,B|200:260|232:300,1,74.9999952316285
312,320,121722,2,0,B|344:344|392:344,2,74.9999952316285,2|8|8,0:0|0:0|0:0,0:0:0
360,228,122640,6,0,B|448:228|512:180,1,149.999990463257,4|8,0:0|0:0,0:0:0
492,84,123559,1,4,0:0:0
404,24,123865,1,4,0:0:0
344,112,124171,2,0,B|312:128|264:128,2,74.9999952316285,2|8|2,0:0|0:0|0:0,0:0:0
256,56,125089,6,0,B|208:64|176:128|216:176,1,149.999990463257,4|8,0:0|0:0,0:0:0
248,272,126008,1,4,0:0:0
168,336,126314,1,4,0:0:0
129,238,126620,2,0,B|81:238|49:270,2,74.9999952316285,2|8|8,0:0|0:0|0:0,0:0:0
192,160,127538,5,4,0:0:0
280,104,127845,2,0,B|280:56,2,37.4999976158143,6|4|8,0:0|0:0|0:0,0:0:0
384,120,128457,2,0,B|416:88,2,37.4999976158143,6|4|4,0:0|0:0|0:0,0:0:0
480,160,129069,2,0,B|440:184|440:224,1,74.9999952316285,2|8,0:0|0:0,0:0:0
336,208,129681,1,2,0:0:0
384,304,129987,6,0,B|304:304|232:360,1,149.999990463257,4|8,0:0|0:0,0:0:0
176,272,130906,2,4,B|176:192,1,74.9999952316285
96,128,131518,2,0,B|96:40,2,74.9999952316285,2|8|8,0:0|0:0|0:0,0:0:0
192,88,132436,5,4,0:0:0
284,144,132743,2,0,B|300:200,2,37.4999976158143,4|4|8,0:0|0:0|0:0,0:0:0
344,56,133355,2,4,B|384:56,2,37.4999976158143
400,144,133967,2,0,B|408:240,1,74.9999952316285,2|8,0:0|0:0,0:0:0
304,208,134579,1,2,0:0:0
304,208,134885,6,0,B|223:200|159:257,1,149.999990463257,4|8,0:0|0:0,0:0:0
72,304,135804,1,4,0:0:0
72,304,136110,2,0,B|43:270|46:225,1,74.9999952316285,4|2,0:0|0:0,0:0:0
128,172,136722,2,0,B|130:136|101:103,1,74.9999952316285,8|8,0:0|0:0,0:0:0
28,32,137334,1,4,0:0:0
