osu file format v11

[General]
AudioFilename: DJ Okawari - Canon.mp3
AudioLeadIn: 0
PreviewTime: 97833
Countdown: 0
SampleSet: Soft
StackLeniency: 0.7
Mode: 1
LetterboxInBreaks: 0

[Editor]
Bookmarks: 19771,147118
DistanceSpacing: 0
BeatDivisor: 4
GridSize: 32

[Metadata]
Title:Canon (Short Ver.)
TitleUnicode:Canon (Short Ver.)
Artist:DJ Okawari
ArtistUnicode:DJ Okawari
Creator:backstep
Version:Boss Taiko Oni
Source:
Tags:Johann Pachelbel spboxer3 bossandy cohana 2nd~ oriental classical
BeatmapID:139385
BeatmapSetID:44305

[Difficulty]
HPDrainRate:5
CircleSize:5
OverallDifficulty:5
ApproachRate:5
SliderMultiplier:1.59999990463257
SliderTickRate:1

[Events]
//Background and Video events
0,0,"Canon-BG.jpg"
//Break Periods
//Storyboard Layer 0 (Background)
//Storyboard Layer 1 (Fail)
//Storyboard Layer 2 (Pass)
//Storyboard Layer 3 (Foreground)
//Storyboard Sound Samples
//Background Colour Transformations
3,100,163,162,255

[TimingPoints]
192,612.244897959184,4,2,0,60,1,0
98151,-83.3333333333333,4,2,0,80,0,1
137334,-83.3333333333333,4,2,0,100,0,0

[Colours]
Combo1 : 83,83,255
Combo2 : 255,60,60

[HitObjects]
256,192,19783,21,2,0:0:0
256,192,20089,5,0,0:0:0
256,192,20396,1,0,0:0:0
256,192,20702,1,0,0:0:0
256,192,21008,5,2,0:0:0
256,192,21314,5,0,0:0:0
256,192,21620,1,0,0:0:0
256,192,21926,1,0,0:0:0
256,192,22232,5,2,0:0:0
256,192,22538,5,0,0:0:0
256,192,22845,5,2,0:0:0
256,192,23151,1,2,0:0:0
256,192,23457,5,0,0:0:0
256,192,23763,5,2,0:0:0
256,192,24069,5,0,0:0:0
256,192,24375,1,0,0:0:0
256,192,24681,1,0,0:0:0
256,192,24987,1,0,0:0:0
256,192,25294,5,2,0:0:0
256,192,25600,1,2,0:0:0
256,192,25906,5,0,0:0:0
256,192,26212,1,0,0:0:0
256,192,26518,5,2,0:0:0
256,192,26824,5,0,0:0:0
256,192,27130,1,0,0:0:0
256,192,27436,1,0,0:0:0
256,192,27743,5,2,0:0:0
256,192,28049,5,0,0:0:0
256,192,28355,1,0,0:0:0
256,192,28661,5,2,0:0:0
256,192,28967,5,0,0:0:0
256,192,29273,1,0,0:0:0
256,192,29579,5,2,0:0:0
256,192,29885,1,2,0:0:0
256,192,30191,5,0,0:0:0
256,192,30498,5,2,0:0:0
256,192,30804,5,0,0:0:0
256,192,31110,5,2,0:0:0
256,192,31416,5,0,0:0:0
256,192,31722,5,2,0:0:0
256,192,32028,5,0,0:0:0
256,192,32334,5,2,0:0:0
256,192,32640,5,0,0:0:0
256,192,32947,5,2,0:0:0
256,192,33253,5,0,0:0:0
256,192,33559,5,2,0:0:0
256,192,33865,5,0,0:0:0
256,192,34171,5,2,0:0:0
256,192,34477,5,0,0:0:0
256,192,34783,5,2,0:0:0
256,192,35089,5,0,0:0:0
256,192,35396,5,2,0:0:0
256,192,35702,5,0,0:0:0
256,192,36008,5,2,0:0:0
256,192,36161,5,0,0:0:0
256,192,36314,1,0,0:0:0
256,192,36467,1,0,0:0:0
256,192,36620,5,2,0:0:0
256,192,36926,5,0,0:0:0
256,192,37232,5,2,0:0:0
256,192,37385,5,0,0:0:0
256,192,37691,1,0,0:0:0
256,192,37845,5,2,0:0:0
256,192,38151,5,0,0:0:0
256,192,38304,1,0,0:0:0
256,192,38457,5,2,0:0:0
256,192,38610,5,0,0:0:0
256,192,38763,5,2,0:0:0
256,192,38916,5,0,0:0:0
256,192,39069,5,2,0:0:0
256,192,39222,1,2,0:0:0
256,192,39375,5,0,0:0:0
256,192,39834,1,0,0:0:0
256,192,39987,5,2,0:0:0
256,192,40294,5,0,0:0:0
256,192,40600,1,0,0:0:0
256,192,40906,1,0,0:0:0
256,192,41212,5,2,0:0:0
256,192,41365,5,0,0:0:0
256,192,41518,1,0,0:0:0
256,192,41671,5,2,0:0:0
256,192,41824,5,0,0:0:0
256,192,42283,1,0,0:0:0
256,192,42436,5,2,0:0:0
256,192,42743,5,0,0:0:0
256,192,43049,5,2,0:0:0
256,192,43355,5,0,0:0:0
256,192,43661,5,2,0:0:0
256,192,43814,1,2,0:0:0
256,192,43967,5,0,0:0:0
256,192,44120,5,2,0:0:0
256,192,44273,5,0,0:0:0
256,192,44579,1,0,0:0:0
256,192,44885,5,2,0:0:0
256,192,45191,5,0,0:0:0
256,192,45345,1,0,0:0:0
256,192,45498,1,0,0:0:0
256,192,45804,1,0,0:0:0
256,192,46110,5,2,0:0:0
256,192,46263,1,2,0:0:0
256,192,46416,5,0,0:0:0
256,192,46722,1,4,0:0:0
256,192,47640,1,0,0:0:0
256,192,47947,1,4,0:0:0
256,192,48406,1,0,0:0:0
256,192,48559,5,2,0:0:0
256,192,48865,1,2,0:0:0
256,192,49171,5,4,0:0:0
256,192,49477,1,0,0:0:0
256,192,49783,5,2,0:0:0
256,192,50089,5,0,0:0:0
256,192,50243,1,0,0:0:0
256,192,50396,1,0,0:0:0
256,192,50702,1,0,0:0:0
256,192,50855,1,0,0:0:0
256,192,51008,5,2,0:0:0
256,192,51314,1,2,0:0:0
256,192,51620,5,0,0:0:0
256,192,51926,1,0,0:0:0
256,192,52079,5,2,0:0:0
256,192,52232,5,0,0:0:0
256,192,52538,5,2,0:0:0
256,192,52691,5,0,0:0:0
256,192,52998,1,0,0:0:0
256,192,53151,5,2,0:0:0
256,192,53457,1,2,0:0:0
256,192,53763,5,0,0:0:0
256,192,54069,1,4,0:0:0
256,192,54375,5,2,0:0:0
256,192,54528,5,0,0:0:0
256,192,54681,5,2,0:0:0
256,192,54987,5,0,0:0:0
256,192,55140,5,2,0:0:0
256,192,55294,5,0,0:0:0
256,192,55600,1,0,0:0:0
256,192,55753,1,0,0:0:0
256,192,55906,5,2,0:0:0
256,192,56212,1,2,0:0:0
256,192,56518,5,4,0:0:0
256,192,56824,1,0,0:0:0
256,192,56977,1,0,0:0:0
256,192,57130,5,2,0:0:0
256,192,57436,5,0,0:0:0
256,192,57743,5,2,0:0:0
256,192,58049,1,2,0:0:0
256,192,58202,5,0,0:0:0
256,192,58355,5,2,0:0:0
256,192,58508,5,0,0:0:0
256,192,58661,5,2,0:0:0
256,192,58814,1,2,0:0:0
256,192,58967,5,0,0:0:0
256,192,59273,1,0,0:0:0
256,192,59426,1,0,0:0:0
256,192,59579,5,2,0:0:0
256,192,59885,5,0,0:0:0
256,192,60191,5,2,0:0:0
256,192,60498,1,2,0:0:0
256,192,60651,1,2,0:0:0
256,192,60804,5,0,0:0:0
256,192,61110,5,2,0:0:0
256,192,61263,5,0,0:0:0
256,192,61416,1,0,0:0:0
256,192,61722,5,2,0:0:0
256,192,62028,5,0,0:0:0
256,192,62181,1,0,0:0:0
256,192,62334,5,2,0:0:0
256,192,62640,5,0,0:0:0
256,192,62794,1,0,0:0:0
256,192,62947,5,2,0:0:0
256,192,63100,5,0,0:0:0
256,192,63253,5,2,0:0:0
256,192,63406,1,2,0:0:0
256,192,63559,1,2,0:0:0
256,192,63712,1,2,0:0:0
256,192,63865,5,0,0:0:0
256,192,64171,5,2,0:0:0
256,192,64324,5,0,0:0:0
256,192,64477,1,0,0:0:0
256,192,64783,5,2,0:0:0
256,192,64936,1,2,0:0:0
256,192,65089,5,0,0:0:0
256,192,65396,5,2,0:0:0
256,192,65549,5,0,0:0:0
256,192,65855,1,0,0:0:0
256,192,66008,5,2,0:0:0
256,192,66161,5,0,0:0:0
256,192,66314,1,0,0:0:0
256,192,66620,5,2,0:0:0
256,192,66773,5,0,0:0:0
256,192,66926,1,0,0:0:0
256,192,67232,5,2,0:0:0
256,192,67385,1,2,0:0:0
256,192,67538,5,0,0:0:0
256,192,67691,1,0,0:0:0
256,192,67845,5,2,0:0:0
256,192,67998,5,0,0:0:0
256,192,68151,5,2,0:0:0
256,192,68304,1,2,0:0:0
256,192,68457,5,0,0:0:0
256,192,68610,5,2,0:0:0
256,192,68763,5,0,0:0:0
256,192,69069,1,0,0:0:0
256,192,69375,5,2,0:0:0
256,192,69834,5,0,0:0:0
256,192,69987,5,2,0:0:0
256,192,70140,1,2,0:0:0
256,192,70294,5,0,0:0:0
256,192,70600,5,2,0:0:0
256,192,70906,5,0,0:0:0
256,192,71059,5,2,0:0:0
256,192,71212,5,0,0:0:0
256,192,71518,1,0,0:0:0
256,192,71824,5,2,0:0:0
256,192,72283,1,2,0:0:0
256,192,72436,5,0,0:0:0
256,192,72589,1,0,0:0:0
256,192,72743,5,2,0:0:0
256,192,73049,1,2,0:0:0
256,192,73202,5,0,0:0:0
256,192,73355,1,0,0:0:0
256,192,73661,1,4,0:0:0
256,192,73967,1,0,0:0:0
256,192,74273,5,2,0:0:0
256,192,74579,5,0,0:0:0
256,192,74732,5,2,0:0:0
256,192,75038,1,2,0:0:0
256,192,75191,5,0,0:0:0
256,192,75498,5,2,0:0:0
256,192,75804,5,0,0:0:0
256,192,76110,1,0,0:0:0
256,192,76416,1,0,0:0:0
256,192,76569,1,0,0:0:0
256,192,76722,5,2,0:0:0
256,192,77028,5,0,0:0:0
256,192,77181,5,2,0:0:0
256,192,77334,5,0,0:0:0
256,192,77487,5,2,0:0:0
256,192,77640,1,2,0:0:0
256,192,77794,1,2,0:0:0
256,192,77947,5,0,0:0:0
256,192,78100,5,2,0:0:0
256,192,78253,5,0,0:0:0
256,192,78406,1,0,0:0:0
256,192,78559,1,0,0:0:0
256,192,78865,1,0,0:0:0
256,192,79171,5,2,0:0:0
256,192,79477,5,0,0:0:0
256,192,79630,5,2,0:0:0
256,192,79783,5,0,0:0:0
256,192,80089,1,0,0:0:0
256,192,80396,5,2,0:0:0
256,192,80702,1,2,0:0:0
256,192,80855,1,2,0:0:0
256,192,81008,5,0,0:0:0
256,192,81314,5,2,0:0:0
256,192,81620,5,0,0:0:0
256,192,81773,1,0,0:0:0
256,192,81926,5,2,0:0:0
256,192,82232,5,0,0:0:0
256,192,82538,5,2,0:0:0
256,192,82691,5,0,0:0:0
256,192,82998,5,2,0:0:0
256,192,83151,1,2,0:0:0
256,192,83457,1,6,0:0:0
256,192,83763,5,0,0:0:0
256,192,84069,1,0,0:0:0
256,192,84375,5,2,0:0:0
256,192,84681,5,0,0:0:0
256,192,84834,5,2,0:0:0
256,192,84987,5,0,0:0:0
256,192,85294,5,2,0:0:0
256,192,85600,1,2,0:0:0
256,192,85753,5,0,0:0:0
256,192,85906,1,0,0:0:0
256,192,86212,1,0,0:0:0
256,192,86518,1,0,0:0:0
256,192,86824,5,2,0:0:0
256,192,86977,5,0,0:0:0
256,192,87130,1,0,0:0:0
256,192,87436,5,2,0:0:0
256,192,87743,5,0,0:0:0
256,192,87896,5,2,0:0:0
256,192,88049,1,2,0:0:0
256,192,88355,5,4,0:0:0
256,192,88661,1,0,0:0:0
256,192,88814,1,0,0:0:0
256,192,88967,5,2,0:0:0
256,192,89273,5,0,0:0:0
256,192,89579,5,2,0:0:0
256,192,89732,5,0,0:0:0
256,192,89885,1,0,0:0:0
256,192,90038,1,0,0:0:0
256,192,90191,5,2,0:0:0
256,192,90498,5,0,0:0:0
256,192,90651,5,2,0:0:0
256,192,90804,5,0,0:0:0
256,192,91110,1,0,0:0:0
256,192,91416,5,2,0:0:0
256,192,91875,5,0,0:0:0
256,192,92028,5,2,0:0:0
256,192,92334,1,2,0:0:0
256,192,92640,5,0,0:0:0
256,192,92794,1,0,0:0:0
256,192,92947,5,2,0:0:0
256,192,93253,1,6,0:0:0
256,192,93559,5,0,0:0:0
256,192,93865,1,0,0:0:0
256,192,94171,1,0,0:0:0
256,192,94477,5,2,0:0:0
256,192,94783,5,0,0:0:0
256,192,95089,1,0,0:0:0
256,192,95396,1,0,0:0:0
256,192,95702,5,2,0:0:0
256,192,96008,5,0,0:0:0
256,192,96161,1,0,0:0:0
256,192,96314,5,2,0:0:0
256,192,96620,5,0,0:0:0
256,192,96773,1,0,0:0:0
256,192,96926,5,2,0:0:0
256,192,97079,5,0,0:0:0
256,192,97232,5,2,0:0:0
256,192,97385,5,0,0:0:0
256,192,97538,5,2,0:0:0
256,192,97845,1,2,0:0:0
256,192,98151,1,6,0:0:0
256,192,98457,5,0,0:0:0
256,192,98610,1,0,0:0:0
256,192,98763,5,2,0:0:0
256,192,99069,5,0,0:0:0
256,192,99222,1,0,0:0:0
256,192,99375,5,2,0:0:0
256,192,99528,5,0,0:0:0
256,192,99681,1,0,0:0:0
256,192,99834,5,2,0:0:0
256,192,99987,5,0,0:0:0
256,192,100140,5,2,0:0:0
256,192,100294,1,2,0:0:0
256,192,100447,5,0,0:0:0
256,192,100600,1,0,0:0:0
256,192,100906,1,0,0:0:0
256,192,101059,5,2,0:0:0
256,192,101212,5,0,0:0:0
256,192,101518,1,0,0:0:0
256,192,101671,5,2,0:0:0
256,192,101824,5,0,0:0:0
256,192,101977,1,0,0:0:0
256,192,102130,5,2,0:0:0
256,192,102283,5,0,0:0:0
256,192,102436,5,2,0:0:0
256,192,102589,5,0,0:0:0
256,192,102743,1,0,0:0:0
256,192,102896,5,2,0:0:0
256,192,103049,5,0,0:0:0
256,192,103355,5,2,0:0:0
256,192,103508,5,0,0:0:0
256,192,103661,1,0,0:0:0
256,192,103967,5,2,0:0:0
256,192,104120,5,0,0:0:0
256,192,104273,5,2,0:0:0
256,192,104426,5,0,0:0:0
256,192,104579,1,0,0:0:0
256,192,104732,1,0,0:0:0
256,192,104885,5,2,0:0:0
256,192,105038,1,2,0:0:0
256,192,105191,5,0,0:0:0
256,192,105345,5,2,0:0:0
256,192,105498,5,0,0:0:0
256,192,105804,5,2,0:0:0
256,192,105957,5,0,0:0:0
256,192,106110,5,2,0:0:0
256,192,106416,5,0,0:0:0
256,192,106569,1,0,0:0:0
256,192,106722,5,2,0:0:0
256,192,106875,5,0,0:0:0
256,192,106952,1,0,0:0:0
256,192,107028,1,0,0:0:0
256,192,107181,5,2,0:0:0
256,192,107334,5,0,0:0:0
256,192,107487,5,2,0:0:0
256,192,107640,1,2,0:0:0
256,192,107794,1,2,0:0:0
256,192,107947,5,4,0:0:0
256,192,108253,1,0,0:0:0
256,192,108406,1,0,0:0:0
256,192,108559,5,2,0:0:0
256,192,108865,5,0,0:0:0
256,192,109018,1,0,0:0:0
256,192,109171,5,2,0:0:0
256,192,109324,5,0,0:0:0
256,192,109401,1,0,0:0:0
256,192,109477,1,0,0:0:0
256,192,109630,5,2,0:0:0
256,192,109783,1,2,0:0:0
256,192,109936,5,0,0:0:0
256,192,110089,1,0,0:0:0
256,192,110243,1,0,0:0:0
256,192,110396,5,2,0:0:0
256,192,110702,5,0,0:0:0
256,192,110855,1,0,0:0:0
256,192,111008,5,2,0:0:0
256,192,111314,5,0,0:0:0
256,192,111467,5,2,0:0:0
256,192,111620,5,0,0:0:0
256,192,111773,1,0,0:0:0
256,192,111926,5,2,0:0:0
256,192,112079,5,0,0:0:0
256,192,112232,1,0,0:0:0
256,192,112385,5,2,0:0:0
256,192,112538,1,2,0:0:0
256,192,112691,1,2,0:0:0
256,192,112845,5,0,0:0:0
256,192,113151,5,2,0:0:0
256,192,113304,1,2,0:0:0
256,192,113457,5,0,0:0:0
256,192,113763,5,2,0:0:0
256,192,113916,5,0,0:0:0
256,192,114069,5,2,0:0:0
256,192,114222,5,0,0:0:0
256,192,114375,1,0,0:0:0
256,192,114528,1,0,0:0:0
256,192,114681,5,2,0:0:0
256,192,114834,5,0,0:0:0
256,192,114987,5,2,0:0:0
256,192,115140,1,2,0:0:0
256,192,115294,5,0,0:0:0
256,192,115600,5,2,0:0:0
256,192,115753,5,0,0:0:0
256,192,115906,5,2,0:0:0
256,192,116212,5,0,0:0:0
256,192,116365,1,0,0:0:0
256,192,116518,5,2,0:0:0
256,192,116671,5,0,0:0:0
256,192,116748,1,0,0:0:0
256,192,116824,1,0,0:0:0
256,192,116977,5,2,0:0:0
256,192,117130,5,0,0:0:0
256,192,117283,5,2,0:0:0
256,192,117436,5,0,0:0:0
256,192,117589,5,2,0:0:0
256,192,117743,1,6,0:0:0
256,192,118049,5,0,0:0:0
256,192,118202,1,0,0:0:0
256,192,118355,5,2,0:0:0
256,192,118661,5,0,0:0:0
256,192,118814,1,0,0:0:0
256,192,118967,5,2,0:0:0
256,192,119120,5,0,0:0:0
256,192,119197,1,0,0:0:0
256,192,119273,1,0,0:0:0
256,192,119426,5,2,0:0:0
256,192,119579,5,0,0:0:0
256,192,119732,1,0,0:0:0
256,192,119885,5,2,0:0:0
256,192,120038,1,2,0:0:0
256,192,120191,5,0,0:0:0
256,192,120498,1,0,0:0:0
256,192,120651,1,0,0:0:0
256,192,120804,5,2,0:0:0
256,192,121110,5,0,0:0:0
256,192,121263,5,2,0:0:0
256,192,121416,5,0,0:0:0
256,192,121569,1,0,0:0:0
256,192,121722,5,2,0:0:0
256,192,121875,5,0,0:0:0
256,192,122028,5,2,0:0:0
256,192,122181,5,0,0:0:0
256,192,122334,1,0,0:0:0
256,192,122487,5,2,0:0:0
256,192,122640,5,0,0:0:0
256,192,122947,5,2,0:0:0
256,192,123100,5,0,0:0:0
256,192,123253,1,0,0:0:0
256,192,123559,1,0,0:0:0
256,192,123712,5,2,0:0:0
256,192,123865,5,0,0:0:0
256,192,124018,1,0,0:0:0
256,192,124095,1,0,0:0:0
256,192,124171,5,2,0:0:0
256,192,124324,5,0,0:0:0
256,192,124477,5,2,0:0:0
256,192,124630,5,0,0:0:0
256,192,124707,1,0,0:0:0
256,192,124783,1,0,0:0:0
256,192,124936,5,2,0:0:0
256,192,125089,5,0,0:0:0
256,192,125396,5,2,0:0:0
256,192,125549,5,0,0:0:0
256,192,125702,5,2,0:0:0
256,192,126008,5,0,0:0:0
256,192,126161,1,0,0:0:0
256,192,126314,5,2,0:0:0
256,192,126467,5,0,0:0:0
256,192,126544,1,0,0:0:0
256,192,126620,1,0,0:0:0
256,192,126773,5,2,0:0:0
256,192,126926,5,0,0:0:0
256,192,127079,5,2,0:0:0
256,192,127232,1,2,0:0:0
256,192,127385,1,2,0:0:0
256,192,127538,5,4,0:0:0
256,192,127845,1,0,0:0:0
256,192,127998,1,0,0:0:0
256,192,128151,5,2,0:0:0
256,192,128457,5,0,0:0:0
256,192,128610,1,0,0:0:0
256,192,128763,5,2,0:0:0
256,192,128916,5,0,0:0:0
256,192,128993,1,0,0:0:0
256,192,129069,1,0,0:0:0
256,192,129222,1,0,0:0:0
256,192,129375,5,2,0:0:0
256,192,129528,1,2,0:0:0
256,192,129681,5,0,0:0:0
256,192,129834,1,0,0:0:0
256,192,129987,5,2,0:0:0
256,192,130294,5,0,0:0:0
256,192,130447,1,0,0:0:0
256,192,130600,5,2,0:0:0
256,192,130906,5,0,0:0:0
256,192,131059,1,0,0:0:0
256,192,131212,5,2,0:0:0
256,192,131365,5,0,0:0:0
256,192,131441,1,0,0:0:0
256,192,131518,1,0,0:0:0
256,192,131671,1,0,0:0:0
256,192,131824,5,2,0:0:0
256,192,131977,1,2,0:0:0
256,192,132130,5,0,0:0:0
256,192,132283,5,2,0:0:0
256,192,132436,5,0,0:0:0
256,192,132743,5,2,0:0:0
256,192,132896,5,0,0:0:0
256,192,133049,1,0,0:0:0
256,192,133355,5,2,0:0:0
256,192,133508,5,0,0:0:0
256,192,133661,5,2,0:0:0
256,192,133814,5,0,0:0:0
256,192,133967,1,0,0:0:0
256,192,134120,5,2,0:0:0
256,192,134273,5,0,0:0:0
256,192,134426,1,0,0:0:0
256,192,134579,5,2,0:0:0
256,192,134732,5,2,0:0:0
256,192,134885,1,0,0:0:0
256,192,135191,5,2,0:0:0
256,192,135345,5,0,0:0:0
256,192,135498,1,0,0:0:0
256,192,135804,1,0,0:0:0
256,192,135957,5,2,0:0:0
256,192,136110,5,0,0:0:0
256,192,136263,5,2,0:0:0
256,192,136339,5,0,0:0:0
256,192,136416,1,0,0:0:0
256,192,136569,5,2,0:0:0
256,192,136722,5,0,0:0:0
256,192,136875,5,2,0:0:0
256,192,137028,5,0,0:0:0
256,192,137181,1,0,0:0:0
256,192,137334,5,6,0:0:0
