osu file format v13

[General]
AudioFilename: Represent.mp3
AudioLeadIn: 2
PreviewTime: 58246
Countdown: 0
SampleSet: Soft
StackLeniency: 0.7
Mode: 0
LetterboxInBreaks: 0
WidescreenStoryboard: 0

[Editor]
DistanceSpacing: 1
BeatDivisor: 4
GridSize: 4
TimelineZoom: 1

[Metadata]
Title:Represent feat.Chieko Kinbara
TitleUnicode:Represent feat.Chieko Kinbara
Artist:DJ OKAWARI
ArtistUnicode:DJ OKAWARI
Creator:Backstep
Version:Hyper
Source:
Tags:Kaleidoscope violin jazz 金原千恵子
BeatmapID:405555
BeatmapSetID:133445

[Difficulty]
HPDrainRate:7
CircleSize:4
OverallDifficulty:7
ApproachRate:7.5
SliderMultiplier:2
SliderTickRate:2

[Events]
//Background and Video events
0,0,"Represent.jpg",0,0
//Break Periods
2,53598,57421
2,133598,134997
//Storyboard Layer 0 (Background)
//Storyboard Layer 1 (Fail)
//Storyboard Layer 2 (Pass)
//Storyboard Layer 3 (Foreground)
//Storyboard Sound Samples
//Background Colour Transformations
3,100,163,162,255

[TimingPoints]
65,606.060606060606,4,2,2,75,1,0
19610,-100,4,2,1,75,0,0
38852,-100,4,2,2,75,0,0
39004,-100,4,2,1,75,0,0
53398,-100,4,2,2,75,0,0
58246,-100,4,2,2,75,0,1
58398,-100,4,2,1,75,0,1
75216,-100,4,2,1,75,0,0
77640,-100,4,2,2,75,0,1
77792,-100,4,2,1,75,0,1
94610,-100,4,2,1,75,0,0
97034,-100,4,2,2,75,0,0
97186,-100,4,2,1,75,0,0
97489,-100,4,2,0,25,0,0
97640,-100,4,2,1,75,0,0
98701,-100,4,2,0,25,0,0
98852,-100,4,2,1,75,0,0
99913,-100,4,2,0,25,0,0
100064,-100,4,2,1,75,0,0
102337,-100,4,2,0,25,0,0
102489,-100,4,2,1,75,0,0
104761,-100,4,2,0,25,0,0
104913,-100,4,2,1,75,0,0
107186,-100,4,2,0,25,0,0
107337,-100,4,2,1,75,0,0
109610,-100,4,2,0,25,0,0
109761,-100,4,2,1,75,0,0
112034,-100,4,2,0,25,0,0
112186,-100,4,2,1,75,0,0
116428,-100,4,2,2,75,0,0
116580,-100,4,2,1,75,0,0
116883,-100,4,2,0,25,0,0
117034,-100,4,2,1,75,0,0
118095,-100,4,2,0,25,0,0
118246,-100,4,2,1,75,0,0
119307,-100,4,2,0,25,0,0
119458,-100,4,2,1,75,0,0
120519,-100,4,2,0,25,0,0
120671,-100,4,2,1,75,0,0
121731,-100,4,2,0,25,0,0
121883,-100,4,2,1,75,0,0
123549,-200,4,2,1,45,0,0
124307,-200,4,1,1,55,0,0
124458,-200,4,2,1,45,0,0
125519,-200,4,1,1,55,0,0
125671,-200,4,2,1,45,0,0
126731,-200,4,1,1,55,0,0
126883,-200,4,2,1,45,0,0
127640,-100,4,2,1,75,0,0
127943,-100,4,1,1,55,0,0
128095,-100,4,2,1,75,0,0
133398,-100,4,2,2,75,0,0
135822,-100,4,2,2,75,0,1
135974,-100,4,2,1,75,0,1
150368,-100,4,1,1,35,0,1
150519,-100,4,2,2,45,0,1
152792,-100,4,2,2,55,0,0

[Colours]
Combo1 : 192,192,192
Combo2 : 0,128,255
Combo3 : 128,255,128
Combo4 : 255,255,128
Combo5 : 255,128,192
SliderBorder : 215,213,200

[HitObjects]
64,144,19458,5,4,0:0:0:0:
140,80,19761,1,0,0:0:0:0:
240,92,20065,1,8,0:0:0:0:
284,180,20368,2,0,L|304:232,1,50
476,324,20822,2,0,L|456:272,1,50
420,184,21277,1,8,0:0:0:0:
332,324,21580,1,0,0:0:0:0:
288,348,21731,1,0,0:0:0:0:
240,356,21883,6,0,P|164:368|120:352,1,100
60,308,22489,1,8,0:0:0:0:
32,212,22792,2,0,L|16:156,2,50
128,240,23398,1,0,0:0:0:0:
100,144,23701,1,8,0:0:0:0:
60,308,24004,1,0,0:0:0:0:
192,164,24307,6,0,P|240:132|300:124,1,100
456,224,24913,2,0,P|408:256|348:264,1,100,8|0,0:0|0:0,0:0:0:0:
320,284,25368,2,0,L|220:264,1,100
60,308,25822,2,0,L|160:328,1,100,0|8,0:0|0:0,0:0:0:0:
252,360,26428,1,0,0:0:0:0:
288,324,26580,1,0,0:0:0:0:
320,284,26731,6,0,P|344:204|340:176,1,100
232,24,27337,2,0,P|208:104|212:132,1,100,8|0,0:0|0:0,0:0:0:0:
168,148,27792,2,0,P|116:124|64:116,1,100
32,140,28246,2,0,P|8:220|12:248,1,100,0|8,0:0|0:0,0:0:0:0:
56,324,28852,1,0,0:0:0:0:
100,352,29004,1,0,0:0:0:0:
148,364,29155,6,0,P|204:368|260:364,1,100,4|0,0:0|0:0,0:0:0:0:
336,316,29761,1,8,0:0:0:0:
384,228,30065,1,0,0:0:0:0:
384,228,30216,2,0,P|392:180|380:120,1,100
348,96,30671,2,0,L|228:108,1,100,0|8,0:0|0:0,0:0:0:0:
152,124,31277,1,0,0:0:0:0:
104,144,31428,1,0,0:0:0:0:
80,188,31580,5,0,0:0:0:0:
124,276,31883,2,0,P|140:332|120:380,1,100,0|8,0:0|0:0,0:0:0:0:
220,280,32489,2,0,P|264:240|328:224,1,100
400,224,33095,1,0,0:0:0:0:
448,136,33398,1,8,0:0:0:0:
448,308,33701,1,0,0:0:0:0:
360,136,34004,6,0,P|308:96|251:79,1,100
180,108,34610,1,8,0:0:0:0:
96,56,34913,1,0,0:0:0:0:
96,56,35064,2,0,P|84:112|100:164,1,100
112,200,35519,2,0,P|122:248|109:296,1,100,0|8,0:0|0:0,0:0:0:0:
24,248,36125,1,0,0:0:0:0:
192,352,36428,6,0,P|240:364|300:360,1,100
324,324,36883,2,0,L|432:304,1,100
452,212,37489,1,0,0:0:0:0:
452,212,37640,2,0,P|464:156|448:108,1,100
416,84,38095,2,0,L|364:52,3,50,0|8|0|0,0:0|0:0|0:0|0:0,0:0:0:0:
196,132,38852,6,0,P|136:136|80:120,1,100,4|0,0:0|0:0,0:0:0:0:
96,328,39458,2,0,P|156:324|212:340,1,100,8|0,0:0|0:0,0:0:0:0:
244,348,39913,2,0,L|348:324,1,100
388,308,40368,2,0,P|404:256|384:208,1,100,0|8,0:0|0:0,0:0:0:0:
460,144,40974,1,0,0:0:0:0:
460,144,41125,1,0,0:0:0:0:
460,144,41277,6,0,P|408:120|344:120,1,100
288,180,41883,1,8,0:0:0:0:
188,176,42186,1,0,0:0:0:0:
188,176,42337,2,0,P|136:160|96:128,1,100
60,100,42792,2,0,P|32:152|0:184,1,100,0|8,0:0|0:0,0:0:0:0:
56,268,43398,1,0,0:0:0:0:
180,76,43701,6,0,P|232:56|288:52,1,100
368,88,44307,1,8,0:0:0:0:
456,44,44610,1,0,0:0:0:0:
456,44,44761,2,0,B|465:87|454:113|454:113|468:143,1,100
484,188,45216,2,0,P|484:256|440:296,1,100,0|8,0:0|0:0,0:0:0:0:
392,212,45822,1,0,0:0:0:0:
392,212,45974,1,0,0:0:0:0:
392,212,46125,6,0,P|336:180|296:172,1,100
240,252,46731,2,0,P|224:304|240:368,1,100,8|0,0:0|0:0,0:0:0:0:
180,344,47186,2,0,P|132:320|80:312,1,100
40,332,47640,1,0,0:0:0:0:
16,236,47943,1,8,0:0:0:0:
64,40,48246,1,0,0:0:0:0:
204,184,48549,6,0,P|267:197|312:182,1,100,4|0,0:0|0:0,0:0:0:0:
392,152,49155,1,8,0:0:0:0:
404,252,49458,2,0,L|412:308,1,50
211,233,49913,2,0,L|204:184,1,50
340,76,50368,1,8,0:0:0:0:
380,48,50519,1,0,0:0:0:0:
432,44,50671,1,0,0:0:0:0:
476,68,50822,1,0,0:0:0:0:
492,116,50974,6,0,P|496:168|480:216,1,100
444,248,51428,2,0,L|384:248,1,50,0|8,0:0|0:0,0:0:0:0:
228,328,51883,2,0,L|278:328,1,50
318,296,52186,2,0,P|302:252|322:196,1,100
392,136,52792,5,8,0:0:0:0:
392,348,53095,1,0,0:0:0:0:
208,240,53398,1,2,0:0:0:0:
256,156,58246,5,4,0:0:0:0:
180,92,58549,1,0,0:0:0:0:
96,144,58852,1,8,0:0:0:0:
84,244,59155,1,0,0:0:0:0:
84,244,59307,2,0,P|128:292|168:304,1,100
196,336,59761,2,0,L|312:344,1,100,0|8,0:0|0:0,0:0:0:0:
396,348,60368,1,0,0:0:0:0:
440,324,60519,1,0,0:0:0:0:
452,276,60671,5,0,0:0:0:0:
440,228,60822,1,0,0:0:0:0:
404,192,60974,2,0,P|372:152|368:100,1,100,0|8,0:0|0:0,0:0:0:0:
432,28,61580,1,0,0:0:0:0:
432,28,61731,1,0,0:0:0:0:
432,28,61883,1,0,0:0:0:0:
272,95,62186,1,0,0:0:0:0:
404,192,62489,1,8,0:0:0:0:
432,28,62792,1,0,0:0:0:0:
272,95,63095,6,0,P|220:108|162:108,1,100
76,100,63701,1,8,0:0:0:0:
32,188,64004,2,0,L|24:248,1,50
76,240,64307,2,0,L|68:296,1,50
120,284,64610,2,0,P|168:320|224:328,1,100,0|8,0:0|0:0,0:0:0:0:
304,332,65216,1,0,0:0:0:0:
348,308,65368,1,0,0:0:0:0:
380,268,65519,5,0,0:0:0:0:
392,220,65671,1,0,0:0:0:0:
380,172,65822,2,0,L|360:68,1,100,0|8,0:0|0:0,0:0:0:0:
240,92,66428,2,0,L|228:24,2,50
256,192,67034,1,0,0:0:0:0:
184,272,67337,1,8,0:0:0:0:
356,232,67640,1,0,0:0:0:0:
240,92,67943,6,0,P|180:76|120:76,1,100,4|0,0:0|0:0,0:0:0:0:
52,116,68549,1,8,0:0:0:0:
20,212,68852,1,0,0:0:0:0:
20,212,69004,2,0,L|4:320,1,100
32,352,69458,2,0,P|96:368|156:356,1,100,0|8,0:0|0:0,0:0:0:0:
220,324,70064,1,0,0:0:0:0:
260,296,70216,1,0,0:0:0:0:
312,292,70368,6,0,P|368:300|416:328,2,100,0|0|8,0:0|0:0|0:0,0:0:0:0:
236,228,71277,1,0,0:0:0:0:
236,228,71428,1,0,0:0:0:0:
236,228,71580,2,0,P|212:168|212:128,1,100
288,72,72186,1,8,0:0:0:0:
368,128,72489,1,0,0:0:0:0:
312,296,72792,6,0,P|264:316|196:320,1,100
120,300,73398,1,8,0:0:0:0:
48,232,73701,2,0,L|32:184,1,50
124,64,74155,2,0,L|140:112,1,50
176,204,74610,1,8,0:0:0:0:
292,152,74913,2,0,L|276:104,1,50
256,192,75216,12,8,77034,0:0:0:0:
312,324,77640,6,0,P|360:332|412:324,2,100,4|0|8,0:0|0:0|0:0,0:0:0:0:
224,276,78549,2,0,L|172:272,1,50
172,224,78852,2,0,L|116:200,1,50
144,156,79155,2,0,P|120:96|120:44,1,100,0|8,0:0|0:0,0:0:0:0:
216,88,79761,1,0,0:0:0:0:
256,56,79913,1,0,0:0:0:0:
304,44,80064,5,0,0:0:0:0:
352,56,80216,1,0,0:0:0:0:
392,88,80368,2,0,P|424:152|424:192,1,100,0|8,0:0|0:0,0:0:0:0:
404,276,80974,1,0,0:0:0:0:
404,276,81125,1,0,0:0:0:0:
404,276,81277,1,0,0:0:0:0:
324,332,81580,1,0,0:0:0:0:
472,356,81883,1,8,0:0:0:0:
500,208,82186,1,0,0:0:0:0:
352,184,82489,6,0,P|280:168|228:180,1,100
56,196,83095,2,0,P|103:210|153:208,1,100,8|0,0:0|0:0,0:0:0:0:
192,240,83549,2,0,P|200:304|192:348,1,100
152,364,84004,1,0,0:0:0:0:
60,328,84307,1,8,0:0:0:0:
144,132,84610,1,0,0:0:0:0:
180,96,84761,1,0,0:0:0:0:
228,84,84913,5,0,0:0:0:0:
276,88,85064,1,0,0:0:0:0:
316,120,85216,2,0,P|372:148|424:140,1,100,0|8,0:0|0:0,0:0:0:0:
488,88,85822,1,0,0:0:0:0:
488,88,85974,1,0,0:0:0:0:
488,88,86125,1,0,0:0:0:0:
388,36,86428,1,0,0:0:0:0:
428,252,86731,1,8,0:0:0:0:
316,200,87034,1,0,0:0:0:0:
204,252,87337,6,0,P|152:240|64:248,1,100,4|0,0:0|0:0,0:0:0:0:
256,340,87943,2,0,P|308:352|396:344,1,100,8|0,0:0|0:0,0:0:0:0:
396,324,88398,2,0,L|500:288,1,100
504,244,88852,2,0,B|516:188|516:188|500:112,1,100,0|8,0:0|0:0,0:0:0:0:
405,55,89458,2,0,L|416:104,1,50
364,104,89761,6,0,L|380:168,1,50
328,144,90064,2,0,P|288:196|216:212,1,100,0|8,0:0|0:0,0:0:0:0:
156,204,90671,1,0,0:0:0:0:
156,204,90822,1,0,0:0:0:0:
156,204,90974,1,0,0:0:0:0:
136,104,91277,1,0,0:0:0:0:
84,280,91580,1,8,0:0:0:0:
252,240,91883,1,0,0:0:0:0:
136,104,92186,6,0,P|72:88|32:92,1,100
232,136,92792,2,0,P|296:152|336:148,1,100,8|0,0:0|0:0,0:0:0:0:
360,112,93246,1,0,0:0:0:0:
400,84,93398,1,0,0:0:0:0:
448,88,93549,1,0,0:0:0:0:
492,116,93701,2,0,P|504:176|488:228,1,100,0|8,0:0|0:0,0:0:0:0:
428,272,94307,2,0,L|376:300,1,50
256,192,94610,12,8,96428,0:0:0:0:
56,100,97034,6,0,L|176:100,1,100,4|0,0:0|0:0,0:0:0:0:
200,124,97489,2,0,P|216:184|200:232,2,100,2|0|0,0:0|0:0|0:0,0:0:0:0:
120,180,98246,2,0,P|104:240|120:288,1,100,0|0,0:2|0:0,0:0:0:0:
144,316,98701,2,0,L|244:340,2,100,2|0|0,0:0|0:0|0:0,0:0:0:0:
300,264,99458,6,0,L|400:288,1,100,0|0,0:0|0:0,0:0:0:0:
444,268,99913,2,0,P|476:200|476:144,2,100,2|0|0,0:0|0:0|0:0,0:0:0:0:
392,172,100671,2,0,P|376:120|372:72,1,100
280,36,101277,1,8,0:0:0:0:
296,260,101580,1,0,0:0:0:0:
192,184,101883,6,0,P|168:136|164:80,1,100
124,60,102337,2,0,L|24:48,2,100,2|0|0,0:0|0:0|0:0,0:0:0:0:
72,168,103095,2,0,L|136:176,1,50
172,180,103398,2,0,L|300:192,2,100,0|8|0,0:0|0:0|0:0,0:0:0:0:
192,260,104155,1,0,0:0:0:0:
248,320,104307,6,0,P|312:340|360:328,1,100,0|0,2:0|0:0,0:0:0:0:
384,308,104761,2,0,L|436:212,2,100,2|0|0,0:0|0:0|0:0,0:0:0:0:
364,352,105519,1,0,0:0:0:0:
276,264,105822,1,0,0:0:0:0:
232,240,105974,1,0,0:0:0:0:
184,244,106125,1,8,0:0:0:0:
140,268,106277,1,0,0:0:0:0:
112,312,106428,1,0,0:0:0:0:
64,200,106731,6,0,P|48:148|0:104,1,100,4|0,0:0|0:0,0:0:0:0:
52,80,107186,2,0,L|144:20,2,100,2|0|0,0:0|0:0|0:0,0:0:0:0:
156,116,107943,2,0,L|204:80,1,50
236,56,108246,2,0,P|288:44|336:48,2,100,0|8|0,0:0|0:0|0:0,0:0:0:0:
348,164,109155,6,0,L|324:268,1,100,0|0,0:2|0:0,0:0:0:0:
312,312,109610,2,0,B|264:336|260:336|184:328,2,100,2|0|0,0:0|0:0|0:0,0:0:0:0:
248,248,110368,1,0,0:0:0:0:
400,344,110671,1,0,0:0:0:0:
396,176,110974,1,8,0:0:0:0:
312,312,111277,1,0,0:0:0:0:
460,268,111580,6,0,P|492:220|492:164,1,100
476,132,112034,2,0,L|500:28,2,100,2|0|0,0:0|0:0|0:0,0:0:0:0:
396,192,112792,2,0,P|336:204|280:188,1,100
116,192,113398,2,0,P|176:180|232:196,1,100,8|0,0:0|0:0,0:0:0:0:
252,220,113852,1,0,0:0:0:0:
272,268,114004,6,0,L|280:368,1,100,0|0,2:0|0:0,0:0:0:0:
396,192,114610,2,0,L|388:92,1,100,8|0,0:0|0:0,0:0:0:0:
352,60,115064,1,0,0:0:0:0:
304,48,115216,1,0,0:0:0:0:
112,100,115519,1,0,0:0:0:0:
100,300,115822,1,8,0:0:0:0:
292,248,116125,1,8,0:0:0:0:
304,48,116428,6,0,P|360:36|416:44,1,100,4|0,0:0|0:0,0:0:0:0:
444,68,116883,2,0,B|484:112|476:168|476:168|496:216,1,150,2|0,0:0|0:0,0:0:0:0:
437,346,117640,2,0,L|404:252,1,100
380,208,118095,2,0,B|328:168|268:192|268:192|224:192,1,150,2|0,0:0|0:0,0:0:0:0:
120,312,118852,6,0,P|169:318|216:335,1,100
264,348,119307,2,0,B|284:352|308:364|308:364|328:312|312:260,1,150,2|0,0:0|0:0,0:0:0:0:
400,212,120064,2,0,P|388:160|396:104,1,100
368,72,120519,2,0,P|304:64|208:76,1,150,2|0,0:0|0:0,0:0:0:0:
44,20,121277,6,0,P|92:32|132:68,1,100,0|0,0:0|0:0,0:0:0:0:
144,112,121731,2,0,L|132:216,2,100,2|0|0,0:0|0:0|0:0,0:0:0:0:
52,152,122489,2,0,L|40:252,1,100
92,336,123095,1,8,0:0:0:0:
172,276,123398,1,0,0:0:0:0:
172,276,123549,1,0,0:0:0:0:
172,276,123701,6,0,B|240:312|332:312|384:220|456:220|456:220|456:152|456:152|384:152|332:68|244:68,1,600
216,164,127640,6,0,B|165:163|123:139|96:80|119:22,1,200
72,8,128398,1,0,0:0:0:0:
32,36,128549,2,0,L|8:136,1,100
52,328,129155,2,0,L|76:228,1,100,8|0,0:0|0:0,0:0:0:0:
124,232,129610,2,0,L|144:160,1,50
172,92,130064,1,0,0:0:0:0:
316,136,130368,1,8,0:0:0:0:
268,276,130672,1,0,0:0:0:0:
124,232,130974,6,0,P|64:200|40:152,1,100
60,128,131428,2,0,L|80:24,2,100
124,232,132186,2,0,L|104:344,1,100
8,336,132792,1,8,0:0:0:0:
204,352,133095,1,0,0:0:0:0:
204,352,133246,1,0,0:0:0:0:
204,352,133398,1,2,0:0:0:0:
132,228,135822,5,4,0:0:0:0:
208,292,136125,1,0,0:0:0:0:
308,292,136428,1,8,0:0:0:0:
380,224,136731,1,0,0:0:0:0:
380,224,136883,2,0,P|429:181|442:142,1,100
484,124,137337,2,0,L|496:8,1,100,0|8,0:0|0:0,0:0:0:0:
468,296,137943,1,0,0:0:0:0:
432,332,138095,1,0,0:0:0:0:
384,344,138246,5,0,0:0:0:0:
336,336,138398,1,0,0:0:0:0:
300,304,138549,2,0,B|256:276|256:276|160:276,1,100,0|8,0:0|0:0,0:0:0:0:
48,343,139156,1,0,0:0:0:0:
48,343,139307,1,0,0:0:0:0:
48,343,139459,1,0,0:0:0:0:
71,170,139762,1,0,0:0:0:0:
208,276,140065,1,8,0:0:0:0:
12,248,140368,1,0,0:0:0:0:
148,352,140671,6,0,P|200:372|256:360,1,100
332,324,141277,1,8,0:0:0:0:
404,252,141580,2,0,L|396:196,1,50
448,200,141883,2,0,L|436:128,1,50
488,140,142186,2,0,L|472:32,1,100,0|8,0:0|0:0,0:0:0:0:
348,92,142792,1,0,0:0:0:0:
304,65,142943,1,0,0:0:0:0:
257,52,143095,5,0,0:0:0:0:
208,69,143246,1,0,0:0:0:0:
164,92,143398,2,0,L|40:120,1,100,0|8,0:0|0:0,0:0:0:0:
64,216,144004,2,0,L|8:228,2,50
160,192,144610,1,0,0:0:0:0:
148,296,144913,1,8,0:0:0:0:
68,112,145216,1,0,0:0:0:0:
148,296,145519,6,0,P|196:324|268:312,1,100,4|0,0:0|0:0,0:0:0:0:
332,304,146125,1,8,0:0:0:0:
364,208,146428,1,0,0:0:0:0:
364,208,146580,2,0,L|380:100,1,100
352,68,147034,2,0,P|288:52|228:64,1,100,0|8,0:0|0:0,0:0:0:0:
164,96,147640,1,0,0:0:0:0:
124,124,147792,1,0,0:0:0:0:
108,172,147943,6,0,P|100:220|128:288,2,100,0|0|8,0:0|0:0|0:0,0:0:0:0:
276,156,148853,1,0,0:0:0:0:
276,156,149004,1,0,0:0:0:0:
276,156,149156,2,0,P|300:216|300:256,1,100
224,312,149762,1,8,0:0:0:0:
160,208,150065,1,0,0:0:0:0:
393,205,150368,6,0,P|399:299|316:344,1,200,4|0,0:0|0:0,0:0:0:0:
117,206,151580,2,0,P|111:300|196:344,1,200,4|0,0:0|0:0,0:0:0:0:
256,192,152792,12,2,155216,0:0:0:0:
