osu file format v14

[General]
AudioFilename: Flower Dance.mp3
AudioLeadIn: 0
PreviewTime: 103247
Countdown: 0
SampleSet: Soft
StackLeniency: 0.7
Mode: 0
LetterboxInBreaks: 0
WidescreenStoryboard: 0

[Editor]
DistanceSpacing: 1.2
BeatDivisor: 4
GridSize: 4
TimelineZoom: 4.099998

[Metadata]
Title:Flower Dance
TitleUnicode:Flower Dance
Artist:DJ OKAWARI
ArtistUnicode:DJ OKAWARI
Creator:Narcissu
Version:Camellia
Source:
Tags:a cup of coffee appleeaterx little cloudsplash16 Critical_Star
BeatmapID:1018238
BeatmapSetID:476691

[Difficulty]
HPDrainRate:6
CircleSize:4
OverallDifficulty:8
ApproachRate:9.2
SliderMultiplier:2
SliderTickRate:1

[Events]
//Background and Video events
0,0,"BG.jpg",0,0
//Break Periods
//Storyboard Layer 0 (Background)
//Storyboard Layer 1 (Fail)
//Storyboard Layer 2 (Pass)
//Storyboard Layer 3 (Foreground)
//Storyboard Sound Samples

[TimingPoints]
26597,600,4,2,1,40,1,0
26597,-83.3333333333333,4,2,1,40,0,0
45797,-71.4285714285714,4,2,1,60,0,1
64997,-71.4285714285714,4,2,1,40,0,0
103397,-62.5,4,2,1,60,0,1
122597,-71.4285714285714,4,2,1,40,0,0
141797,-66.6666666666667,4,2,1,50,0,0
159197,-64.5161290322581,4,2,1,55,0,0
159797,-62.5,4,2,1,60,0,0
160397,-60.6060606060606,4,2,1,65,0,0
160997,-58.8235294117647,4,2,1,70,0,1
199397,-58.8235294117647,4,2,1,60,0,0
201797,-55.5555555555556,4,2,1,80,0,1
240197,-55.5555555555556,4,2,1,40,0,0

[Colours]
Combo1 : 255,255,255
Combo2 : 128,255,255
Combo3 : 255,255,128
Combo4 : 128,128,255
Combo5 : 255,128,255

[HitObjects]
248,192,26597,5,2,0:0:0:0:
324,228,26897,2,0,P|384:216|424:160,1,119.999996337891,2|0,0:0|0:0,0:0:0:0:
248,192,27347,1,2,0:0:0:0:
176,236,27497,2,0,L|168:308,1,59.9999981689454,2|2,0:0|0:0,0:0:0:0:
60,164,27797,6,0,L|48:32,2,119.999996337891,2|0|2,0:0|0:0|0:0,0:0:0:0:
392,24,28997,6,0,B|384:148|384:148|340:200,1,179.999994506836,2|2,0:0|0:0,0:0:0:0:
428,328,29597,2,0,P|432:236|500:180,1,179.999994506836,2|2,0:0|0:0,0:0:0:0:
332,336,30197,5,2,0:0:0:0:
236,344,30497,1,0,0:0:0:0:
40,272,30797,1,2,0:0:0:0:
136,280,31097,1,0,0:0:0:0:
128,28,31397,22,0,P|96:80|96:152,1,119.999996337891,2|0,0:0|0:0,0:0:0:0:
416,188,31997,2,0,P|411:128|380:78,1,119.999996337891,2|0,0:0|0:0,0:0:0:0:
44,216,32597,6,0,B|76:228|76:228|172:224,1,119.999996337891,2|2,0:0|0:0,0:0:0:0:
161,224,32997,2,0,L|156:284,1,39.9999987792969,2|2,0:0|0:0,0:0:0:0:
248,192,33197,2,0,L|256:320,1,119.999996337891,2|2,0:0|0:0,0:0:0:0:
432,207,33797,5,2,0:0:0:0:
497,135,34097,1,2,0:0:0:0:
446,52,34397,1,2,0:0:0:0:
351,74,34697,1,2,0:0:0:0:
343,170,34997,5,2,0:0:0:0:
248,192,35297,1,2,0:0:0:0:
197,109,35597,1,2,0:0:0:0:
262,37,35897,1,2,0:0:0:0:
351,74,36197,21,2,0:0:0:0:
197,109,36497,2,0,P|128:104|76:68,1,119.999996337891,2|0,0:0|0:0,0:0:0:0:
262,37,36947,1,2,0:0:0:0:
351,74,37097,2,0,L|416:72,1,59.9999981689454,2|2,0:0|0:0,0:0:0:0:
512,212,37397,5,2,0:0:0:0:
392,200,37697,1,0,0:0:0:0:
240,352,37997,1,2,0:0:0:0:
360,340,38297,1,0,0:0:0:0:
88,243,38597,6,0,P|50:289|43:348,1,119.999996337891,2|2,0:0|0:0,0:0:0:0:
131,131,39197,2,0,P|73:121|19:145,1,119.999996337891,2|2,0:0|0:0,0:0:0:0:
356,24,39797,5,2,0:0:0:0:
356,24,39947,2,0,P|368:48|360:104,1,59.9999981689454,2|0,0:0|0:0,0:0:0:0:
452,80,40247,2,0,P|450:106|415:151,1,59.9999981689454,2|0,0:0|0:0,0:0:0:0:
508,176,40547,2,0,P|493:198|440:219,2,59.9999981689454,2|0|2,0:0|0:0|0:0,0:0:0:0:
380,204,40997,21,2,0:0:0:0:
296,208,41147,1,2,0:0:0:0:
216,232,41297,1,2,0:0:0:0:
148,280,41447,1,2,0:0:0:0:
0,208,41597,2,0,L|76:212,1,59.9999981689454,2|2,0:0|0:0,0:0:0:0:
96,348,41897,2,0,L|20:352,1,59.9999981689454,2|2,0:0|0:0,0:0:0:0:
191,153,42197,5,2,0:0:0:0:
216,232,42347,1,2,0:0:0:0:
260,304,42497,1,2,0:0:0:0:
323,356,42647,1,2,0:0:0:0:
500,280,42797,2,0,P|468:280|428:292,1,59.9999981689454,2|2,0:0|0:0,0:0:0:0:
256,216,43097,2,0,P|285:222|315:222,1,59.9999981689454,2|2,0:0|0:0,0:0:0:0:
456,40,43397,5,2,0:0:0:0:
456,40,43547,1,2,0:0:0:0:
296,80,43697,1,2,0:0:0:0:
296,80,43847,1,2,0:0:0:0:
388,108,43997,2,0,P|399:135|401:165,1,59.9999981689454,2|2,0:0|0:0,0:0:0:0:
200,88,44297,2,0,P|202:58|213:30,1,59.9999981689454,2|2,0:0|0:0,0:0:0:0:
128,152,44597,5,2,0:0:0:0:
44,156,44747,1,2,0:0:0:0:
188,224,44897,1,2,1:2:0:0:
272,228,45047,1,2,0:0:0:0:
44,156,45197,5,10,0:0:0:0:
272,228,45497,1,2,1:2:0:0:
400,20,45797,6,0,P|364:80|368:160,1,139.999995727539,6|2,1:2|0:0,0:0:0:0:
420,212,46247,1,2,0:0:0:0:
364,148,46397,2,0,L|280:144,1,69.9999978637696,10|0,0:0|0:0,0:0:0:0:
376,288,46697,2,0,L|380:372,1,69.9999978637696,2|0,0:0|0:0,0:0:0:0:
280,244,46997,6,0,P|208:256|160:308,2,139.999995727539,2|2|10,1:2|1:2|0:0,0:0:0:0:
32,192,47897,1,2,0:0:0:0:
32,192,48047,1,2,0:0:0:0:
116,176,48197,6,0,P|160:128|168:44,1,139.999995727539,2|2,1:2|0:0,0:0:0:0:
381,47,48647,1,2,0:0:0:0:
321,107,48797,2,0,L|252:104,1,69.9999978637696,10|0,0:0|0:0,0:0:0:0:
456,86,49097,2,0,L|460:156,1,69.9999978637696,2|0,0:0|0:0,0:0:0:0:
397,351,49397,6,0,L|400:212,2,139.999995727539,2|2|10,1:2|1:2|0:0,0:0:0:0:
112,188,50297,1,2,0:0:0:0:
112,188,50447,1,2,0:0:0:0:
190,217,50597,22,0,P|228:197|250:166,1,69.9999978637696,2|0,1:2|0:0,0:0:0:0:
32,208,50897,2,0,P|14:246|14:283,1,69.9999978637696,2|0,0:0|0:0,0:0:0:0:
165,122,51197,2,0,P|158:79|136:49,1,69.9999978637696,10|0,0:0|0:0,0:0:0:0:
108,270,51497,2,0,P|139:299|175:310,1,69.9999978637696,2|0,0:0|0:0,0:0:0:0:
67,117,51797,6,0,P|25:110|-10:123,1,69.9999978637696,2|0,1:2|0:0,0:0:0:0:
190,217,52097,2,0,P|228:197|250:166,1,69.9999978637696,2|0,1:2|0:0,0:0:0:0:
32,208,52397,2,0,P|14:246|14:283,1,69.9999978637696,10|0,0:0|0:0,0:0:0:0:
165,122,52697,2,0,P|158:79|136:49,1,69.9999978637696,2|0,0:0|0:0,0:0:0:0:
108,269,52997,6,0,P|164:308|232:302,1,139.999995727539,2|2,1:2|0:0,0:0:0:0:
432,273,53447,1,2,0:0:0:0:
432,273,53597,2,0,P|364:279|308:240,1,139.999995727539,10|2,0:0|0:0,0:0:0:0:
357,50,54047,1,2,0:0:0:0:
357,50,54197,6,0,B|381:90|381:90|387:183,2,139.999995727539,2|2|10,1:2|1:2|0:0,0:0:0:0:
308,240,55097,1,0,0:0:0:0:
32,236,55397,22,0,P|88:208|172:212,1,139.999995727539,2|2,1:2|0:0,0:0:0:0:
228,260,55847,1,2,0:0:0:0:
164,209,55997,2,0,L|156:132,1,69.9999978637696,10|0,0:0|0:0,0:0:0:0:
308,240,56297,2,0,L|388:236,1,69.9999978637696,2|0,0:0|0:0,0:0:0:0:
252,160,56597,6,0,P|256:88|296:24,2,139.999995727539,2|2|10,1:2|1:2|0:0,0:0:0:0:
412,36,57497,1,2,0:0:0:0:
412,36,57647,1,2,0:0:0:0:
472,92,57797,6,0,P|486:155|451:232,1,139.999995727539,2|2,1:2|0:0,0:0:0:0:
300,256,58247,1,2,0:0:0:0:
384,264,58397,2,0,B|399:293|399:293|405:329,1,69.9999978637696,10|0,0:0|0:0,0:0:0:0:
216,272,58697,2,0,B|217:239|217:239|230:204,1,69.9999978637696,2|0,0:0|0:0,0:0:0:0:
376,84,58997,6,0,P|320:120|224:108,2,139.999995727539,2|2|10,1:2|1:2|0:0,0:0:0:0:
48,144,59897,1,2,0:0:0:0:
48,144,60047,1,2,0:0:0:0:
68,56,60197,22,0,L|152:48,1,69.9999978637696,2|0,1:2|0:0,0:0:0:0:
148,240,60497,2,0,L|68:236,1,69.9999978637696,2|0,0:0|0:0,0:0:0:0:
48,144,60797,2,0,L|128:140,1,69.9999978637696,10|0,0:0|0:0,0:0:0:0:
112,324,61097,2,0,L|40:320,1,69.9999978637696,2|0,0:0|0:0,0:0:0:0:
292,200,61397,5,2,1:2:0:0:
235,263,61547,1,2,0:0:0:0:
277,336,61697,1,2,1:2:0:0:
359,318,61847,1,2,0:0:0:0:
368,235,61997,1,10,0:0:0:0:
450,217,62147,1,2,0:0:0:0:
492,290,62297,1,2,0:0:0:0:
436,351,62447,1,2,0:0:0:0:
359,318,62597,5,2,1:2:0:0:
368,235,62897,1,2,0:2:0:0:
292,200,63197,1,10,0:0:0:0:
235,263,63497,1,2,0:2:0:0:
277,336,63797,6,0,P|204:340|152:280,2,139.999995727539,2|2|10,1:2|1:2|0:0,0:0:0:0:
235,263,64697,1,0,0:0:0:0:
40,320,64997,22,0,P|76:264|68:176,1,139.999995727539,2|0,1:2|0:0,0:0:0:0:
56,160,65597,1,10,0:0:0:0:
140,148,65747,1,2,0:0:0:0:
216,108,65897,1,2,0:0:0:0:
268,40,66047,1,2,0:0:0:0:
364,120,66197,6,0,P|433:117|489:78,1,139.999995727539,2|0,0:0|1:2,0:0:0:0:
184,72,66797,2,0,P|114:69|58:30,1,139.999995727539,10|0,0:0|0:0,0:0:0:0:
284,168,67397,6,0,L|288:324,1,139.999995727539,0|0,1:2|0:0,0:0:0:0:
383,185,67847,1,2,0:0:0:0:
383,185,67997,2,0,L|399:349,1,139.999995727539,10|0,0:0|0:0,0:0:0:0:
188,192,68447,1,2,0:0:0:0:
188,192,68597,5,2,0:0:0:0:
176,336,68897,1,0,1:2:0:0:
20,176,69197,1,10,0:0:0:0:
36,320,69497,1,0,0:0:0:0:
8,76,69797,22,0,L|156:84,1,139.999995727539,2|0,1:2|0:0,0:0:0:0:
480,144,70397,2,0,L|336:152,1,139.999995727539,10|0,0:0|0:0,0:0:0:0:
204,352,70997,6,0,P|228:296|204:204,1,139.999995727539,2|2,0:0|1:2,0:0:0:0:
214,220,71397,2,0,L|264:212,1,46.6666652425131,2|2,0:0|0:0,0:0:0:0:
124,280,71597,2,0,P|52:272|4:224,1,139.999995727539,10|2,0:0|0:0,0:0:0:0:
149,148,72197,5,2,1:2:0:0:
295,87,72497,1,2,0:0:0:0:
214,220,72797,1,10,0:0:0:0:
200,65,73097,1,2,0:0:0:0:
303,183,73397,5,2,0:0:0:0:
384,50,73697,1,2,1:2:0:0:
295,87,73997,1,10,0:0:0:0:
398,205,74297,5,2,0:0:0:0:
449,122,74447,1,2,0:0:0:0:
303,183,74597,6,0,P|316:260|392:300,2,139.999995727539,2|0|8,1:2|0:0|0:0,0:0:0:0:
398,205,75347,1,2,0:0:0:0:
276,268,75497,2,0,L|204:264,1,69.9999978637696,2|2,0:0|0:0,0:0:0:0:
40,240,75797,5,2,0:0:0:0:
52,360,76097,1,0,1:2:0:0:
120,128,76397,1,10,0:0:0:0:
132,8,76697,1,0,0:0:0:0:
206,264,76997,6,0,P|266:296|335:292,1,139.999995727539,2|2,1:2|0:0,0:0:0:0:
247,61,77597,2,0,P|249:130|288:188,1,139.999995727539,10|2,0:0|0:0,0:0:0:0:
440,100,78197,5,2,0:0:0:0:
385,35,78347,2,0,P|364:62|356:96,1,69.9999978637696,2|0,0:0|1:2,0:0:0:0:
504,236,78647,2,0,L|496:144,1,69.9999978637696,2|8,0:0|0:0,0:0:0:0:
326,208,78947,2,0,L|396:212,2,69.9999978637696,2|0|2,0:0|0:0|0:0,0:0:0:0:
60,192,79397,21,2,1:2:0:0:
196,92,79547,1,2,0:0:0:0:
48,108,79697,1,2,0:0:0:0:
184,176,79847,1,2,0:0:0:0:
60,192,79997,2,0,P|44:232|40:272,1,69.9999978637696,10|2,0:0|0:0,0:0:0:0:
240,244,80297,2,0,P|256:284|260:324,1,69.9999978637696,2|2,0:0|0:0,0:0:0:0:
148,308,80597,5,2,0:0:0:0:
256,340,80747,1,2,0:0:0:0:
360,296,80897,1,2,1:2:0:0:
464,332,81047,1,2,0:0:0:0:
416,144,81197,2,0,L|412:213,1,69.9999978637696,10|2,0:0|0:0,0:0:0:0:
468,52,81497,2,0,L|384:40,1,69.9999978637696,2|0,0:0|0:0,0:0:0:0:
152,72,81797,5,2,1:2:0:0:
312,124,81947,1,2,0:0:0:0:
152,72,82097,1,2,0:0:0:0:
312,124,82247,1,2,0:0:0:0:
72,132,82397,2,0,P|56:100|53:66,1,69.9999978637696,10|2,0:0|0:0,0:0:0:0:
115,282,82697,2,0,P|112:317|96:348,1,69.9999978637696,2|2,0:0|0:0,0:0:0:0:
180,208,82997,5,2,0:0:0:0:
264,204,83147,1,2,0:0:0:0:
356,344,83297,1,2,1:2:0:0:
272,340,83447,1,2,0:0:0:0:
416,196,83597,5,10,0:0:0:0:
424,280,83897,1,0,0:0:0:0:
408,112,84197,6,0,P|332:100|284:52,1,139.999995727539,2|2,1:2|0:0,0:0:0:0:
256,72,84797,1,10,0:0:0:0:
216,144,84947,1,2,0:0:0:0:
148,192,85097,1,2,0:0:0:0:
68,216,85247,1,2,0:0:0:0:
224,224,85397,6,0,P|224:304|180:364,1,139.999995727539,2|0,0:0|1:2,0:0:0:0:
128,152,85997,2,0,P|128:72|84:12,1,139.999995727539,10|0,0:0|0:0,0:0:0:0:
300,152,86597,6,0,L|456:148,1,139.999995727539,0|0,1:2|0:0,0:0:0:0:
317,53,87047,1,2,0:0:0:0:
317,53,87197,2,0,L|481:37,1,139.999995727539,10|0,0:0|0:0,0:0:0:0:
324,248,87647,1,2,0:0:0:0:
324,248,87797,5,2,0:0:0:0:
496,260,88097,1,0,1:0:0:0:
304,360,88397,1,10,0:0:0:0:
472,352,88697,1,0,0:0:0:0:
196,364,88997,22,0,L|204:216,1,139.999995727539,2|0,1:2|0:0,0:0:0:0:
20,44,89597,2,0,L|28:192,1,139.999995727539,10|0,0:0|0:0,0:0:0:0:
275,144,90197,6,0,P|219:120|127:144,1,139.999995727539,2|2,0:0|1:2,0:0:0:0:
143,133,90597,2,0,L|136:80,1,46.6666652425131,2|2,0:0|0:0,0:0:0:0:
203,224,90797,2,0,L|192:372,1,139.999995727539,10|2,0:0|0:0,0:0:0:0:
384,344,91397,5,2,1:2:0:0:
457,203,91697,1,2,0:0:0:0:
317,272,91997,1,10,0:0:0:0:
471,300,92297,1,2,0:0:0:0:
362,187,92597,5,2,0:0:0:0:
502,118,92897,1,2,1:2:0:0:
457,203,93197,1,10,0:0:0:0:
348,90,93497,5,2,0:0:0:0:
436,47,93647,1,2,0:0:0:0:
362,187,93797,6,0,P|292:172|248:92,2,139.999995727539,2|0|8,1:2|0:0|0:0,0:0:0:0:
348,90,94547,1,2,0:0:0:0:
240,156,94697,2,0,L|153:151,1,69.9999978637696,2|2,0:0|0:0,0:0:0:0:
48,272,94997,5,2,0:0:0:0:
168,260,95297,1,0,1:2:0:0:
464,352,95597,1,10,0:0:0:0:
344,340,95897,1,0,0:0:0:0:
440,40,96197,6,0,B|464:76|464:76|472:184,1,139.999995727539,2|2,1:2|0:0,0:0:0:0:
48,272,96797,2,0,B|30:232|30:232|41:124,1,139.999995727539,10|2,0:0|0:0,0:0:0:0:
256,156,97397,5,2,0:0:0:0:
212,227,97547,2,0,P|180:241|145:243,1,69.9999978637696,2|0,0:0|1:2,0:0:0:0:
340,158,97847,2,0,P|368:177|387:207,1,69.9999978637696,2|8,0:0|0:0,0:0:0:0:
215,81,98147,2,0,P|217:46|233:15,2,69.9999978637696,2|0|2,0:0|0:0|0:0,0:0:0:0:
256,156,98597,21,6,0:0:0:0:
88,224,98747,1,2,0:0:0:0:
80,140,98897,1,2,0:0:0:0:
244,240,99047,1,2,0:0:0:0:
69,305,99197,2,0,P|32:316|-8:316,1,69.9999978637696,2|2,0:0|0:0,0:0:0:0:
266,320,99497,2,0,P|300:328|336:328,1,69.9999978637696,2|2,0:0|0:0,0:0:0:0:
484,192,99797,5,2,0:0:0:0:
366,124,99947,1,2,0:0:0:0:
421,248,100097,1,2,0:0:0:0:
449,116,100247,1,2,0:0:0:0:
348,206,100397,2,0,L|264:212,1,69.9999978637696,2|2,0:0|0:0,0:0:0:0:
40,52,100697,2,0,L|124:58,1,69.9999978637696,2|2,0:0|0:0,0:0:0:0:
248,32,100997,5,2,0:0:0:0:
152,204,101147,1,2,0:0:0:0:
248,32,101297,1,2,0:0:0:0:
152,204,101447,1,2,0:0:0:0:
240,248,101597,2,0,L|248:332,1,69.9999978637696,2|2,0:0|0:0,0:0:0:0:
64,248,101897,2,0,L|-5:244,1,69.9999978637696,2|2,0:0|0:0,0:0:0:0:
136,108,102197,5,2,0:0:0:0:
152,204,102347,1,2,0:0:0:0:
256,72,102497,1,2,1:2:0:0:
252,168,102647,1,2,0:0:0:0:
388,72,102797,5,10,0:0:0:0:
359,165,103097,1,2,1:2:0:0:
512,100,103397,6,0,P|460:168|456:248,1,160,6|2,1:2|0:0,0:0:0:0:
504,320,103847,1,2,0:0:0:0:
276,252,103997,2,0,L|356:248,1,80,10|0,0:0|0:0,0:0:0:0:
208,336,104297,2,0,P|176:304|164:252,1,80,2|0,0:0|0:0,0:0:0:0:
52,192,104597,6,0,P|56:280|0:344,2,160,2|2|10,1:2|1:2|0:0,0:0:0:0:
236,104,105497,1,2,0:0:0:0:
144,80,105647,1,2,0:0:0:0:
297,29,105797,6,0,P|331:112|289:186,1,160,2|2,1:2|0:0,0:0:0:0:
504,180,106247,1,2,0:0:0:0:
424,128,106397,2,0,L|420:48,1,80,10|0,0:0|0:0,0:0:0:0:
276,200,106697,2,0,L|196:203,1,80,2|0,0:0|0:0,0:0:0:0:
340,272,106997,6,0,P|424:256|508:312,2,160,2|2|10,1:2|1:2|0:0,0:0:0:0:
132,152,107897,1,2,0:0:0:0:
132,152,108047,1,2,0:0:0:0:
283,138,108197,22,0,P|256:168|220:185,1,80,2|0,1:2|0:0,0:0:0:0:
3,71,108497,2,0,P|41:62|80:71,1,80,2|0,0:0|0:0,0:0:0:0:
191,289,108797,2,0,P|155:273|127:245,1,80,10|0,0:0|0:0,0:0:0:0:
168,2,109097,2,0,P|188:37|192:76,1,80,2|0,0:0|0:0,0:0:0:0:
18,249,109397,6,0,P|22:209|40:174,1,80,2|0,1:2|0:0,0:0:0:0:
283,138,109697,2,0,P|256:168|220:185,1,80,2|0,1:2|0:0,0:0:0:0:
3,71,109997,2,0,P|41:62|80:71,1,80,10|0,0:0|0:0,0:0:0:0:
191,289,110297,2,0,P|155:273|127:245,1,80,2|0,0:0|0:0,0:0:0:0:
168,2,110597,6,0,P|192:88|148:164,1,160,2|2,1:2|0:0,0:0:0:0:
408,215,111047,1,2,0:0:0:0:
408,215,111197,2,0,P|321:192|277:116,1,160,10|2,0:0|0:0,0:0:0:0:
84,256,111647,1,2,0:0:0:0:
84,256,111797,6,0,B|200:244|200:244|260:264,2,160,2|2|8,1:2|1:2|0:0,0:0:0:0:
256,352,112697,1,0,0:0:0:0:
472,119,112997,22,0,P|516:186|508:267,1,160,2|2,1:2|0:0,0:0:0:0:
408,215,113447,1,2,0:0:0:0:
344,144,113597,2,0,L|256:140,1,80,10|0,0:0|0:0,0:0:0:0:
380,244,113897,2,0,L|384:352,1,80,2|0,0:0|0:0,0:0:0:0:
208,292,114197,6,0,L|44:304,2,160,2|2|10,1:2|1:2|0:0,0:0:0:0:
36,56,115097,1,2,0:0:0:0:
28,152,115247,1,2,0:0:0:0:
132,44,115397,6,0,P|132:128|184:192,1,160,2|2,1:2|0:0,0:0:0:0:
384,152,115847,1,2,0:0:0:0:
316,84,115997,2,0,B|268:84|268:84|236:92,1,80,10|0,0:0|0:0,0:0:0:0:
476,123,116297,2,0,B|492:95|492:95|496:48,1,80,2|0,0:0|0:0,0:0:0:0:
384,152,116597,6,0,P|440:212|532:204,2,160,2|2|10,1:2|1:2|0:0,0:0:0:0:
184,228,117497,1,2,0:0:0:0:
184,228,117647,1,2,0:0:0:0:
88,344,117797,22,0,L|80:260,1,80,2|0,1:2|0:0,0:0:0:0:
328,228,118097,2,0,L|324:308,1,80,2|0,0:0|0:0,0:0:0:0:
188,308,118397,2,0,L|184:228,1,80,10|0,0:0|0:0,0:0:0:0:
431,264,118697,2,0,L|424:344,1,80,2|0,0:0|0:0,0:0:0:0:
396,160,118997,5,2,1:2:0:0:
242,189,119147,1,2,0:0:0:0:
346,74,119297,1,2,1:2:0:0:
328,228,119447,1,2,0:0:0:0:
252,94,119597,1,10,0:0:0:0:
149,209,119747,1,2,0:0:0:0:
164,57,119897,1,2,0:0:0:0:
242,189,120047,1,2,0:0:0:0:
101,126,120197,5,2,1:2:0:0:
252,94,120497,1,2,0:0:0:0:
328,228,120797,1,10,0:0:0:0:
149,209,121097,1,2,0:0:0:0:
393,157,121397,6,0,P|420:230|387:301,2,160,2|2|10,1:2|1:2|0:0,0:0:0:0:
328,228,122297,1,0,0:0:0:0:
72,336,122597,22,0,L|224:332,1,139.999995727539,6|2,0:0|0:0,0:0:0:0:
211,332,123047,1,2,0:0:0:0:
36,240,123197,2,0,L|195:244,1,139.999995727539,2|2,0:2|0:0,0:0:0:0:
175,243,123647,1,2,0:0:0:0:
64,132,123797,2,0,L|220:148,1,139.999995727539,2|2,0:0|0:0,0:0:0:0:
203,146,124247,1,2,0:0:0:0:
32,40,124397,2,0,L|199:36,1,139.999995727539,2|2,0:2|0:0,0:0:0:0:
171,36,124847,1,2,0:0:0:0:
324,32,124997,6,0,P|339:70|339:108,1,69.9999978637696,2|0,0:0|0:0,0:0:0:0:
424,92,125297,2,0,P|418:132|399:165,1,69.9999978637696,2|0,0:0|0:0,0:0:0:0:
480,192,125597,2,0,P|455:224|422:243,1,69.9999978637696,2|0,0:2|0:0,0:0:0:0:
484,304,125897,2,0,P|446:319|408:319,1,69.9999978637696,2|0,0:0|0:0,0:0:0:0:
332,272,126197,6,0,P|331:233|315:192,1,69.9999978637696,2|0,0:0|0:0,0:0:0:0:
252,252,126497,2,0,P|232:219|197:191,1,69.9999978637696,2|0,0:0|0:0,0:0:0:0:
172,276,126797,2,0,P|138:257|95:250,1,69.9999978637696,2|0,0:2|0:0,0:0:0:0:
108,336,127097,2,0,P|69:337|28:353,1,69.9999978637696,2|0,0:0|0:0,0:0:0:0:
76,228,127397,6,0,L|65:65,1,139.999995727539,2|2,0:0|0:0,0:0:0:0:
176,72,127847,1,2,0:0:0:0:
172,211,127997,2,0,L|176:48,1,139.999995727539,2|2,0:2|0:0,0:0:0:0:
284,96,128447,1,2,0:0:0:0:
287,235,128597,2,0,L|283:68,1,139.999995727539,2|2,0:0|0:0,0:0:0:0:
400,72,129047,1,2,0:0:0:0:
395,212,129197,2,0,L|402:48,1,139.999995727539,2|2,0:2|0:0,0:0:0:0:
492,144,129647,1,2,0:0:0:0:
492,144,129797,5,2,0:0:0:0:
240,180,130097,1,2,0:0:0:0:
358,55,130397,1,2,0:2:0:0:
445,305,130697,1,2,0:0:0:0:
168,256,130997,1,0,0:0:0:0:
368,184,131297,1,2,0:0:0:0:
368,184,131897,1,2,0:0:0:0:
200,348,132197,6,0,P|120:344|72:284,1,139.999995727539,2|2,0:0|0:0,0:0:0:0:
79,304,132647,1,2,0:0:0:0:
308,316,132797,2,0,P|388:312|436:252,1,139.999995727539,2|2,0:2|0:0,0:0:0:0:
429,272,133247,1,2,0:0:0:0:
168,256,133397,2,0,P|140:188|144:108,1,139.999995727539,2|2,0:0|0:0,0:0:0:0:
140,122,133847,1,2,0:0:0:0:
340,224,133997,2,0,P|368:156|364:76,1,139.999995727539,2|2,0:2|0:0,0:0:0:0:
367,90,134447,1,2,0:0:0:0:
276,24,134597,6,0,L|192:20,1,69.9999978637696,2|0,0:0|0:0,0:0:0:0:
224,116,134897,2,0,L|144:93,1,69.9999978637696,2|0,0:0|0:0,0:0:0:0:
148,196,135197,2,0,L|77:153,1,69.9999978637696,2|0,0:2|0:0,0:0:0:0:
52,252,135497,2,0,L|-5:192,1,69.9999978637696,2|0,0:0|0:0,0:0:0:0:
156,284,135797,6,0,L|144:352,1,69.9999978637696,2|0,0:0|0:0,0:0:0:0:
268,260,136097,2,0,L|238:322,1,69.9999978637696,2|0,0:0|0:0,0:0:0:0:
380,268,136397,2,0,L|335:320,1,69.9999978637696,2|0,0:2|0:0,0:0:0:0:
488,308,136697,2,0,L|431:347,1,69.9999978637696,2|0,0:0|0:0,0:0:0:0:
378,164,136997,6,0,P|322:116|242:116,1,139.999995727539,2|2,0:0|0:0,0:0:0:0:
290,204,137447,1,2,0:0:0:0:
237,323,137597,2,0,P|285:267|285:187,1,139.999995727539,2|2,3:2|0:0,0:0:0:0:
198,236,138047,1,2,0:0:0:0:
78,183,138197,2,0,P|134:231|214:231,1,139.999995727539,2|2,0:0|0:0,0:0:0:0:
166,143,138647,1,2,0:0:0:0:
219,24,138797,2,0,P|171:80|171:160,1,139.999995727539,2|2,3:2|0:0,0:0:0:0:
259,112,139247,1,2,0:0:0:0:
259,112,139397,5,2,0:0:0:0:
36,192,139697,1,2,0:0:0:0:
340,248,139997,1,2,3:2:0:0:
272,4,140297,1,2,0:0:0:0:
128,268,140597,1,0,0:0:0:0:
280,152,140897,1,2,0:0:0:0:
88,88,141197,1,2,3:2:0:0:
120,308,141497,1,2,0:0:0:0:
392,232,141797,6,0,L|220:244,1,150.000005722046,2|2,0:0|0:0,0:0:0:0:
172,184,142247,1,2,0:0:0:0:
423,147,142397,2,0,P|477:197|474:269,1,150.000005722046,2|2,3:2|0:0,0:0:0:0:
392,232,142847,1,2,0:0:0:0:
166,280,142997,2,0,L|316:284,1,150.000005722046,2|2,0:0|0:0,0:0:0:0:
392,232,143447,1,2,0:0:0:0:
123,182,143597,2,0,P|69:232|62:305,1,150.000005722046,2|2,3:2|0:0,0:0:0:0:
166,280,144047,1,2,0:0:0:0:
196,108,144197,6,0,P|165:86|129:78,1,75.0000028610231,2|0,0:0|0:0,0:0:0:0:
299,78,144497,2,0,P|283:44|255:18,1,75.0000028610231,2|0,0:0|0:0,0:0:0:0:
399,103,144797,2,0,P|402:65|391:30,1,75.0000028610231,2|0,3:2|0:0,0:0:0:0:
475,176,145097,2,0,P|496:145|504:109,1,75.0000028610231,2|0,0:0|0:0,0:0:0:0:
292,208,145397,6,0,P|329:204|365:215,1,75.0000028610231,2|0,0:0|0:0,0:0:0:0:
217,130,145697,2,0,P|247:108|285:100,1,75.0000028610231,2|0,0:0|0:0,0:0:0:0:
118,102,145997,2,0,P|134:67|161:42,1,75.0000028610231,2|0,3:2|0:0,0:0:0:0:
16,127,146297,2,0,P|13:89|24:54,1,75.0000028610231,2|0,0:0|0:0,0:0:0:0:
32,236,146597,6,0,P|96:204|184:220,1,150.000005722046,2|2,0:0|0:0,0:0:0:0:
256,276,147047,1,2,0:0:0:0:
480,236,147197,2,0,P|416:204|328:220,1,150.000005722046,2|2,3:2|0:0,0:0:0:0:
256,276,147647,1,2,0:0:0:0:
175,63,147797,2,0,L|171:213,1,150.000005722046,2|2,0:0|0:0,0:0:0:0:
256,276,148247,1,2,0:0:0:0:
337,63,148397,2,0,L|341:213,1,150.000005722046,2|2,3:2|0:0,0:0:0:0:
256,276,148847,1,2,0:0:0:0:
256,276,148997,5,2,0:0:0:0:
256,96,149297,1,2,0:0:0:0:
424,232,149597,1,2,3:2:0:0:
120,312,149897,1,2,0:0:0:0:
160,32,150197,1,2,0:0:0:0:
440,104,150497,2,0,P|476:96|508:72,2,75.0000028610231,2|0|2,0:0|0:0|3:2,0:0:0:0:
312,24,151097,1,2,0:0:0:0:
80,204,151397,6,0,P|20:160|3:88,1,150.000005722046,2|2,0:0|0:0,0:0:0:0:
168,192,151847,1,2,0:0:0:0:
180,281,151997,2,0,P|136:340|64:357,1,150.000005722046,2|2,3:2|0:0,0:0:0:0:
168,192,152447,1,2,0:0:0:0:
257,180,152597,2,0,P|316:223|333:295,1,150.000005722046,2|2,0:0|0:0,0:0:0:0:
168,192,153047,1,2,0:0:0:0:
157,102,153197,2,0,P|200:42|272:25,1,150.000005722046,2|2,3:2|0:2,0:0:0:0:
168,192,153647,1,2,0:0:0:0:
78,203,153797,6,0,P|43:187|15:149,1,75.0000028610231,2|0,0:0|0:0,0:0:0:0:
258,181,154097,2,0,P|292:196|320:234,1,75.0000028610231,2|0,0:0|0:0,0:0:0:0:
157,102,154397,2,0,P|172:67|210:39,1,75.0000028610231,2|0,3:2|0:0,0:0:0:0:
179,282,154697,2,0,P|163:316|125:344,1,75.0000028610231,2|0,0:0|0:0,0:0:0:0:
258,181,154997,6,0,P|292:196|320:234,1,75.0000028610231,2|0,0:0|0:0,0:0:0:0:
78,203,155297,2,0,P|43:187|15:149,1,75.0000028610231,2|0,0:0|0:0,0:0:0:0:
179,282,155597,2,0,P|163:316|125:344,1,75.0000028610231,2|0,3:2|0:0,0:0:0:0:
157,102,155897,2,0,P|172:67|210:39,1,75.0000028610231,2|0,0:2|0:0,0:0:0:0:
480,32,156197,6,0,L|316:48,1,150.000005722046,2|2,1:2|0:0,0:0:0:0:
512,136,156647,1,2,0:0:0:0:
512,136,156797,2,0,L|352:136,1,150.000005722046,10|2,0:0|0:0,0:0:0:0:
512,252,157247,1,2,0:0:0:0:
512,252,157397,2,0,L|336:232,1,150.000005722046,2|2,1:2|0:0,0:0:0:0:
476,360,157847,1,2,0:0:0:0:
476,360,157997,2,0,L|320:324,1,150.000005722046,10|2,0:2|0:0,0:0:0:0:
163,145,158447,1,2,0:0:0:0:
107,226,158597,22,0,P|142:238|180:240,1,75.0000028610231,2|0,1:2|0:0,0:0:0:0:
404,157,158897,2,0,P|366:158|331:170,1,75.0000028610231,2|0,1:2|0:0,0:0:0:0:
172,324,159197,6,0,P|208:317|248:292,1,77.5000005912781,10|0,0:2|0:0,0:0:0:0:
308,88,159497,2,0,P|276:107|248:140,1,77.5000005912781,2|0,1:2|0:0,0:0:0:0:
276,376,159797,6,0,P|304:351|328:312,1,80,2|0,1:2|0:0,0:0:0:0:
192,72,160097,2,0,P|174:104|164:145,1,80,2|0,1:2|0:0,0:0:0:0:
396,368,160397,6,0,P|408:332|408:288,1,82.5000007867813,10|0,0:2|0:0,0:0:0:0:
80,128,160697,2,0,P|81:165|100:208,1,82.5000007867813,2|0,1:2|0:0,0:0:0:0:
493,176,160997,22,0,P|413:151|331:169,1,170.000003242493,6|2,1:2|0:0,0:0:0:0:
256,240,161447,1,2,0:0:0:0:
330,169,161597,2,0,P|330:126|312:72,1,85.0000016212464,10|0,0:0|0:0,0:0:0:0:
112,124,161897,1,2,0:0:0:0:
212,144,162047,1,2,0:0:0:0:
12,104,162197,6,0,B|-12:148|-12:148|-20:284,1,170.000003242493,2|2,1:2|1:2,0:0:0:0:
92,304,162647,1,2,0:0:0:0:
278,254,162797,2,0,P|237:241|195:244,1,85.0000016212464,10|0,0:0|0:0,0:0:0:0:
338,338,163097,1,2,0:0:0:0:
338,338,163247,1,2,0:0:0:0:
436,316,163397,6,0,P|457:280|466:239,1,85.0000016212464,2|0,1:2|0:0,0:0:0:0:
472,16,163697,2,0,P|493:51|502:92,1,85.0000016212464,2|0,0:0|0:0,0:0:0:0:
304,296,163997,2,0,P|340:276|369:245,1,85.0000016212464,10|0,0:0|0:0,0:0:0:0:
344,36,164297,2,0,P|380:55|409:86,1,85.0000016212464,2|0,0:0|0:0,0:0:0:0:
148,48,164597,6,0,L|56:40,1,85.0000016212464,2|0,1:2|0:0,0:0:0:0:
104,248,164897,2,0,L|192:240,1,85.0000016212464,2|0,1:2|0:0,0:0:0:0:
112,144,165197,2,0,L|16:148,1,85.0000016212464,10|0,0:0|0:0,0:0:0:0:
44,344,165497,2,0,L|140:352,1,85.0000016212464,2|0,0:0|0:0,0:0:0:0:
228,172,165797,22,0,P|236:260|304:320,1,170.000003242493,2|2,1:2|0:0,0:0:0:0:
444,200,166247,1,2,0:0:0:0:
372,128,166398,2,0,P|347:162|340:204,1,85.0000016212464,10|0,0:0|0:0,0:0:0:0:
444,200,166697,1,2,0:0:0:0:
384,28,166847,1,2,0:0:0:0:
252,149,166997,6,0,P|169:140|108:84,1,170.000003242493,2|2,1:2|1:2,0:0:0:0:
340,204,167447,1,2,0:0:0:0:
344,304,167597,2,0,P|324:352|292:380,1,85.0000016212464,10|0,0:0|0:0,0:0:0:0:
340,204,167897,1,2,0:0:0:0:
340,204,168047,1,2,0:0:0:0:
416,136,168197,6,0,B|468:132|468:132|520:140,1,85.0000016212464,2|0,1:2|0:0,0:0:0:0:
252,256,168497,2,0,B|219:260|219:260|167:256,1,85.0000016212464,2|0,0:0|0:0,0:0:0:0:
460,240,168797,2,0,P|480:280|480:336,1,85.0000016212464,10|0,0:0|0:0,0:0:0:0:
312,80,169097,2,0,P|315:37|335:0,1,85.0000016212464,2|0,0:0|0:0,0:0:0:0:
184,228,169397,6,0,B|64:220|64:220|8:188,2,170.000003242493,2|2|10,1:2|1:2|0:0,0:0:0:0:
112,40,170147,1,2,0:0:0:0:
112,40,170297,2,0,L|116:132,1,85.0000016212464,2|0,0:0|0:0,0:0:0:0:
208,356,170597,22,0,B|212:304|212:304|200:240|200:240|204:180,1,170.000003242493,2|2,1:2|0:0,0:0:0:0:
452,144,171047,1,2,0:0:0:0:
396,228,171197,2,0,L|312:236,1,85.0000016212464,10|0,0:0|0:0,0:0:0:0:
144,108,171497,1,2,0:0:0:0:
288,132,171647,1,2,0:0:0:0:
101,200,171797,6,0,P|48:137|55:55,1,170.000003242493,2|2,1:2|1:2,0:0:0:0:
203,187,172247,1,2,0:0:0:0:
128,300,172397,2,0,L|123:384,1,85.0000016212464,10|0,0:0|0:0,0:0:0:0:
203,187,172697,1,2,0:0:0:0:
203,187,172847,1,2,0:0:0:0:
462,217,172997,6,0,P|426:240|384:247,1,85.0000016212464,2|0,1:2|0:0,0:0:0:0:
192,70,173297,2,0,P|233:71|270:91,1,85.0000016212464,2|0,0:0|0:0,0:0:0:0:
325,346,173597,2,0,P|292:319|271:283,1,85.0000016212464,10|0,0:0|0:0,0:0:0:0:
380,45,173897,2,0,P|390:86|384:127,1,85.0000016212464,2|0,0:0|0:0,0:0:0:0:
385,247,174197,6,0,P|426:240|462:217,1,85.0000016212464,2|0,1:2|0:0,0:0:0:0:
202,186,174497,2,0,P|173:217|159:257,1,85.0000016212464,2|0,1:2|0:0,0:0:0:0:
384,127,174797,2,0,P|390:85|380:45,1,85.0000016212464,10|0,0:0|0:0,0:0:0:0:
271,282,175097,2,0,P|292:319|325:346,1,85.0000016212464,2|0,0:0|0:0,0:0:0:0:
271,91,175397,22,0,P|184:68|112:112,1,170.000003242493,2|2,1:2|0:0,0:0:0:0:
106,318,175847,1,2,0:0:0:0:
198,270,175998,2,0,L|201:185,1,85.0000016212464,10|0,0:0|0:0,0:0:0:0:
24,252,176297,1,2,0:0:0:0:
20,152,176447,1,2,0:0:0:0:
198,270,176597,6,0,L|203:100,1,170.000003242493,2|2,1:2|1:2,0:0:0:0:
276,340,177047,1,2,0:0:0:0:
368,296,177197,2,0,L|472:288,1,85.0000016212464,10|0,0:0|0:0,0:0:0:0:
501,112,177497,2,0,P|496:153|474:189,1,85.0000016212464,2|2,0:0|0:0,0:0:0:0:
400,120,177797,5,2,1:2:0:0:
412,20,177947,1,2,0:0:0:0:
292,152,178097,1,2,0:2:0:0:
316,52,178247,1,2,0:0:0:0:
176,156,178397,1,10,0:0:0:0:
216,60,178547,1,2,0:0:0:0:
60,136,178697,1,2,1:2:0:0:
116,48,178847,1,2,0:0:0:0:
104,228,178997,6,0,P|188:196|272:224,1,170.000003242493,2|2,1:2|1:2,0:0:0:0:
262,217,179447,1,0,0:0:0:0:
214,365,179597,2,0,P|191:329|188:288,2,85.0000016212464,10|0|0,0:0|0:0|0:0,0:0:0:0:
480,64,180197,22,0,P|484:160|432:244,1,170.000003242493,2|2,1:2|0:0,0:0:0:0:
356,256,180647,1,2,0:0:0:0:
262,217,180797,2,0,P|248:180|244:120,1,85.0000016212464,10|0,0:0|0:0,0:0:0:0:
316,0,181097,1,2,0:0:0:0:
344,152,181247,1,2,0:0:0:0:
168,56,181397,6,0,P|80:60|12:116,1,170.000003242493,2|2,1:2|1:2,0:0:0:0:
16,292,181847,1,2,0:0:0:0:
110,250,181997,2,0,P|122:210|120:168,1,85.0000016212464,10|0,0:0|0:0,0:0:0:0:
16,292,182297,1,2,0:0:0:0:
16,292,182447,1,2,0:0:0:0:
160,336,182597,6,0,P|190:307|209:269,1,85.0000016212464,2|0,1:2|0:0,0:0:0:0:
404,236,182897,2,0,P|423:273|453:302,1,85.0000016212464,2|0,0:0|0:0,0:0:0:0:
204,168,183197,2,0,L|200:80,1,85.0000016212464,10|0,0:0|0:0,0:0:0:0:
412,48,183497,2,0,L|408:132,1,85.0000016212464,2|0,0:0|0:0,0:0:0:0:
311,275,183797,6,0,P|302:233|310:191,1,85.0000016212464,2|0,1:2|0:0,0:0:0:0:
384,16,184097,2,0,P|352:43|312:57,1,85.0000016212464,2|0,1:2|0:0,0:0:0:0:
404,236,184397,2,0,P|445:227|487:235,1,85.0000016212464,10|0,0:0|0:0,0:0:0:0:
204,168,184697,2,0,P|164:154|131:126,1,85.0000016212464,2|0,0:0|0:0,0:0:0:0:
28,328,184997,22,0,P|87:270|170:264,1,170.000003242493,2|2,1:2|0:0,0:0:0:0:
256,324,185447,1,2,0:0:0:0:
348,280,185598,2,0,L|432:276,1,85.0000016212464,10|0,0:0|0:0,0:0:0:0:
456,56,185897,1,2,0:0:0:0:
476,156,186047,1,2,0:0:0:0:
340,32,186197,6,0,P|359:113|325:189,1,170.000003242493,2|2,1:2|1:2,0:0:0:0:
75,163,186647,1,2,0:0:0:0:
159,107,186797,2,0,L|244:104,1,85.0000016212464,10|0,0:0|0:0,0:0:0:0:
75,163,187097,1,2,0:0:0:0:
75,163,187247,1,2,0:0:0:0:
216,260,187397,6,0,P|236:304|240:348,1,85.0000016212464,2|0,1:2|0:0,0:0:0:0:
159,107,187697,2,0,B|164:16,1,85.0000016212464,2|0,0:2|0:0,0:0:0:0:
84,288,187997,2,0,B|32:292|32:292|-12:280,1,85.0000016212464,10|0,0:0|0:0,0:0:0:0:
296,188,188297,2,0,B|332:184|332:184|388:192,1,85.0000016212464,2|0,0:0|0:0,0:0:0:0:
75,163,188597,6,0,B|64:68,1,85.0000016212464,2|0,1:2|0:0,0:0:0:0:
360,88,188897,2,0,B|363:3,1,85.0000016212464,2|0,1:2|0:0,0:0:0:0:
32,144,189197,2,0,B|21:49,1,85.0000016212464,10|0,0:0|0:0,0:0:0:0:
376,252,189497,2,0,B|372:348,1,85.0000016212464,2|0,0:0|0:0,0:0:0:0:
448,144,189797,21,2,1:2:0:0:
256,76,189947,1,2,0:0:0:0:
448,144,190097,1,2,0:0:0:0:
256,76,190247,1,2,0:0:0:0:
188,176,190397,2,0,P|148:192|92:184,1,85.0000016212464,10|2,0:0|0:0,0:0:0:0:
387,56,190697,2,0,P|427:40|469:42,1,85.0000016212464,2|2,0:0|0:0,0:0:0:0:
324,152,190997,5,2,1:2:0:0:
256,76,191147,1,2,0:0:0:0:
160,44,191297,1,2,1:2:0:0:
60,40,191447,1,2,0:0:0:0:
190,283,191597,2,0,P|202:247|198:195,1,85.0000016212464,10|2,0:0|0:0,0:0:0:0:
13,133,191897,2,0,P|1:173|4:216,1,85.0000016212464,2|2,0:0|0:0,0:0:0:0:
236,88,192197,6,0,P|195:81|153:92,1,85.0000016212464,2|2,1:2|0:0,0:0:0:0:
391,201,192497,2,0,P|428:179|455:146,1,85.0000016212464,2|2,0:0|0:0,0:0:0:0:
200,201,192797,2,0,P|180:237|179:280,1,85.0000016212464,10|2,0:0|0:0,0:0:0:0:
356,87,193097,2,0,P|348:45|326:10,1,85.0000016212464,2|2,0:0|0:0,0:0:0:0:
454,147,193398,6,0,P|427:180|391:200,1,85.0000016212464,2|2,1:2|0:0,0:0:0:0:
153,92,193698,2,0,P|194:81|236:88,1,85.0000016212464,2|2,1:2|0:0,0:0:0:0:
365,312,193997,2,0,P|325:298|295:270,1,85.0000016212464,10|2,0:0|0:0,0:0:0:0:
325,9,194297,2,0,P|348:45|356:87,1,85.0000016212464,2|2,0:0|0:0,0:0:0:0:
200,201,194597,21,2,1:2:0:0:
390,200,194747,1,2,0:0:0:0:
235,87,194897,1,2,0:0:0:0:
294,269,195047,1,2,0:0:0:0:
355,86,195197,1,10,0:0:0:0:
200,201,195347,1,2,0:0:0:0:
390,200,195497,1,2,0:0:0:0:
235,87,195647,1,2,0:0:0:0:
294,269,195797,6,0,P|292:320|276:360,1,85.0000016212464,2|2,1:2|0:0,0:0:0:0:
355,86,196097,2,0,P|386:45|423:22,1,85.0000016212464,2|2,1:2|0:0,0:0:0:0:
200,201,196397,2,0,P|150:214|107:212,1,85.0000016212464,10|2,0:0|0:0,0:0:0:0:
388,200,196697,2,0,P|435:217|468:245,1,85.0000016212464,2|2,0:0|0:0,0:0:0:0:
235,87,196997,5,2,1:2:0:0:
235,87,197147,1,2,0:0:0:0:
296,232,197297,1,2,0:0:0:0:
296,232,197447,1,2,0:0:0:0:
336,104,197597,1,10,0:0:0:0:
336,104,197747,1,2,0:0:0:0:
196,240,197897,1,2,0:0:0:0:
196,240,198047,1,2,0:0:0:0:
108,188,198197,6,0,L|24:192,2,85.0000016212464,2|2|2,1:2|0:0|1:2,0:0:0:0:
196,240,198647,1,2,0:0:0:0:
152,96,198797,2,0,L|156:56,2,28.3333338737488,2|2|0,0:0|0:0|0:0,0:0:0:0:
108,188,199397,5,4,0:0:0:0:
372,28,200747,37,2,0:0:0:0:
384,112,200897,1,2,1:2:0:0:
396,196,201047,1,2,0:0:0:0:
268,88,201197,5,10,0:0:0:0:
500,136,201347,1,2,0:0:0:0:
268,88,201497,1,2,0:0:0:0:
500,136,201647,1,2,0:0:0:0:
285,188,201797,22,0,P|246:268|260:356,1,179.999994506836,6|2,1:2|0:0,0:0:0:0:
396,196,202247,1,2,0:0:0:0:
267,88,202397,2,0,P|227:106|195:137,1,89.9999972534181,10|0,0:0|0:0,0:0:0:0:
475,272,202697,2,0,P|500:234|505:190,1,89.9999972534181,2|0,0:0|0:0,0:0:0:0:
372,0,202997,6,0,L|380:92,1,89.9999972534181,2|0,1:2|0:0,0:0:0:0:
240,52,203297,2,0,L|232:141,1,89.9999972534181,2|0,1:2|0:0,0:0:0:0:
108,72,203597,2,0,L|76:172,1,89.9999972534181,10|0,0:0|0:0,0:0:0:0:
184,284,203897,1,2,0:0:0:0:
80,312,204047,1,2,0:0:0:0:
276,340,204197,6,0,B|324:332|324:332|380:276|348:192,1,179.999994506836,2|2,1:2|0:0,0:0:0:0:
292,124,204647,1,2,0:0:0:0:
444,212,204797,2,0,L|344:210,1,89.9999972534181,10|0,0:0|0:0,0:0:0:0:
396,20,205097,2,0,L|396:124,1,89.9999972534181,2|0,0:0|0:0,0:0:0:0:
183,129,205397,6,0,P|191:85|214:48,1,89.9999972534181,2|0,1:2|0:0,0:0:0:0:
112,211,205697,2,0,P|85:175|75:132,1,89.9999972534181,2|0,1:2|0:0,0:0:0:0:
116,319,205997,2,0,P|72:311|35:288,1,89.9999972534181,10|0,0:0|0:0,0:0:0:0:
208,264,206297,1,2,0:0:0:0:
308,300,206447,1,2,0:0:0:0:
412,272,206597,22,0,P|444:240|456:176,1,89.9999972534181,2|0,1:2|0:0,0:0:0:0:
247,35,206897,2,0,P|242:79|257:122,1,89.9999972534181,2|0,0:0|0:0,0:0:0:0:
408,60,207197,2,0,L|504:52,1,89.9999972534181,10|0,0:0|0:0,0:0:0:0:
257,122,207497,2,0,L|161:118,1,89.9999972534181,2|0,0:0|0:0,0:0:0:0:
472,148,207797,6,0,P|494:186|498:231,1,89.9999972534181,2|0,1:2|0:0,0:0:0:0:
52,216,208097,2,0,P|51:171|70:130,1,89.9999972534181,2|0,1:2|0:0,0:0:0:0:
408,216,208397,2,0,P|393:264|357:300,1,89.9999972534181,10|0,0:0|0:0,0:0:0:0:
140,192,208697,2,0,P|176:157|226:143,1,89.9999972534181,2|0,0:0|0:0,0:0:0:0:
300,208,208997,6,0,P|252:133|257:44,1,179.999994506836,2|2,1:2|0:0,0:0:0:0:
408,216,209447,1,2,0:0:0:0:
248,300,209597,2,0,P|156:272|60:304,1,179.999994506836,10|0,0:0|0:0,0:0:0:0:
300,208,210047,1,2,0:0:0:0:
408,216,210197,6,0,P|433:130|499:71,2,179.999994506836,2|2|10,1:2|1:2|0:0,0:0:0:0:
300,208,211097,1,0,0:0:0:0:
248,300,211397,22,0,P|163:272|77:292,1,179.999994506836,2|2,1:2|0:0,0:0:0:0:
44,104,211847,1,2,0:0:0:0:
164,144,211997,2,0,L|168:240,1,89.9999972534181,10|0,0:0|0:0,0:0:0:0:
44,104,212297,2,0,L|48:-4,1,89.9999972534181,2|0,0:0|0:0,0:0:0:0:
324,60,212597,6,0,L|220:68,1,89.9999972534181,2|0,1:2|0:0,0:0:0:0:
388,160,212897,2,0,L|300:180,1,89.9999972534181,2|0,1:2|0:0,0:0:0:0:
468,244,213197,2,0,L|384:288,1,89.9999972534181,10|0,0:0|0:0,0:0:0:0:
152,272,213497,1,2,0:0:0:0:
252,312,213647,1,2,0:0:0:0:
64,336,213797,6,0,P|43:252|92:180,1,179.999994506836,2|2,1:2|0:0,0:0:0:0:
152,272,214247,1,2,0:0:0:0:
164,92,214397,2,0,L|160:0,1,89.9999972534181,10|0,0:0|0:0,0:0:0:0:
316,180,214697,2,0,L|226:187,1,89.9999972534181,2|0,0:0|0:0,0:0:0:0:
412,120,214997,6,0,P|437:83|440:39,1,89.9999972534181,2|0,1:2|0:0,0:0:0:0:
415,226,215297,2,0,P|458:218|492:188,1,89.9999972534181,2|0,1:2|0:0,0:0:0:0:
340,304,215597,2,0,P|377:329|421:332,1,89.9999972534181,10|0,0:0|0:0,0:0:0:0:
256,236,215897,1,2,0:0:0:0:
156,276,216047,1,2,0:0:0:0:
52,252,216197,22,0,P|12:184|12:72,1,179.999994506836,2|2,1:2|0:0,0:0:0:0:
232,108,216647,1,2,0:0:0:0:
113,145,216797,1,10,0:0:0:0:
160,28,216947,1,2,0:0:0:0:
232,108,217097,2,0,L|328:104,1,89.9999972534181,2|0,0:0|0:0,0:0:0:0:
456,192,217397,5,2,1:2:0:0:
280,264,217547,1,2,0:0:0:0:
340,136,217697,1,2,1:2:0:0:
432,288,217847,1,2,0:0:0:0:
372,132,217997,1,10,0:0:0:0:
304,284,218147,1,2,0:0:0:0:
208,192,218297,1,2,0:0:0:0:
368,220,218447,1,2,0:0:0:0:
155,287,218597,6,0,P|103:217|118:131,1,179.999994506836,2|2,1:2|0:0,0:0:0:0:
368,220,219197,2,0,P|448:168|480:80,1,179.999994506836,10|2,0:0|0:0,0:0:0:0:
208,192,219797,6,0,B|80:184|80:184|32:152,2,179.999994506836,2|2|10,1:2|1:2|0:0,0:0:0:0:
284,116,220697,1,0,0:0:0:0:
388,152,220997,22,0,P|416:237|396:323,1,179.999994506836,2|2,1:2|0:0,0:0:0:0:
284,116,221447,1,2,0:0:0:0:
436,56,221597,2,0,P|469:85|491:124,1,89.9999972534181,10|0,0:0|0:0,0:0:0:0:
176,136,221897,2,0,P|176:91|194:50,1,89.9999972534181,2|0,0:0|0:0,0:0:0:0:
304,240,222197,6,0,L|312:336,1,89.9999972534181,2|0,1:2|0:0,0:0:0:0:
164,264,222497,2,0,L|156:360,1,89.9999972534181,2|0,1:2|0:0,0:0:0:0:
32,220,222797,2,0,L|4:312,1,89.9999972534181,10|0,0:0|0:0,0:0:0:0:
176,136,223097,1,2,0:0:0:0:
72,104,223247,1,2,0:0:0:0:
264,76,223397,6,0,L|456:68,1,179.999994506836,2|2,1:2|0:0,0:0:0:0:
384,240,223847,1,2,0:0:0:0:
474,298,223997,2,0,P|491:256|489:212,1,89.9999972534181,10|0,0:0|0:0,0:0:0:0:
294,178,224297,2,0,P|276:219|278:263,1,89.9999972534181,2|0,0:0|0:0,0:0:0:0:
263,75,224597,6,0,P|230:46|186:36,1,89.9999972534181,2|0,1:2|0:0,0:0:0:0:
167,159,224897,2,0,P|124:151|81:163,1,89.9999972534181,2|0,1:2|0:0,0:0:0:0:
127,280,225197,2,0,P|85:294|54:326,1,89.9999972534181,10|0,0:0|0:0,0:0:0:0:
224,332,225497,1,2,0:0:0:0:
320,284,225647,1,2,0:0:0:0:
424,316,225797,22,0,B|456:272|456:272|464:144,1,179.999994506836,2|2,1:2|0:0,0:0:0:0:
322,12,226247,1,2,0:0:0:0:
276,181,226397,1,10,0:0:0:0:
360,112,226547,1,2,0:0:0:0:
186,121,226697,2,0,P|136:112|100:88,1,89.9999972534181,2|0,0:0|0:0,0:0:0:0:
96,304,226997,5,2,1:2:0:0:
88,196,227147,1,2,0:0:0:0:
220,284,227297,1,2,1:2:0:0:
96,304,227447,1,2,0:0:0:0:
228,176,227597,1,10,0:0:0:0:
344,316,227747,1,2,0:0:0:0:
220,284,227897,1,2,0:0:0:0:
228,176,228047,1,2,0:0:0:0:
344,316,228197,6,0,P|436:312|508:236,1,179.999994506836,2|2,1:2|0:0,0:0:0:0:
411,49,228647,1,2,0:0:0:0:
296,181,228797,1,10,0:0:0:0:
466,141,228947,1,2,0:0:0:0:
305,73,229097,1,2,1:2:0:0:
396,224,229247,1,2,0:0:0:0:
305,73,229397,5,2,1:2:0:0:
190,205,229547,1,2,0:0:0:0:
206,30,229697,1,2,1:2:0:0:
296,181,229847,1,2,0:0:0:0:
135,112,229997,1,10,0:0:0:0:
296,181,230147,1,2,0:0:0:0:
305,73,230297,1,2,1:2:0:0:
396,224,230447,1,2,0:0:0:0:
465,140,230597,22,0,P|499:221|468:303,1,179.999994506836,0|0,1:2|0:0,0:0:0:0:
396,224,231047,1,2,0:0:0:0:
300,272,231197,2,0,L|192:268,1,89.9999972534181,10|0,0:0|0:0,0:0:0:0:
352,124,231497,2,0,L|262:112,1,89.9999972534181,2|0,0:0|0:0,0:0:0:0:
117,104,231797,6,0,P|153:131|172:172,1,89.9999972534181,2|0,1:2|0:0,0:0:0:0:
29,311,232097,2,0,P|24:267|36:224,1,89.9999972534181,2|0,1:2|0:0,0:0:0:0:
210,268,232397,2,0,L|300:272,1,89.9999972534181,10|0,0:0|0:0,0:0:0:0:
472,200,232697,1,2,0:0:0:0:
472,200,232847,1,2,0:0:0:0:
364,188,232997,6,0,P|328:112|336:4,1,179.999994506836,2|2,1:2|0:0,0:0:0:0:
472,200,233447,1,2,0:0:0:0:
383,293,233597,2,0,P|338:291|299:271,1,89.9999972534181,10|0,0:0|0:0,0:0:0:0:
208,140,233897,2,0,P|213:185|200:228,1,89.9999972534181,2|0,0:0|0:0,0:0:0:0:
18,291,234197,6,0,L|108:288,1,89.9999972534181,2|0,1:2|0:0,0:0:0:0:
140,52,234497,2,0,L|40:36,1,89.9999972534181,2|0,1:2|0:0,0:0:0:0:
0,164,234797,2,0,L|92:168,1,89.9999972534181,10|0,0:0|0:0,0:0:0:0:
200,228,235097,1,2,0:0:0:0:
200,228,235247,1,2,0:0:0:0:
188,84,235397,22,0,P|200:42|229:2,1,89.9999972534181,2|0,1:2|0:0,0:0:0:0:
276,80,235697,2,0,P|307:50|353:29,1,89.9999972534181,2|0,0:0|0:0,0:0:0:0:
356,122,235997,2,0,P|398:111|447:116,1,89.9999972534181,10|0,0:2|0:0,0:0:0:0:
406,198,236297,2,0,P|447:210|487:239,1,89.9999972534181,2|0,0:0|0:0,0:0:0:0:
320,352,236597,6,0,P|340:313|348:264,1,89.9999972534181,2|0,1:2|0:0,0:0:0:0:
259,286,236897,2,0,P|258:242|239:195,1,89.9999972534181,2|0,1:2|0:0,0:0:0:0:
174,259,237197,2,0,P|151:221|113:190,1,89.9999972534181,10|0,0:2|0:0,0:0:0:0:
85,277,237497,2,0,P|46:256|-2:248,1,89.9999972534181,2|0,0:0|0:0,0:0:0:0:
32,108,237797,6,0,P|124:92|176:16,1,179.999994506836,2|2,1:2|0:0,0:0:0:0:
504,60,238397,2,0,B|376:72|376:72|320:100,1,179.999994506836,10|2,0:0|0:0,0:0:0:0:
240,312,238997,6,0,P|260:232|224:128,2,179.999994506836,2|2|10,1:2|1:2|0:0,0:0:0:0:
116,236,239897,1,2,0:0:0:0:
400,176,240197,5,6,0:0:0:0:
