osu file format v14

[General]
AudioFilename: DJ Okawari - Canon.mp3
AudioLeadIn: 1500
PreviewTime: 98056
Countdown: 0
SampleSet: Soft
StackLeniency: 0.8
Mode: 3
LetterboxInBreaks: 0
EpilepsyWarning: 1
SpecialStyle: 0
WidescreenStoryboard: 1

[Editor]
Bookmarks: 71117,90709,107852,114280,133872,149484
DistanceSpacing: 1.4
BeatDivisor: 4
GridSize: 4
TimelineZoom: 0.5

[Metadata]
Title:Canon
TitleUnicode:カノン
Artist:DJ OKAWARI
ArtistUnicode:DJ OKAWARI
Creator:schwarzvgrune
Version:Quiescent (Easy)
Source:
Tags:心花 ~cohana 2nd~ oriental classics Johann Christoph Pachelbel Pharos21
BeatmapID:661898
BeatmapSetID:284229

[Difficulty]
HPDrainRate:7
CircleSize:4
OverallDifficulty:6.5
ApproachRate:2
SliderMultiplier:0.999999904632568
SliderTickRate:1

[Events]
//Background and Video events
0,0,"Canon-BG.jpg",0,0
//Break Periods
//Storyboard Layer 0 (Background)
//Storyboard Layer 1 (Fail)
//Storyboard Layer 2 (Pass)
//Storyboard Layer 3 (Foreground)
//Storyboard Sound Samples

[TimingPoints]
9893,612.244897959184,4,2,1,5,1,0
49076,-100,4,2,1,30,0,0
98056,-100,4,2,1,50,0,1
137239,-100,4,2,1,25,0,0
196015,-100,4,2,1,25,0,1
205811,-100,4,2,1,15,0,1
254790,-100,4,2,1,15,0,0

[HitObjects]
448,192,9893,5,0,0:0:0:20:D4S.wav
192,192,11117,1,0,0:0:0:20:A3S.wav
320,192,12341,1,0,0:0:0:20:B3S.wav
64,192,13566,1,0,0:0:0:20:F#3S_Gb3S.wav
192,192,14790,1,0,0:0:0:20:G3S.wav
64,192,16015,1,0,0:0:0:20:D3S.wav
192,192,17239,1,0,0:0:0:20:G3S.wav
320,192,18464,1,2,0:0:0:20:A3S.wav
448,192,19688,128,2,20913:0:0:0:20:LR_NBell_F#5.wav
320,192,20913,128,2,22137:0:0:0:20:LR_NBell_E5.wav
192,192,22137,128,2,23362:0:0:0:20:LR_NBell_D5.wav
64,192,23362,128,2,24586:0:0:0:20:LR_NBell_C#5.wav
320,192,24586,128,2,25811:0:0:0:20:LR_NBell_B4.wav
64,192,25811,128,2,27035:0:0:0:20:LR_NBell_A4.wav
320,192,27035,128,2,28260:0:0:0:20:LR_NBell_B4.wav
448,192,28260,128,2,29484:0:0:0:20:LR_NBell_C#5.wav
192,192,29484,5,2,0:0:0:20:D4S.wav
320,192,29484,1,2,0:0:0:40:SCG_F#6.wav
320,192,30709,1,2,0:0:0:40:SCG_E6.wav
64,192,30709,1,2,0:0:0:20:A3S.wav
448,192,31933,1,2,0:0:0:40:SCG_D6.wav
320,192,31933,1,2,0:0:0:20:B3S.wav
64,192,33158,1,2,0:0:0:40:SCG_C#6.wav
320,192,33158,1,2,0:0:0:20:F#3S_Gb3S.wav
192,192,34382,1,2,0:0:0:40:SCG_B5.wav
448,192,34382,1,2,0:0:0:20:G3S.wav
192,192,35607,1,2,0:0:0:20:D3S.wav
64,192,35607,1,2,0:0:0:40:SCG_A5.wav
448,192,36831,1,2,0:0:0:20:G3S.wav
192,192,36831,1,2,0:0:0:40:SCG_B5.wav
320,192,38056,1,2,0:0:0:20:A3S.wav
448,192,38056,1,2,0:0:0:40:SCG_C#6.wav
64,192,39280,5,2,0:0:0:20:D4S.wav
448,192,39280,1,2,0:0:0:40:SCG_F#6.wav
192,192,39893,1,8,0:0:0:0:
64,192,40505,1,2,0:0:0:20:A3S.wav
320,192,40505,1,2,0:0:0:40:SCG_E6.wav
192,192,41117,1,8,0:0:0:0:
448,192,41729,1,2,0:0:0:20:B3S.wav
320,192,41729,1,2,0:0:0:40:SCG_D6.wav
64,192,42341,1,8,0:0:0:0:
320,192,42954,1,2,0:0:0:20:F#3S_Gb3S.wav
192,192,42954,1,2,0:0:0:40:SCG_C#6.wav
64,192,43566,1,8,0:0:0:0:
448,192,44178,1,2,0:0:0:20:G3S.wav
192,192,44178,1,2,0:0:0:40:SCG_B5.wav
320,192,44790,1,8,0:0:0:0:
192,192,45403,1,2,0:0:0:20:D3S.wav
64,192,45403,1,2,0:0:0:40:SCG_A5.wav
320,192,46015,1,8,0:0:0:0:
64,192,46321,1,4,0:0:0:0:
192,192,46627,1,0,0:0:0:40:SCG_B5.wav
448,192,46627,128,0,49076:0:0:0:20:G3S.wav
64,192,47852,1,2,0:0:0:20:A3S.wav
320,192,47852,1,2,0:0:0:40:SCG_C#6.wav
192,192,49076,5,0,0:0:0:20:D4S.wav
64,192,49076,1,0,0:0:0:40:SCG_F#6.wav
320,192,49688,1,8,0:0:0:0:
448,192,50301,1,2,0:0:0:40:SCG_E6.wav
192,192,50301,1,2,0:0:0:20:A3S.wav
320,192,50913,1,8,0:0:0:0:
64,192,51525,1,2,0:0:0:20:B3S.wav
192,192,51525,1,2,0:0:0:40:SCG_D6.wav
320,192,52137,1,8,0:0:0:0:
64,192,52750,1,0,0:0:0:40:SCG_C#6.wav
448,192,52750,1,2,0:0:0:20:F#3S_Gb3S.wav
320,192,53362,1,8,0:0:0:0:
192,192,53974,1,2,0:0:0:40:SCG_B5.wav
448,192,53974,1,2,0:0:0:20:G3S.wav
320,192,54586,1,8,0:0:0:0:
64,192,55199,1,0,0:0:0:40:SCG_A5.wav
192,192,55199,1,2,0:0:0:20:D3S.wav
320,192,55811,1,8,0:0:0:0:
448,192,56423,1,2,0:0:0:20:G3S.wav
192,192,56423,1,2,0:0:0:40:SCG_B5.wav
64,192,57035,1,8,0:0:0:0:
448,192,57648,1,2,0:0:0:20:A3S.wav
320,192,57648,1,2,0:0:0:40:SCG_C#6.wav
64,192,58260,1,8,0:0:0:0:
448,192,58872,1,2,0:0:0:30:SCG_D6.wav
320,192,59178,1,2,0:0:0:30:SCG_C#6.wav
448,192,59484,1,2,0:0:0:30:SCG_D6.wav
192,192,59790,1,2,0:0:0:30:SCG_F#5.wav
64,192,60097,1,2,0:0:0:30:SCG_E5.wav
448,192,60403,1,2,0:0:0:30:SCG_A5.wav
192,192,60709,1,2,0:0:0:30:SCG_E5.wav
320,192,61015,1,2,0:0:0:30:SCG_F#5.wav
64,192,61321,1,2,0:0:0:30:SCG_D5.wav
448,192,61627,1,2,0:0:0:30:SCG_D6.wav
320,192,61933,1,2,0:0:0:30:SCG_C#6.wav
64,192,62239,1,2,0:0:0:30:SCG_B5.wav
192,192,62546,1,2,0:0:0:30:SCG_C#6.wav
64,192,62852,1,2,0:0:0:30:SCG_F#6.wav
320,192,63158,1,0,0:0:0:30:SCG_A6.wav
448,192,63464,1,0,0:0:0:30:SCG_B6.wav
320,192,63770,1,0,0:0:0:30:SCG_G6.wav
192,192,64076,1,0,0:0:0:30:SCG_F#6.wav
64,192,64382,1,0,0:0:0:30:SCG_E6.wav
320,192,64688,1,0,0:0:0:30:SCG_G6.wav
192,192,64995,1,0,0:0:0:30:SCG_F#6.wav
64,192,65301,1,0,0:0:0:30:SCG_E6.wav
448,192,65607,1,0,0:0:0:30:SCG_D6.wav
320,192,65913,1,0,0:0:0:30:SCG_C#6.wav
192,192,66219,1,0,0:0:0:30:SCG_B5.wav
64,192,66525,1,0,0:0:0:30:SCG_A5.wav
320,192,66831,1,0,0:0:0:30:SCG_G5.wav
192,192,67137,1,0,0:0:0:30:SCG_F#5.wav
64,192,67444,1,0,0:0:0:30:SCG_E5.wav
448,192,67750,1,0,0:0:0:30:SCG_G5.wav
320,192,68056,1,0,0:0:0:30:SCG_F#5.wav
192,192,68362,1,0,0:0:0:30:SCG_E5.wav
64,192,68668,1,0,0:0:0:30:SCG_D5.wav
192,192,68974,1,0,0:0:0:30:SCG_E5.wav
320,192,69280,1,0,0:0:0:30:SCG_F#5.wav
192,192,69586,1,0,0:0:0:30:SCG_G5.wav
448,192,69893,1,0,0:0:0:30:SCG_A5.wav
64,192,70199,1,0,0:0:0:30:SCG_E5.wav
448,192,70505,1,0,0:0:0:30:SCG_A5.wav
320,192,70811,1,0,0:0:0:30:SCG_G5.wav
192,192,71117,1,0,0:0:0:30:SCG_F#5.wav
448,192,71423,1,0,0:0:0:30:SCG_B5.wav
320,192,71729,1,0,0:0:0:30:SCG_A5.wav
192,192,72035,1,0,0:0:0:30:SCG_G5.wav
448,192,72341,1,0,0:0:0:30:SCG_A5.wav
320,192,72648,1,0,0:0:0:30:SCG_G5.wav
192,192,72954,1,0,0:0:0:30:SCG_F#5.wav
64,192,73260,1,0,0:0:0:30:SCG_E5.wav
320,192,73566,1,0,0:0:0:30:SCG_D5.wav
64,192,73872,1,0,0:0:0:30:SCG_B4.wav
192,192,74178,1,0,0:0:0:30:SCG_B5.wav
320,192,74484,1,0,0:0:0:30:SCG_C#6.wav
448,192,74790,1,0,0:0:0:30:SCG_D6.wav
320,192,75097,1,0,0:0:0:30:SCG_C#6.wav
192,192,75403,1,0,0:0:0:30:SCG_B5.wav
448,192,75709,1,0,0:0:0:30:SCG_A5.wav
320,192,76015,1,0,0:0:0:30:SCG_G5.wav
192,192,76321,1,0,0:0:0:30:SCG_F#5.wav
64,192,76627,1,0,0:0:0:30:SCG_E5.wav
320,192,76933,1,0,0:0:0:30:SCG_B5.wav
192,192,77239,1,0,0:0:0:30:SCG_A5.wav
320,192,77546,1,0,0:0:0:30:SCG_B5.wav
192,192,77852,1,0,0:0:0:30:SCG_A5.wav
64,192,78158,1,0,0:0:0:30:SCG_G5.wav
448,192,78464,1,0,0:0:0:30:SCG_D6.wav
320,192,78770,1,0,0:0:0:30:SCG_C#6.wav
448,192,79076,1,0,0:0:0:30:SCG_D6.wav
192,192,79382,1,0,0:0:0:30:SCG_F#5.wav
64,192,79688,1,0,0:0:0:30:SCG_E5.wav
448,192,79995,1,0,0:0:0:30:SCG_A5.wav
192,192,80301,1,0,0:0:0:30:SCG_E5.wav
320,192,80607,1,0,0:0:0:30:SCG_F#5.wav
64,192,80913,1,0,0:0:0:30:SCG_D5.wav
448,192,81219,1,0,0:0:0:30:SCG_D6.wav
320,192,81525,1,0,0:0:0:30:SCG_C#6.wav
64,192,81831,1,0,0:0:0:30:SCG_B5.wav
192,192,82137,1,0,0:0:0:30:SCG_C#6.wav
64,192,82444,1,0,0:0:0:30:SCG_F#6.wav
320,192,82750,1,0,0:0:0:30:SCG_A6.wav
448,192,83056,1,0,0:0:0:30:SCG_B6.wav
320,192,83362,1,0,0:0:0:30:SCG_G6.wav
192,192,83668,1,0,0:0:0:30:SCG_F#6.wav
64,192,83974,1,0,0:0:0:30:SCG_E6.wav
320,192,84280,1,0,0:0:0:30:SCG_G6.wav
192,192,84586,1,0,0:0:0:30:SCG_F#6.wav
64,192,84893,1,0,0:0:0:30:SCG_E6.wav
448,192,85199,1,0,0:0:0:30:SCG_D6.wav
320,192,85505,1,0,0:0:0:30:SCG_C#6.wav
192,192,85811,1,0,0:0:0:30:SCG_B5.wav
64,192,86117,1,0,0:0:0:30:SCG_A5.wav
320,192,86423,1,0,0:0:0:30:SCG_G5.wav
192,192,86729,1,0,0:0:0:30:SCG_F#5.wav
64,192,87035,1,0,0:0:0:30:SCG_E5.wav
448,192,87341,1,0,0:0:0:30:SCG_G5.wav
320,192,87648,1,0,0:0:0:30:SCG_F#5.wav
192,192,87954,1,0,0:0:0:30:SCG_E5.wav
64,192,88260,1,0,0:0:0:30:SCG_D5.wav
192,192,88566,1,0,0:0:0:30:SCG_E5.wav
320,192,88872,1,0,0:0:0:30:SCG_F#5.wav
192,192,89178,1,0,0:0:0:30:SCG_G5.wav
448,192,89484,1,0,0:0:0:30:SCG_A5.wav
64,192,89790,1,0,0:0:0:30:SCG_E5.wav
320,192,90097,1,0,0:0:0:30:SCG_A5.wav
192,192,90403,1,0,0:0:0:30:SCG_G5.wav
64,192,90709,1,0,0:0:0:30:SCG_F#5.wav
448,192,91015,1,0,0:0:0:30:SCG_B5.wav
320,192,91321,1,0,0:0:0:30:SCG_A5.wav
192,192,91627,1,0,0:0:0:30:SCG_G5.wav
448,192,91933,1,0,0:0:0:30:SCG_A5.wav
320,192,92239,1,0,0:0:0:30:SCG_G5.wav
192,192,92546,1,0,0:0:0:30:SCG_F#5.wav
64,192,92852,1,0,0:0:0:30:SCG_E5.wav
320,192,93158,1,0,0:0:0:30:SCG_D5.wav
448,192,93158,1,0,0:0:0:50:LR_Drum Finish.wav
64,192,93464,1,0,0:0:0:30:SCG_B4.wav
192,192,93770,1,0,0:0:0:30:SCG_B5.wav
320,192,94076,1,0,0:0:0:30:SCG_C#6.wav
448,192,94382,1,0,0:0:0:30:SCG_D6.wav
320,192,94688,1,0,0:0:0:30:SCG_C#6.wav
192,192,94995,1,0,0:0:0:30:SCG_B5.wav
448,192,95301,1,0,0:0:0:30:SCG_A5.wav
320,192,95607,1,0,0:0:0:30:SCG_G5.wav
192,192,95913,1,0,0:0:0:30:SCG_F#5.wav
64,192,96219,1,0,0:0:0:30:SCG_E5.wav
320,192,96525,5,0,0:0:0:30:SCG_B5.wav
192,192,96831,1,0,0:0:0:30:SCG_A5.wav
320,192,97137,1,0,0:0:0:30:SCG_B5.wav
192,192,97444,1,0,0:0:0:30:SCG_A5.wav
64,192,97750,1,0,0:0:0:30:SCG_G5.wav
320,192,98056,5,0,0:0:0:35:LR_Drum Finish.wav
448,192,98056,1,0,0:0:0:50:SCG_A6.wav
192,192,98362,1,0,0:0:0:50:SCG_F#6.wav
448,192,98668,1,0,0:0:0:50:SCG_A6.wav
192,192,98974,1,0,0:0:0:50:SCG_F#6.wav
448,192,99280,1,0,0:0:0:50:SCG_A6.wav
64,192,99586,1,0,0:0:0:50:SCG_B5.wav
320,192,99893,1,0,0:0:0:50:SCG_D6.wav
192,192,100199,1,0,0:0:0:50:SCG_F#6.wav
448,192,100505,1,0,0:0:0:50:SCG_F#6.wav
64,192,100811,1,0,0:0:0:50:SCG_D6.wav
320,192,101117,1,0,0:0:0:50:SCG_F#6.wav
64,192,101423,1,0,0:0:0:50:SCG_F#5.wav
320,192,101729,1,0,0:0:0:50:SCG_A5.wav
448,192,102035,1,0,0:0:0:50:SCG_A5.wav
192,192,102341,1,0,0:0:0:50:SCG_A5.wav
64,192,102648,1,0,0:0:0:50:SCG_G5.wav
192,192,102954,1,0,0:0:0:50:SCG_G5.wav
448,192,103260,1,0,0:0:0:50:SCG_B5.wav
192,192,103566,1,0,0:0:0:50:SCG_G5.wav
448,192,103872,1,0,0:0:0:50:SCG_F#5.wav
320,192,104178,1,0,0:0:0:50:SCG_F#5.wav
64,192,104484,1,0,0:0:0:50:SCG_D5.wav
320,192,104790,1,0,0:0:0:50:SCG_F#5.wav
192,192,105097,1,0,0:0:0:50:SCG_A5.wav
64,192,105403,1,0,0:0:0:50:SCG_G5.wav
448,192,105709,1,0,0:0:0:50:SCG_B5.wav
192,192,106015,1,0,0:0:0:50:SCG_B5.wav
448,192,106321,1,0,0:0:0:50:SCG_C#6.wav
64,192,106627,1,0,0:0:0:50:SCG_A5.wav
320,192,106933,1,0,0:0:0:50:SCG_C#6.wav
64,192,107239,1,0,0:0:0:50:SCG_E6.wav
448,192,107546,1,0,0:0:0:50:SCG_G6.wav
320,192,107852,1,0,0:0:0:50:SCG_F#6.wav
192,192,108158,1,0,0:0:0:50:SCG_D6.wav
448,192,108464,1,0,0:0:0:50:SCG_F#6.wav
320,192,108770,1,0,0:0:0:50:SCG_E6.wav
192,192,109076,1,0,0:0:0:50:SCG_E6.wav
64,192,109382,1,0,0:0:0:50:SCG_D6.wav
448,192,109688,1,0,0:0:0:50:SCG_F#6.wav
192,192,109995,1,0,0:0:0:50:SCG_D6.wav
320,192,110301,1,0,0:0:0:50:SCG_D6.wav
64,192,110607,1,0,0:0:0:50:SCG_B5.wav
320,192,110913,1,0,0:0:0:50:SCG_D6.wav
64,192,111219,1,0,0:0:0:50:SCG_F#5.wav
192,192,111525,1,0,0:0:0:50:SCG_A5.wav
320,192,111831,1,0,0:0:0:50:SCG_A5.wav
448,192,112137,1,0,0:0:0:50:SCG_A5.wav
320,192,112444,1,0,0:0:0:50:SCG_C#6.wav
192,192,112750,1,0,0:0:0:50:SCG_B5.wav
448,192,113056,1,0,0:0:0:50:SCG_D6.wav
192,192,113362,1,0,0:0:0:50:SCG_B5.wav
320,192,113668,1,0,0:0:0:50:SCG_A5.wav
448,192,113974,1,0,0:0:0:50:SCG_A5.wav
64,192,114280,1,0,0:0:0:50:SCG_F#5.wav
192,192,114586,1,0,0:0:0:50:SCG_A5.wav
320,192,114893,1,0,0:0:0:50:SCG_C#6.wav
192,192,115199,1,0,0:0:0:50:SCG_B5.wav
448,192,115505,1,0,0:0:0:50:SCG_D6.wav
320,192,115811,1,0,0:0:0:50:SCG_D6.wav
192,192,116117,1,0,0:0:0:50:SCG_C#6.wav
64,192,116423,1,0,0:0:0:50:SCG_C#6.wav
448,192,116729,1,0,0:0:0:50:SCG_E6.wav
192,192,117035,1,0,0:0:0:50:SCG_C#6.wav
320,192,117341,1,0,0:0:0:50:SCG_B5.wav
64,192,117648,1,0,0:0:0:50:SCG_D6.wav
448,192,117648,1,0,0:0:0:50:SCG_A6.wav
192,192,117954,1,0,0:0:0:50:SCG_F#6.wav
448,192,118260,1,0,0:0:0:50:SCG_A6.wav
192,192,118566,1,0,0:0:0:50:SCG_F#6.wav
448,192,118872,1,0,0:0:0:50:SCG_A6.wav
64,192,119178,1,0,0:0:0:50:SCG_B5.wav
320,192,119484,1,0,0:0:0:50:SCG_D6.wav
192,192,119790,1,0,0:0:0:50:SCG_F#6.wav
448,192,120097,1,0,0:0:0:50:SCG_F#6.wav
64,192,120403,1,0,0:0:0:50:SCG_D6.wav
320,192,120709,1,0,0:0:0:50:SCG_F#6.wav
64,192,121015,1,0,0:0:0:50:SCG_F#5.wav
320,192,121321,1,0,0:0:0:50:SCG_A5.wav
448,192,121627,1,0,0:0:0:50:SCG_A5.wav
192,192,121933,1,0,0:0:0:50:SCG_A5.wav
64,192,122239,1,0,0:0:0:50:SCG_G5.wav
192,192,122546,1,0,0:0:0:50:SCG_G5.wav
448,192,122852,1,0,0:0:0:50:SCG_B5.wav
192,192,123158,1,0,0:0:0:50:SCG_G5.wav
448,192,123464,1,0,0:0:0:50:SCG_F#5.wav
320,192,123770,1,0,0:0:0:50:SCG_F#5.wav
64,192,124076,1,0,0:0:0:50:SCG_D5.wav
320,192,124382,1,0,0:0:0:50:SCG_F#5.wav
192,192,124688,1,0,0:0:0:50:SCG_A5.wav
64,192,124995,1,0,0:0:0:50:SCG_G5.wav
448,192,125301,1,0,0:0:0:50:SCG_B5.wav
192,192,125607,1,0,0:0:0:50:SCG_B5.wav
448,192,125913,1,0,0:0:0:50:SCG_C#6.wav
64,192,126219,1,0,0:0:0:50:SCG_A5.wav
320,192,126525,1,0,0:0:0:50:SCG_C#6.wav
64,192,126831,1,0,0:0:0:50:SCG_E6.wav
448,192,127137,1,0,0:0:0:50:SCG_G6.wav
320,192,127444,5,0,0:0:0:60:D4S.wav
192,192,127444,1,0,0:0:0:35:SCG_D5.wav
320,192,128056,1,2,0:0:0:0:
448,192,128056,1,8,0:0:0:0:
192,192,128668,1,0,0:0:0:60:A3S.wav
64,192,128668,1,4,0:0:0:0:
192,192,129280,1,2,0:0:0:0:
320,192,129280,1,8,0:0:0:0:
448,192,129893,1,0,0:0:0:60:B3S.wav
192,192,129893,1,4,0:0:0:0:
448,192,130505,1,8,0:0:0:0:
64,192,130505,1,2,0:0:0:0:
64,192,131117,1,4,0:0:0:0:
320,192,131117,1,0,0:0:0:60:F#3S_Gb3S.wav
192,192,131729,1,2,0:0:0:0:
320,192,131729,1,8,0:0:0:0:
192,192,132341,1,0,0:0:0:60:G3S.wav
448,192,132341,1,4,0:0:0:0:
64,192,132954,1,2,0:0:0:0:
448,192,132954,1,8,0:0:0:0:
64,192,133566,1,0,0:0:0:60:D3S.wav
320,192,133566,1,4,0:0:0:0:
320,192,134178,1,2,0:0:0:0:
448,192,134178,1,8,0:0:0:0:
448,192,134790,1,4,0:0:0:0:
192,192,134790,1,0,0:0:0:60:G3S.wav
64,192,135403,1,2,0:0:0:0:
192,192,135403,1,8,0:0:0:0:
320,192,136015,1,2,0:0:0:60:A3S.wav
448,192,136015,1,4,0:0:0:0:
192,192,136627,1,2,0:0:0:0:
448,192,136627,1,8,0:0:0:0:
320,192,137239,5,0,0:0:0:35:LR_Drum Finish.wav
64,192,137239,1,2,0:0:0:0:
64,192,137546,1,2,0:0:0:0:
448,192,137852,1,2,0:0:0:0:
320,192,138158,1,2,0:0:0:0:
64,192,138464,1,2,0:0:0:0:
192,192,138770,1,2,0:0:0:0:
320,192,139076,1,2,0:0:0:0:
192,192,139382,1,2,0:0:0:0:
64,192,139688,1,2,0:0:0:0:
448,192,139995,1,2,0:0:0:0:
192,192,140301,1,2,0:0:0:0:
448,192,140607,1,2,0:0:0:0:
64,192,140913,1,2,0:0:0:0:
192,192,141219,1,2,0:0:0:0:
448,192,141525,1,2,0:0:0:0:
320,192,141831,1,2,0:0:0:0:
64,192,142137,1,2,0:0:0:0:
320,192,142444,1,2,0:0:0:0:
448,192,142750,1,2,0:0:0:0:
320,192,143056,1,2,0:0:0:0:
192,192,143362,1,2,0:0:0:0:
64,192,143668,1,2,0:0:0:0:
64,192,143974,1,2,0:0:0:0:
320,192,144280,1,2,0:0:0:0:
64,192,144586,1,2,0:0:0:0:
448,192,144893,1,2,0:0:0:0:
192,192,145199,1,2,0:0:0:0:
448,192,145505,1,2,0:0:0:0:
192,192,145811,1,2,0:0:0:0:
320,192,146117,1,2,0:0:0:0:
64,192,146423,1,2,0:0:0:0:
320,192,146729,1,2,0:0:0:0:
448,192,147035,1,2,0:0:0:0:
192,192,147341,1,2,0:0:0:0:
320,192,147648,1,2,0:0:0:0:
192,192,147954,1,2,0:0:0:0:
64,192,148260,1,2,0:0:0:0:
320,192,148566,1,2,0:0:0:0:
448,192,148872,1,2,0:0:0:0:
320,192,149178,1,2,0:0:0:0:
192,192,149484,1,2,0:0:0:0:
448,192,149790,1,2,0:0:0:0:
192,192,150097,1,2,0:0:0:0:
448,192,150403,1,2,0:0:0:0:
64,192,150709,1,2,0:0:0:0:
192,192,151015,1,2,0:0:0:0:
320,192,151321,1,2,0:0:0:0:
448,192,151627,1,2,0:0:0:0:
64,192,151933,1,2,0:0:0:0:
320,192,152239,1,2,0:0:0:0:
192,192,152546,1,2,0:0:0:0:
448,192,152852,1,2,0:0:0:0:
64,192,153158,1,2,0:0:0:0:
448,192,153464,1,2,0:0:0:0:
320,192,153770,1,2,0:0:0:0:
192,192,154076,1,2,0:0:0:0:
64,192,154382,1,2,0:0:0:0:
320,192,154688,1,2,0:0:0:0:
192,192,154995,1,2,0:0:0:0:
448,192,155301,1,2,0:0:0:0:
320,192,155607,1,2,0:0:0:0:
192,192,155913,1,2,0:0:0:0:
64,192,156219,1,2,0:0:0:0:
192,192,156525,1,2,0:0:0:0:
320,192,156831,5,0,0:0:0:35:LR_Drum Finish.wav
64,192,156831,1,0,0:0:0:0:
64,192,157137,1,0,0:0:0:0:
448,192,157444,1,0,0:0:0:0:
320,192,157750,1,0,0:0:0:0:
64,192,158056,1,0,0:0:0:0:
192,192,158362,1,0,0:0:0:0:
320,192,158668,1,0,0:0:0:0:
192,192,158974,1,0,0:0:0:0:
64,192,159280,1,0,0:0:0:0:
448,192,159586,1,0,0:0:0:0:
192,192,159893,1,0,0:0:0:0:
448,192,160199,1,0,0:0:0:0:
64,192,160505,1,0,0:0:0:0:
192,192,160811,1,0,0:0:0:0:
448,192,161117,1,0,0:0:0:0:
320,192,161423,1,0,0:0:0:0:
64,192,161729,1,0,0:0:0:0:
320,192,162035,1,0,0:0:0:0:
448,192,162341,1,0,0:0:0:0:
320,192,162648,1,0,0:0:0:0:
192,192,162954,1,0,0:0:0:0:
64,192,163260,1,0,0:0:0:0:
64,192,163566,1,0,0:0:0:0:
320,192,163872,1,0,0:0:0:0:
64,192,164178,1,0,0:0:0:0:
448,192,164484,1,0,0:0:0:0:
192,192,164790,1,0,0:0:0:0:
448,192,165097,1,0,0:0:0:0:
192,192,165403,1,0,0:0:0:0:
320,192,165709,1,0,0:0:0:0:
64,192,166015,1,0,0:0:0:0:
320,192,166321,1,0,0:0:0:0:
448,192,166627,1,0,0:0:0:0:
192,192,166933,1,0,0:0:0:0:
320,192,167239,1,0,0:0:0:0:
192,192,167546,1,0,0:0:0:0:
64,192,167852,1,0,0:0:0:0:
320,192,168158,1,0,0:0:0:0:
448,192,168464,1,0,0:0:0:0:
320,192,168770,1,0,0:0:0:0:
192,192,169076,1,0,0:0:0:0:
448,192,169382,1,0,0:0:0:0:
192,192,169688,1,0,0:0:0:0:
448,192,169995,1,0,0:0:0:0:
64,192,170301,1,0,0:0:0:0:
192,192,170607,1,0,0:0:0:0:
320,192,170913,1,0,0:0:0:0:
448,192,171219,1,0,0:0:0:0:
64,192,171525,1,0,0:0:0:0:
320,192,171831,1,0,0:0:0:0:
192,192,172137,1,0,0:0:0:0:
448,192,172444,1,0,0:0:0:0:
64,192,172750,1,0,0:0:0:0:
448,192,173056,1,0,0:0:0:0:
320,192,173362,1,0,0:0:0:0:
192,192,173668,1,0,0:0:0:0:
64,192,173974,1,0,0:0:0:0:
320,192,174280,1,0,0:0:0:0:
192,192,174586,1,0,0:0:0:0:
448,192,174893,1,0,0:0:0:0:
320,192,175199,1,0,0:0:0:0:
192,192,175505,1,0,0:0:0:0:
64,192,175811,1,0,0:0:0:0:
320,192,176117,1,0,0:0:0:0:
448,192,176423,1,0,0:0:0:35:SCG_D6.wav
64,192,176729,1,0,0:0:0:35:SCG_D6.wav
192,192,176882,1,0,0:0:0:35:SCG_C#6.wav
320,192,177035,1,0,0:0:0:35:SCG_D6.wav
448,192,177341,1,0,0:0:0:35:SCG_A5.wav
192,192,177648,1,0,0:0:0:35:SCG_C#6.wav
64,192,177954,1,0,0:0:0:35:SCG_C#6.wav
192,192,178107,1,0,0:0:0:35:SCG_D6.wav
320,192,178260,1,0,0:0:0:35:SCG_E6.wav
64,192,178566,1,0,0:0:0:35:SCG_C#6.wav
320,192,178872,1,0,0:0:0:35:SCG_D6.wav
192,192,179178,1,0,0:0:0:35:SCG_D6.wav
320,192,179331,1,0,0:0:0:35:SCG_E6.wav
448,192,179484,1,0,0:0:0:35:SCG_F#6.wav
192,192,179790,1,0,0:0:0:35:SCG_D6.wav
448,192,180097,1,0,0:0:0:35:SCG_F#6.wav
320,192,180403,1,0,0:0:0:35:SCG_F#6.wav
192,192,180556,1,0,0:0:0:35:SCG_E6.wav
64,192,180709,1,0,0:0:0:35:SCG_D6.wav
320,192,181015,1,0,0:0:0:35:SCG_C#6.wav
64,192,181321,1,0,0:0:0:35:SCG_B5.wav
192,192,181627,1,0,0:0:0:35:SCG_B5.wav
320,192,181780,1,0,0:0:0:35:SCG_A5.wav
448,192,181933,1,0,0:0:0:35:SCG_B5.wav
320,192,182239,1,0,0:0:0:35:SCG_C#6.wav
448,192,182546,1,0,0:0:0:35:SCG_D6.wav
320,192,182852,1,0,0:0:0:35:SCG_F#6.wav
192,192,183005,1,0,0:0:0:35:SCG_E6.wav
64,192,183158,1,0,0:0:0:35:SCG_D6.wav
320,192,183464,1,0,0:0:0:35:SCG_F#6.wav
448,192,183770,1,0,0:0:0:35:SCG_G6.wav
320,192,184076,1,0,0:0:0:35:SCG_D6.wav
192,192,184229,1,0,0:0:0:35:SCG_C#6.wav
64,192,184382,1,0,0:0:0:35:SCG_B5.wav
448,192,184688,1,0,0:0:0:35:SCG_B5.wav
320,192,184995,1,0,0:0:0:35:SCG_A5.wav
192,192,185301,1,0,0:0:0:35:SCG_A5.wav
64,192,185454,1,0,0:0:0:35:SCG_G5.wav
448,192,185607,1,0,0:0:0:35:SCG_F#5.wav
320,192,185913,1,0,0:0:0:35:SCG_E5.wav
192,192,186219,1,0,0:0:0:35:SCG_D5.wav
448,192,186219,1,0,0:0:0:35:SCG_D6.wav
64,192,186525,1,0,0:0:0:35:SCG_D6.wav
192,192,186678,1,0,0:0:0:35:SCG_C#6.wav
320,192,186831,1,0,0:0:0:35:SCG_D6.wav
448,192,187137,1,0,0:0:0:35:SCG_A5.wav
192,192,187444,1,0,0:0:0:35:SCG_C#6.wav
64,192,187750,1,0,0:0:0:35:SCG_C#6.wav
192,192,187903,1,0,0:0:0:35:SCG_D6.wav
320,192,188056,1,0,0:0:0:35:SCG_E6.wav
64,192,188362,1,0,0:0:0:35:SCG_C#6.wav
320,192,188668,1,0,0:0:0:35:SCG_D6.wav
192,192,188974,1,0,0:0:0:35:SCG_D6.wav
320,192,189127,1,0,0:0:0:35:SCG_E6.wav
448,192,189280,1,0,0:0:0:35:SCG_F#6.wav
192,192,189586,1,0,0:0:0:35:SCG_D6.wav
448,192,189893,1,0,0:0:0:35:SCG_F#6.wav
320,192,190199,1,0,0:0:0:35:SCG_F#6.wav
192,192,190352,1,0,0:0:0:35:SCG_E6.wav
64,192,190505,1,0,0:0:0:35:SCG_D6.wav
320,192,190811,1,0,0:0:0:35:SCG_C#6.wav
64,192,191117,1,0,0:0:0:35:SCG_B5.wav
192,192,191423,1,0,0:0:0:35:SCG_B5.wav
320,192,191576,1,0,0:0:0:35:SCG_A5.wav
448,192,191729,1,0,0:0:0:35:SCG_B5.wav
320,192,192035,1,0,0:0:0:35:SCG_C#6.wav
448,192,192341,1,0,0:0:0:35:SCG_D6.wav
320,192,192648,1,0,0:0:0:35:SCG_F#6.wav
192,192,192801,1,0,0:0:0:35:SCG_E6.wav
64,192,192954,1,0,0:0:0:35:SCG_D6.wav
320,192,193260,1,0,0:0:0:35:SCG_F#6.wav
448,192,193566,1,0,0:0:0:35:SCG_G6.wav
64,192,193566,1,0,0:0:0:50:LR_Drum Finish.wav
320,192,193872,1,0,0:0:0:35:SCG_D6.wav
192,192,194025,1,0,0:0:0:35:SCG_C#6.wav
64,192,194178,1,0,0:0:0:35:SCG_B5.wav
448,192,194484,1,0,0:0:0:35:SCG_B5.wav
320,192,194790,1,0,0:0:0:35:SCG_A5.wav
192,192,195097,1,0,0:0:0:35:SCG_A5.wav
64,192,195250,1,0,0:0:0:35:SCG_G5.wav
448,192,195403,1,0,0:0:0:35:SCG_F#5.wav
320,192,195709,1,0,0:0:0:35:SCG_E5.wav
448,192,196015,5,0,0:0:0:35:LR_Drum Finish.wav
64,192,196015,1,0,0:0:0:35:SCG_D5.wav
192,192,196627,1,0,0:0:0:35:SCG_F#6.wav
192,192,196933,1,0,0:0:0:35:SCG_F#6.wav
192,192,197239,1,0,0:0:0:35:SCG_F#6.wav
448,192,197546,1,0,0:0:0:35:SCG_G6.wav
320,192,197852,1,0,0:0:0:35:SCG_F#6.wav
192,192,198158,1,0,0:0:0:35:SCG_E6.wav
64,192,198464,1,0,0:0:0:35:SCG_D6.wav
192,192,199382,1,0,0:0:0:35:SCG_D6.wav
192,192,199688,1,0,0:0:0:35:SCG_D6.wav
448,192,199995,1,0,0:0:0:35:SCG_E6.wav
320,192,200301,1,0,0:0:0:35:SCG_D6.wav
192,192,200607,1,0,0:0:0:35:SCG_C6.wav
448,192,200913,1,0,0:0:0:50:SCG_B5.wav
320,192,201219,1,0,0:0:0:50:SCG_A5.wav
64,192,201525,1,0,0:0:0:50:SCG_G5.wav
320,192,201831,1,0,0:0:0:50:SCG_A5.wav
192,192,202137,1,0,0:0:0:35:SCG_E5.wav
64,192,202444,1,0,0:0:0:35:SCG_A5.wav
192,192,202750,1,0,0:0:0:35:SCG_D6.wav
320,192,203056,1,0,0:0:0:35:SCG_F#6.wav
448,192,203362,1,0,0:0:0:35:SCG_G6.wav
320,192,203668,1,0,0:0:0:35:SCG_D6.wav
192,192,203974,1,0,0:0:0:35:SCG_B5.wav
64,192,204280,1,0,0:0:0:35:SCG_G5.wav
192,192,204586,1,0,0:0:0:35:SCG_A5.wav
320,192,204893,1,0,0:0:0:35:SCG_D6.wav
192,192,205199,1,0,0:0:0:35:SCG_E6.wav
448,192,205505,1,0,0:0:0:35:SCG_A6.wav
320,192,205811,5,0,0:0:0:60:D4S.wav
192,192,205811,1,0,0:0:0:35:SCG_D5.wav
64,192,206423,1,2,0:0:0:0:
320,192,206423,1,8,0:0:0:0:
448,192,207035,1,4,0:0:0:0:
192,192,207035,1,0,0:0:0:60:A3S.wav
448,192,207648,1,8,0:0:0:0:
64,192,207648,1,2,0:0:0:0:
320,192,208260,1,0,0:0:0:60:B3S.wav
64,192,208260,1,4,0:0:0:0:
192,192,208872,1,2,0:0:0:0:
448,192,208872,1,8,0:0:0:0:
192,192,209484,1,0,0:0:0:60:F#3S_Gb3S.wav
64,192,209484,1,4,0:0:0:0:
320,192,210097,1,2,0:0:0:0:
448,192,210097,1,8,0:0:0:0:
448,192,210709,1,4,0:0:0:0:
192,192,210709,1,0,0:0:0:60:G3S.wav
64,192,211321,1,2,0:0:0:0:
192,192,211321,1,8,0:0:0:0:
320,192,211933,1,4,0:0:0:0:
64,192,211933,1,0,0:0:0:60:D3S.wav
320,192,212546,1,2,0:0:0:0:
448,192,212546,1,8,0:0:0:0:
192,192,213158,1,0,0:0:0:60:G3S.wav
448,192,213158,1,4,0:0:0:0:
64,192,213770,1,2,0:0:0:0:
192,192,213770,1,8,0:0:0:0:
320,192,214382,1,2,0:0:0:60:A3S.wav
448,192,214382,1,4,0:0:0:0:
64,192,214995,1,2,0:0:0:0:
192,192,214995,1,8,0:0:0:0:
448,192,215607,128,0,216219:0:0:0:60:D4S.wav
320,192,216219,128,2,216831:0:0:0:0:
192,192,216831,128,0,218056:0:0:0:60:A3S.wav
64,192,218056,128,0,219280:0:0:0:60:B3S.wav
320,192,219280,128,0,220505:0:0:0:60:F#3S_Gb3S.wav
192,192,220505,128,0,221423:0:0:0:60:G3S.wav
320,192,221423,128,0,221729:0:0:0:0:
448,192,221729,128,0,222035:0:0:0:60:D3S.wav
192,192,222035,128,0,222341:0:0:0:0:
320,192,222341,128,0,222648:0:0:0:0:
64,192,222648,128,0,222954:0:0:0:0:
192,192,222954,128,0,224178:0:0:0:60:G3S.wav
448,192,224178,128,2,225403:0:0:0:60:A3S.wav
320,192,225403,5,0,0:0:0:60:D4S.wav
192,192,225403,1,0,0:0:0:35:SCG_D5.wav
64,192,226015,1,2,0:0:0:0:
320,192,226015,1,8,0:0:0:0:
448,192,226627,1,4,0:0:0:0:
192,192,226627,1,0,0:0:0:60:A3S.wav
64,192,227239,1,2,0:0:0:0:
448,192,227239,1,8,0:0:0:0:
320,192,227852,1,0,0:0:0:60:B3S.wav
64,192,227852,1,4,0:0:0:0:
192,192,228464,1,2,0:0:0:0:
320,192,228464,1,8,0:0:0:0:
64,192,229076,1,4,0:0:0:0:
192,192,229076,1,0,0:0:0:60:F#3S_Gb3S.wav
448,192,229688,1,8,0:0:0:0:
320,192,229688,1,2,0:0:0:0:
192,192,230301,1,0,0:0:0:60:G3S.wav
448,192,230301,1,4,0:0:0:0:
64,192,230913,1,2,0:0:0:0:
192,192,230913,1,8,0:0:0:0:
64,192,231525,1,0,0:0:0:60:D3S.wav
320,192,231525,1,4,0:0:0:0:
320,192,232137,1,2,0:0:0:0:
448,192,232137,1,8,0:0:0:0:
192,192,232750,1,0,0:0:0:60:G3S.wav
448,192,232750,1,4,0:0:0:0:
64,192,233362,1,8,0:0:0:0:
320,192,233362,1,2,0:0:0:0:
448,192,233974,1,4,0:0:0:0:
320,192,233974,1,2,0:0:0:60:A3S.wav
64,192,234586,1,2,0:0:0:0:
192,192,234586,1,8,0:0:0:0:
448,192,235199,128,0,235811:0:0:0:60:D4S.wav
320,192,235811,128,2,236423:0:0:0:0:
192,192,236423,128,0,237648:0:0:0:60:A3S.wav
64,192,237648,128,0,238872:0:0:0:60:B3S.wav
320,192,238872,128,0,240097:0:0:0:60:F#3S_Gb3S.wav
192,192,240097,128,0,241015:0:0:0:60:G3S.wav
320,192,241015,128,0,241321:0:0:0:0:
448,192,241321,128,0,241627:0:0:0:60:D3S.wav
192,192,241627,128,0,241933:0:0:0:0:
320,192,241933,128,0,242239:0:0:0:0:
64,192,242239,128,0,242546:0:0:0:0:
192,192,242546,128,0,243770:0:0:0:60:G3S.wav
448,192,243770,128,2,244995:0:0:0:60:A3S.wav
320,192,244995,5,0,0:0:0:60:D4S.wav
64,192,244995,1,4,0:0:0:0:
448,192,246219,1,4,0:0:0:0:
192,192,246219,1,0,0:0:0:60:A3S.wav
320,192,247444,1,0,0:0:0:60:B3S.wav
64,192,247444,1,4,0:0:0:0:
64,192,248668,1,4,0:0:0:0:
192,192,248668,1,0,0:0:0:60:F#3S_Gb3S.wav
192,192,249893,1,0,0:0:0:60:G3S.wav
448,192,249893,1,4,0:0:0:0:
64,192,251117,1,0,0:0:0:60:D3S.wav
320,192,251117,1,4,0:0:0:0:
192,192,252341,1,0,0:0:0:60:G3S.wav
448,192,252341,1,4,0:0:0:0:
448,192,253566,1,4,0:0:0:0:
320,192,253566,1,2,0:0:0:60:A3S.wav
192,192,254790,5,0,0:0:0:60:D4S.wav
64,192,254790,1,0,0:0:0:35:SCG_D5.wav
