osu file format v14

[General]
AudioFilename: DJ Okawari - Canon.mp3
AudioLeadIn: 1500
PreviewTime: 98056
Countdown: 0
SampleSet: Soft
StackLeniency: 0.8
Mode: 3
LetterboxInBreaks: 0
EpilepsyWarning: 1
SpecialStyle: 0
WidescreenStoryboard: 1

[Editor]
Bookmarks: 71117,90709,107852,114280,133872,149484,182852
DistanceSpacing: 1.4
BeatDivisor: 4
GridSize: 4
TimelineZoom: 1.3

[Metadata]
Title:Canon
TitleUnicode:カノン
Artist:DJ OKAWARI
ArtistUnicode:DJ OKAWARI
Creator:schwarzvgrune
Version:Clamorous (Insane)
Source:
Tags:心花 ~cohana 2nd~ oriental classics Johann Christoph Pachelbel Pharos21
BeatmapID:661929
BeatmapSetID:284229

[Difficulty]
HPDrainRate:8
CircleSize:4
OverallDifficulty:8
ApproachRate:2
SliderMultiplier:0.999999904632568
SliderTickRate:1

[Events]
//Background and Video events
0,0,"Canon-BG.jpg",0,0
//Break Periods
//Storyboard Layer 0 (Background)
//Storyboard Layer 1 (Fail)
//Storyboard Layer 2 (Pass)
//Storyboard Layer 3 (Foreground)
//Storyboard Sound Samples

[TimingPoints]
9893,612.244897959184,4,2,1,5,1,0
49076,-100,4,2,1,30,0,0
58872,-100,4,2,1,50,0,0
93464,-100,4,2,1,25,0,0
98056,-100,4,2,1,50,0,1
137239,-100,4,2,1,20,0,0
196015,-100,4,2,1,20,0,1
205811,-100,4,2,1,15,0,1
254790,-100,4,2,1,15,0,0

[HitObjects]
320,192,9893,5,0,0:0:0:20:D4S.wav
448,192,9893,5,0,0:0:0:20:D4S.wav
64,192,9893,128,2,14484:0:0:0:0:
192,192,10199,1,2,0:0:0:0:
320,192,10505,1,2,0:0:0:0:
448,192,10811,1,2,0:0:0:0:
320,192,11117,1,0,0:0:0:20:A3S.wav
192,192,11117,1,0,0:0:0:20:A3S.wav
448,192,11423,1,2,0:0:0:0:
192,192,11729,1,2,0:0:0:0:
320,192,12035,1,2,0:0:0:0:
448,192,12341,1,0,0:0:0:20:B3S.wav
192,192,12341,1,0,0:0:0:20:B3S.wav
320,192,12648,1,2,0:0:0:0:
192,192,12954,1,2,0:0:0:0:
448,192,13260,1,2,0:0:0:0:
320,192,13566,1,0,0:0:0:20:F#3S_Gb3S.wav
192,192,13566,1,0,0:0:0:20:F#3S_Gb3S.wav
448,192,13872,1,2,0:0:0:0:
192,192,14178,1,2,0:0:0:0:
320,192,14484,1,2,0:0:0:0:
448,192,14790,1,0,0:0:0:20:G3S.wav
64,192,14790,1,0,0:0:0:20:G3S.wav
192,192,15097,1,2,0:0:0:0:
320,192,15403,1,2,0:0:0:0:
448,192,15709,1,2,0:0:0:0:
64,192,16015,1,0,0:0:0:20:D3S.wav
320,192,16015,1,0,0:0:0:20:D3S.wav
64,192,16321,1,2,0:0:0:0:
192,192,16627,1,2,0:0:0:0:
320,192,16933,1,2,0:0:0:0:
64,192,17239,1,0,0:0:0:20:G3S.wav
448,192,17239,1,0,0:0:0:20:G3S.wav
192,192,17546,1,2,0:0:0:0:
320,192,17852,1,2,0:0:0:0:
448,192,18158,1,2,0:0:0:0:
192,192,18464,1,2,0:0:0:20:A3S.wav
448,192,18464,1,2,0:0:0:20:A3S.wav
64,192,18770,1,2,0:0:0:0:
192,192,19076,1,2,0:0:0:0:
320,192,19382,1,2,0:0:0:0:
192,192,19688,5,2,0:0:0:20:D4S.wav
448,192,19688,128,2,20607:0:0:0:20:LR_NBell_F#5.wav
320,192,19995,1,2,0:0:0:0:
64,192,20301,1,2,0:0:0:0:
192,192,20607,1,2,0:0:0:0:
64,192,20913,1,2,0:0:0:20:A3S.wav
320,192,20913,128,2,21831:0:0:0:20:LR_NBell_E5.wav
192,192,21219,1,2,0:0:0:0:
448,192,21525,1,2,0:0:0:0:
64,192,21831,1,2,0:0:0:0:
320,192,22137,1,2,0:0:0:20:B3S.wav
192,192,22137,128,2,23056:0:0:0:20:LR_NBell_D5.wav
64,192,22444,1,2,0:0:0:0:
320,192,22750,1,2,0:0:0:0:
448,192,23056,1,2,0:0:0:0:
320,192,23362,1,2,0:0:0:20:F#3S_Gb3S.wav
64,192,23362,128,2,24280:0:0:0:20:LR_NBell_C#5.wav
192,192,23668,1,2,0:0:0:0:
320,192,23974,1,2,0:0:0:0:
448,192,24280,1,2,0:0:0:0:
320,192,24586,1,2,0:0:0:20:G3S.wav
192,192,24586,128,2,25505:0:0:0:20:LR_NBell_B4.wav
448,192,24893,1,2,0:0:0:0:
64,192,25199,1,2,0:0:0:0:
320,192,25505,1,2,0:0:0:0:
448,192,25811,1,2,0:0:0:20:D3S.wav
64,192,25811,128,2,26729:0:0:0:20:LR_NBell_A4.wav
192,192,26117,1,2,0:0:0:0:
320,192,26423,1,2,0:0:0:0:
448,192,26729,1,2,0:0:0:0:
320,192,27035,1,2,0:0:0:20:G3S.wav
192,192,27035,128,2,27954:0:0:0:20:LR_NBell_B4.wav
448,192,27341,1,2,0:0:0:0:
64,192,27648,1,2,0:0:0:0:
320,192,27954,1,2,0:0:0:0:
192,192,28260,1,2,0:0:0:20:A3S.wav
448,192,28260,128,2,29178:0:0:0:20:LR_NBell_C#5.wav
64,192,28566,1,2,0:0:0:0:
192,192,28872,1,2,0:0:0:0:
320,192,29178,1,2,0:0:0:0:
192,192,29484,5,2,0:0:0:20:D4S.wav
448,192,29484,1,2,0:0:0:40:SCG_F#6.wav
64,192,29790,1,2,0:0:0:0:
192,192,30097,1,2,0:0:0:0:
448,192,30403,1,2,0:0:0:0:
320,192,30709,1,2,0:0:0:40:SCG_E6.wav
64,192,30709,1,2,0:0:0:20:A3S.wav
192,192,31015,1,2,0:0:0:0:
320,192,31321,1,2,0:0:0:0:
448,192,31627,1,2,0:0:0:0:
192,192,31933,1,2,0:0:0:40:SCG_D6.wav
320,192,31933,1,2,0:0:0:20:B3S.wav
64,192,32239,1,2,0:0:0:0:
448,192,32546,1,2,0:0:0:0:
192,192,32546,1,8,0:0:0:0:
320,192,32852,1,2,0:0:0:0:
64,192,33158,1,2,0:0:0:40:SCG_C#6.wav
448,192,33158,1,2,0:0:0:20:F#3S_Gb3S.wav
192,192,33464,1,2,0:0:0:0:
448,192,33464,128,4,33770:0:0:0:0:
320,192,33770,1,2,0:0:0:0:
64,192,33770,1,8,0:0:0:0:
448,192,34076,1,2,0:0:0:0:
192,192,34382,1,2,0:0:0:40:SCG_B5.wav
320,192,34382,1,2,0:0:0:20:G3S.wav
64,192,34688,1,2,0:0:0:0:
192,192,34995,1,2,0:0:0:0:
448,192,34995,1,8,0:0:0:0:
320,192,35301,1,2,0:0:0:0:
448,192,35607,1,2,0:0:0:20:D3S.wav
64,192,35607,1,2,0:0:0:40:SCG_A5.wav
192,192,35913,1,2,0:0:0:0:
448,192,35913,128,4,36219:0:0:0:0:
320,192,36219,1,2,0:0:0:0:
64,192,36219,1,8,0:0:0:0:
448,192,36525,1,2,0:0:0:0:
320,192,36525,128,4,36678:0:0:0:0:
192,192,36678,1,8,0:0:0:0:
448,192,36831,1,2,0:0:0:20:G3S.wav
64,192,36831,1,2,0:0:0:40:SCG_B5.wav
64,192,37137,1,2,0:0:0:0:
320,192,37137,1,4,0:0:0:0:
192,192,37444,1,2,0:0:0:0:
448,192,37444,1,8,0:0:0:0:
320,192,37750,1,2,0:0:0:0:
64,192,37750,1,4,0:0:0:0:
64,192,37903,1,4,0:0:0:0:
192,192,38056,1,2,0:0:0:20:A3S.wav
448,192,38056,1,2,0:0:0:40:SCG_C#6.wav
64,192,38362,1,2,0:0:0:0:
320,192,38362,128,4,38668:0:0:0:0:
192,192,38668,1,2,0:0:0:0:
448,192,38668,1,8,0:0:0:0:
64,192,38974,1,2,0:0:0:0:
320,192,38974,1,8,0:0:0:0:
320,192,39127,1,8,0:0:0:0:
64,192,39280,5,2,0:0:0:20:D4S.wav
448,192,39280,1,2,0:0:0:40:SCG_F#6.wav
192,192,39280,1,4,0:0:0:0:
192,192,39586,1,2,0:0:0:0:
320,192,39586,1,2,0:0:0:0:
320,192,39893,1,2,0:0:0:0:
64,192,39893,1,8,0:0:0:0:
448,192,40199,1,2,0:0:0:0:
64,192,40199,1,4,0:2:0:0:
64,192,40352,1,4,0:0:0:0:
192,192,40505,1,2,0:0:0:20:A3S.wav
320,192,40505,1,2,0:0:0:40:SCG_E6.wav
448,192,40505,1,4,0:0:0:0:
320,192,40811,1,2,0:0:0:0:
64,192,40811,128,4,41117:0:0:0:0:
192,192,41117,1,2,0:0:0:0:
448,192,41117,1,8,0:0:0:0:
448,192,41423,1,2,0:0:0:0:
320,192,41423,128,4,41576:0:0:0:0:
192,192,41576,1,8,0:0:0:0:
448,192,41729,1,2,0:0:0:20:B3S.wav
64,192,41729,1,2,0:0:0:40:SCG_D6.wav
320,192,41729,1,4,0:0:0:0:
192,192,42035,1,2,0:0:0:0:
320,192,42035,1,4,0:0:0:0:
320,192,42341,1,2,0:0:0:0:
64,192,42341,1,8,0:0:0:0:
448,192,42648,1,2,0:0:0:0:
192,192,42648,1,4,0:0:0:0:
192,192,42801,1,4,0:0:0:0:
320,192,42954,1,2,0:0:0:20:F#3S_Gb3S.wav
64,192,42954,1,2,0:0:0:40:SCG_C#6.wav
448,192,42954,1,4,0:0:0:0:
192,192,43107,1,4,0:0:0:0:
320,192,43260,1,2,0:0:0:0:
64,192,43260,128,4,43566:0:0:0:0:
192,192,43566,1,2,0:0:0:0:
448,192,43566,1,8,0:0:0:0:
64,192,43872,1,2,0:0:0:0:
320,192,43872,1,8,0:0:0:0:
320,192,44025,1,8,0:0:0:0:
448,192,44178,1,2,0:0:0:20:G3S.wav
192,192,44178,1,2,0:0:0:40:SCG_B5.wav
64,192,44178,1,4,0:0:0:0:
192,192,44484,1,2,0:0:0:0:
320,192,44484,1,2,0:0:0:0:
320,192,44790,1,2,0:0:0:0:
64,192,44790,1,8,0:0:0:0:
320,192,45097,1,2,0:0:0:0:
192,192,45097,1,4,0:0:0:0:
192,192,45250,1,4,0:0:0:0:
448,192,45403,1,2,0:0:0:20:D3S.wav
64,192,45403,1,2,0:0:0:40:SCG_A5.wav
320,192,45403,1,4,0:0:0:0:
192,192,45709,1,2,0:0:0:0:
448,192,45709,128,4,46015:0:0:0:0:
320,192,46015,1,2,0:0:0:0:
64,192,46015,1,8,0:0:0:0:
448,192,46321,1,2,0:0:0:0:
320,192,46321,128,4,46474:0:0:0:0:
192,192,46474,1,8,0:0:0:0:
320,192,46627,1,0,0:0:0:20:G3S.wav
192,192,46627,1,0,0:0:0:40:SCG_B5.wav
64,192,46627,128,0,49076:0:0:0:30:LR_Drum Finish.wav
448,192,46627,1,4,0:0:0:0:
448,192,46933,1,2,0:0:0:0:
320,192,47239,1,2,0:0:0:0:
192,192,47546,1,2,0:0:0:0:
320,192,47852,1,2,0:0:0:20:A3S.wav
448,192,47852,1,2,0:0:0:40:SCG_C#6.wav
192,192,48158,1,2,0:0:0:0:
320,192,48464,1,2,0:0:0:0:
448,192,48770,1,2,0:0:0:0:
320,192,49076,5,0,0:0:0:20:D4S.wav
448,192,49076,1,0,0:0:0:40:SCG_F#6.wav
192,192,49076,128,0,49688:0:0:0:30:LR_Drum Finish.wav
320,192,49382,1,0,0:0:0:0:
64,192,49382,1,2,0:0:0:0:
448,192,49688,1,0,0:0:0:0:
320,192,49688,128,8,50301:0:0:0:0:
448,192,49995,1,0,0:0:0:0:
64,192,49995,1,4,0:0:0:0:
192,192,50148,1,4,0:0:0:0:
64,192,50301,1,2,0:0:0:20:A3S.wav
192,192,50301,1,2,0:0:0:40:SCG_E6.wav
448,192,50301,128,4,50913:0:0:0:0:
64,192,50607,1,2,0:0:0:0:
320,192,50607,1,4,0:0:0:0:
192,192,50913,1,2,0:0:0:0:
320,192,50913,128,8,51525:0:0:0:0:
448,192,51219,1,2,0:0:0:0:
192,192,51219,1,4,0:0:0:0:
64,192,51372,1,8,0:0:0:0:
448,192,51525,1,2,0:0:0:20:B3S.wav
64,192,51525,1,2,0:0:0:40:SCG_D6.wav
192,192,51525,128,4,52137:0:0:0:0:
64,192,51831,1,0,0:0:0:0:
320,192,51831,1,4,0:0:0:0:
448,192,52137,1,0,0:0:0:0:
64,192,52137,128,8,52750:0:0:0:0:
192,192,52444,1,0,0:0:0:0:
448,192,52444,1,4,0:0:0:0:
320,192,52597,1,4,0:0:0:0:
192,192,52750,1,0,0:0:0:40:SCG_C#6.wav
320,192,52750,1,2,0:0:0:20:F#3S_Gb3S.wav
448,192,52750,128,4,53362:0:0:0:0:
320,192,53056,1,2,0:0:0:0:
64,192,53056,1,4,0:0:0:0:
192,192,53362,1,2,0:0:0:0:
320,192,53362,128,8,53974:0:0:0:0:
448,192,53668,1,2,0:0:0:0:
64,192,53668,1,8,0:0:0:0:
64,192,53821,1,8,0:0:0:0:
64,192,53974,1,2,0:0:0:20:G3S.wav
448,192,53974,1,2,0:0:0:40:SCG_B5.wav
192,192,53974,128,4,54586:0:0:0:0:
64,192,54280,1,0,0:0:0:0:
320,192,54280,1,2,0:0:0:0:
448,192,54586,1,0,0:0:0:0:
64,192,54586,128,8,55199:0:0:0:0:
192,192,54893,1,0,0:0:0:0:
448,192,54893,1,4,0:0:0:0:
320,192,55046,1,4,0:0:0:0:
320,192,55199,1,2,0:0:0:20:D3S.wav
448,192,55199,1,0,0:0:0:40:SCG_A5.wav
192,192,55199,128,4,55811:0:0:0:0:
64,192,55505,1,2,0:0:0:0:
320,192,55505,1,4,0:0:0:0:
448,192,55811,1,2,0:0:0:0:
320,192,55811,128,8,56423:0:0:0:0:
192,192,56117,1,2,0:0:0:0:
448,192,56117,1,4,0:0:0:0:
64,192,56270,1,8,0:0:0:0:
448,192,56423,1,2,0:0:0:20:G3S.wav
64,192,56423,1,2,0:0:0:40:SCG_B5.wav
192,192,56423,128,4,57035:0:0:0:0:
320,192,56729,1,0,0:0:0:0:
448,192,56729,1,4,0:0:0:0:
64,192,57035,1,0,0:0:0:0:
320,192,57035,128,8,57648:0:0:0:0:
192,192,57341,1,0,0:0:0:0:
64,192,57341,1,4,0:0:0:0:
448,192,57495,1,4,0:0:0:0:
64,192,57648,1,2,0:0:0:20:A3S.wav
448,192,57648,1,2,0:0:0:40:SCG_C#6.wav
192,192,57648,128,4,58260:0:0:0:0:
448,192,57954,1,2,0:0:0:0:
320,192,57954,1,4,0:0:0:0:
448,192,58260,1,2,0:0:0:0:
64,192,58260,128,8,58872:0:0:0:0:
192,192,58566,1,2,0:0:0:0:
320,192,58566,1,8,0:0:0:0:
320,192,58719,1,8,0:0:0:0:
320,192,58872,5,0,0:0:0:20:D4S.wav
448,192,58872,1,2,0:0:0:30:SCG_D6.wav
192,192,58872,1,4,0:0:0:0:
320,192,59178,1,2,0:0:0:30:SCG_C#6.wav
192,192,59178,1,2,0:0:0:0:
448,192,59484,1,2,0:0:0:30:SCG_D6.wav
64,192,59484,1,8,0:0:0:0:
192,192,59790,1,2,0:0:0:30:SCG_F#5.wav
448,192,59790,1,4,0:0:0:0:
448,192,59944,1,4,0:0:0:0:
320,192,60097,1,0,0:0:0:20:A3S.wav
64,192,60097,1,2,0:0:0:30:SCG_E5.wav
192,192,60097,1,4,0:0:0:0:
448,192,60403,1,2,0:0:0:30:SCG_A5.wav
64,192,60403,128,8,60709:0:0:0:0:
192,192,60709,1,2,0:0:0:30:SCG_E5.wav
448,192,60709,1,8,0:0:0:0:
320,192,61015,1,2,0:0:0:30:SCG_F#5.wav
192,192,61015,128,4,61168:0:0:0:0:
448,192,61168,1,8,0:0:0:0:
64,192,61321,1,2,0:0:0:30:SCG_D5.wav
192,192,61321,1,0,0:0:0:20:B3S.wav
320,192,61321,1,4,0:0:0:0:
448,192,61627,1,2,0:0:0:30:SCG_D6.wav
192,192,61627,1,4,0:0:0:0:
320,192,61933,1,2,0:0:0:30:SCG_C#6.wav
64,192,61933,1,8,0:0:0:0:
64,192,62239,1,2,0:0:0:30:SCG_B5.wav
320,192,62239,1,4,0:0:0:0:
320,192,62393,1,4,0:0:0:0:
448,192,62546,1,0,0:0:0:20:F#3S_Gb3S.wav
192,192,62546,1,2,0:0:0:30:SCG_C#6.wav
64,192,62546,1,4,0:0:0:0:
64,192,62852,1,2,0:0:0:30:SCG_F#6.wav
448,192,62852,128,4,63158:0:0:0:0:
320,192,63158,1,0,0:0:0:30:SCG_A6.wav
192,192,63158,1,8,0:0:0:0:
448,192,63464,1,0,0:0:0:30:SCG_B6.wav
192,192,63464,1,8,0:0:0:0:
192,192,63617,1,8,0:0:0:0:
320,192,63770,1,0,0:0:0:30:SCG_G6.wav
64,192,63770,1,0,0:0:0:20:G3S.wav
448,192,63770,1,4,0:0:0:0:
192,192,64076,1,0,0:0:0:30:SCG_F#6.wav
320,192,64076,1,2,0:0:0:0:
64,192,64382,1,0,0:0:0:30:SCG_E6.wav
448,192,64382,1,8,0:0:0:0:
320,192,64688,1,0,0:0:0:30:SCG_G6.wav
64,192,64688,1,4,0:0:0:0:
64,192,64841,1,4,0:0:0:0:
192,192,64995,1,0,0:0:0:30:SCG_F#6.wav
448,192,64995,1,0,0:0:0:20:D3S.wav
320,192,64995,1,4,0:0:0:0:
64,192,65301,1,0,0:0:0:30:SCG_E6.wav
320,192,65301,128,4,65607:0:0:0:0:
448,192,65607,1,0,0:0:0:30:SCG_D6.wav
192,192,65607,1,8,0:0:0:0:
320,192,65913,1,0,0:0:0:30:SCG_C#6.wav
192,192,65913,128,4,66066:0:0:0:0:
64,192,66066,1,8,0:0:0:0:
192,192,66219,1,0,0:0:0:30:SCG_B5.wav
448,192,66219,1,0,0:0:0:20:G3S.wav
320,192,66219,1,4,0:0:0:0:
64,192,66525,1,0,0:0:0:30:SCG_A5.wav
448,192,66525,1,4,0:0:0:0:
320,192,66831,1,0,0:0:0:30:SCG_G5.wav
64,192,66831,1,8,0:0:0:0:
192,192,67137,1,0,0:0:0:30:SCG_F#5.wav
448,192,67137,1,4,0:0:0:0:
448,192,67290,1,4,0:0:0:0:
64,192,67444,1,0,0:0:0:30:SCG_E5.wav
320,192,67444,1,2,0:0:0:20:A3S.wav
192,192,67444,1,4,0:0:0:0:
448,192,67750,1,0,0:0:0:30:SCG_G5.wav
64,192,67750,128,4,68056:0:0:0:0:
320,192,68056,1,0,0:0:0:30:SCG_F#5.wav
192,192,68056,1,8,0:0:0:0:
192,192,68362,1,0,0:0:0:30:SCG_E5.wav
320,192,68362,1,8,0:0:0:0:
320,192,68515,1,8,0:0:0:0:
448,192,68668,5,0,0:0:0:20:D4S.wav
64,192,68668,1,0,0:0:0:30:SCG_D5.wav
192,192,68668,1,4,0:0:0:0:
192,192,68974,1,0,0:0:0:30:SCG_E5.wav
448,192,68974,1,2,0:0:0:0:
320,192,69280,1,0,0:0:0:30:SCG_F#5.wav
64,192,69280,1,8,0:0:0:0:
448,192,69586,1,0,0:0:0:30:SCG_G5.wav
64,192,69586,1,4,0:0:0:0:
64,192,69739,1,4,0:0:0:0:
320,192,69893,1,0,0:0:0:20:A3S.wav
448,192,69893,1,0,0:0:0:30:SCG_A5.wav
192,192,69893,1,4,0:0:0:0:
64,192,70199,1,0,0:0:0:30:SCG_E5.wav
320,192,70199,128,4,70505:0:0:0:0:
448,192,70505,1,0,0:0:0:30:SCG_A5.wav
192,192,70505,1,8,0:0:0:0:
320,192,70811,1,0,0:0:0:30:SCG_G5.wav
192,192,70811,128,4,70964:0:0:0:0:
448,192,70964,1,8,0:0:0:0:
64,192,71117,1,0,0:0:0:20:B3S.wav
192,192,71117,1,0,0:0:0:30:SCG_F#5.wav
320,192,71117,1,4,0:0:0:0:
448,192,71423,1,0,0:0:0:30:SCG_B5.wav
192,192,71423,1,4,0:0:0:0:
320,192,71729,1,0,0:0:0:30:SCG_A5.wav
64,192,71729,1,8,0:0:0:0:
192,192,72035,1,0,0:0:0:30:SCG_G5.wav
320,192,72035,1,4,0:0:0:0:
320,192,72188,1,4,0:0:0:0:
64,192,72341,1,0,0:0:0:20:F#3S_Gb3S.wav
448,192,72341,1,0,0:0:0:30:SCG_A5.wav
192,192,72341,1,4,0:0:0:0:
320,192,72648,1,0,0:0:0:30:SCG_G5.wav
64,192,72648,128,4,72954:0:0:0:0:
192,192,72954,1,0,0:0:0:30:SCG_F#5.wav
448,192,72954,1,8,0:0:0:0:
64,192,73260,1,0,0:0:0:30:SCG_E5.wav
448,192,73260,1,8,0:0:0:0:
448,192,73413,1,8,0:0:0:0:
320,192,73566,1,0,0:0:0:30:SCG_D5.wav
192,192,73566,1,0,0:0:0:20:G3S.wav
64,192,73566,1,4,0:0:0:0:
64,192,73872,1,0,0:0:0:30:SCG_B4.wav
320,192,73872,1,2,0:0:0:0:
192,192,74178,1,0,0:0:0:30:SCG_B5.wav
448,192,74178,1,8,0:0:0:0:
320,192,74484,1,0,0:0:0:30:SCG_C#6.wav
192,192,74484,1,4,0:0:0:0:
192,192,74637,1,4,0:0:0:0:
64,192,74790,1,0,0:0:0:20:D3S.wav
448,192,74790,1,0,0:0:0:30:SCG_D6.wav
320,192,74790,1,4,0:0:0:0:
320,192,75097,1,0,0:0:0:30:SCG_C#6.wav
64,192,75097,128,4,75403:0:0:0:0:
192,192,75403,1,0,0:0:0:30:SCG_B5.wav
448,192,75403,1,8,0:0:0:0:
448,192,75709,1,0,0:0:0:30:SCG_A5.wav
320,192,75709,128,4,75862:0:0:0:0:
192,192,75862,1,8,0:0:0:0:
320,192,76015,1,0,0:0:0:30:SCG_G5.wav
64,192,76015,1,0,0:0:0:20:G3S.wav
448,192,76015,1,4,0:0:0:0:
192,192,76321,1,0,0:0:0:30:SCG_F#5.wav
320,192,76321,1,4,0:0:0:0:
64,192,76627,1,0,0:0:0:30:SCG_E5.wav
448,192,76627,1,8,0:0:0:0:
320,192,76933,1,0,0:0:0:30:SCG_B5.wav
64,192,76933,1,4,0:0:0:0:
64,192,77086,1,4,0:0:0:0:
448,192,77239,1,2,0:0:0:20:A3S.wav
192,192,77239,1,0,0:0:0:30:SCG_A5.wav
320,192,77239,1,4,0:0:0:0:
320,192,77546,1,0,0:0:0:30:SCG_B5.wav
64,192,77546,128,4,77852:0:0:0:0:
192,192,77852,1,0,0:0:0:30:SCG_A5.wav
448,192,77852,1,8,0:0:0:0:
64,192,78158,1,0,0:0:0:30:SCG_G5.wav
320,192,78158,1,8,0:0:0:0:
320,192,78311,1,8,0:0:0:0:
192,192,78464,1,0,0:0:0:30:SCG_D6.wav
64,192,78464,1,4,0:0:0:0:
448,192,78464,128,0,79076:0:0:0:20:D4S.wav
64,192,78770,1,0,0:0:0:30:SCG_C#6.wav
320,192,78770,1,2,0:0:0:0:
192,192,79076,1,0,0:0:0:30:SCG_D6.wav
64,192,79076,128,8,79688:0:0:0:0:
320,192,79076,1,2,0:0:0:0:
448,192,79382,1,0,0:0:0:30:SCG_F#5.wav
192,192,79382,1,4,0:0:0:0:
320,192,79535,1,4,0:0:0:0:
448,192,79688,1,4,0:0:0:0:
192,192,79688,1,0,0:0:0:30:SCG_E5.wav
320,192,79688,128,0,80301:0:0:0:20:A3S.wav
192,192,79995,1,0,0:0:0:30:SCG_A5.wav
64,192,79995,1,4,0:0:0:0:
192,192,80301,1,0,0:0:0:30:SCG_E5.wav
64,192,80301,128,8,80913:0:0:0:0:
448,192,80301,1,2,0:0:0:0:
320,192,80607,1,0,0:0:0:30:SCG_F#5.wav
192,192,80607,1,4,0:0:0:0:
448,192,80760,1,8,0:0:0:0:
448,192,80913,1,0,0:0:0:30:SCG_D5.wav
320,192,80913,1,4,0:0:0:0:
192,192,80913,128,0,81525:0:0:0:20:B3S.wav
320,192,81219,1,0,0:0:0:30:SCG_D6.wav
64,192,81219,1,4,0:0:0:0:
448,192,81525,1,0,0:0:0:30:SCG_C#6.wav
320,192,81525,128,8,82137:0:0:0:0:
64,192,81525,1,2,0:0:0:0:
448,192,81831,1,0,0:0:0:30:SCG_B5.wav
192,192,81831,1,4,0:0:0:0:
64,192,81984,1,4,0:0:0:0:
192,192,82137,1,0,0:0:0:30:SCG_C#6.wav
64,192,82137,1,4,0:0:0:0:
448,192,82137,128,0,82750:0:0:0:20:F#3S_Gb3S.wav
192,192,82444,1,0,0:0:0:30:SCG_F#6.wav
64,192,82444,1,4,0:0:0:0:
320,192,82750,1,0,0:0:0:30:SCG_A6.wav
192,192,82750,128,8,83362:0:0:0:0:
64,192,82750,1,2,0:0:0:0:
64,192,83056,1,0,0:0:0:30:SCG_B6.wav
448,192,83056,1,8,0:0:0:0:
448,192,83209,1,8,0:0:0:0:
320,192,83362,1,0,0:0:0:30:SCG_G6.wav
64,192,83362,1,4,0:0:0:0:
448,192,83362,128,0,83974:0:0:0:20:G3S.wav
64,192,83668,1,0,0:0:0:30:SCG_F#6.wav
320,192,83668,1,2,0:0:0:0:
320,192,83974,1,0,0:0:0:30:SCG_E6.wav
64,192,83974,128,8,84586:0:0:0:0:
192,192,83974,1,2,0:0:0:0:
192,192,84280,1,0,0:0:0:30:SCG_G6.wav
320,192,84280,1,4,0:0:0:0:
448,192,84433,1,4,0:0:0:0:
192,192,84586,1,0,0:0:0:30:SCG_F#6.wav
448,192,84586,1,4,0:0:0:0:
320,192,84586,128,0,85199:0:0:0:20:D3S.wav
192,192,84893,1,0,0:0:0:30:SCG_E6.wav
64,192,84893,1,4,0:0:0:0:
448,192,85199,1,0,0:0:0:30:SCG_D6.wav
192,192,85199,128,8,85811:0:0:0:0:
64,192,85199,1,2,0:0:0:0:
64,192,85505,1,0,0:0:0:30:SCG_C#6.wav
448,192,85505,1,4,0:0:0:0:
320,192,85658,1,8,0:0:0:0:
320,192,85811,1,4,0:0:0:0:
448,192,85811,1,0,0:0:0:30:SCG_B5.wav
64,192,85811,128,0,86423:0:0:0:20:G3S.wav
448,192,86117,1,0,0:0:0:30:SCG_A5.wav
192,192,86117,1,4,0:0:0:0:
192,192,86423,1,0,0:0:0:30:SCG_G5.wav
320,192,86423,128,10,86882:0:0:0:0:
64,192,86729,1,0,0:0:0:30:SCG_F#5.wav
192,192,86729,1,4,0:0:0:0:
64,192,86882,1,4,0:0:0:0:
192,192,87035,1,0,0:0:0:30:SCG_E5.wav
448,192,87035,1,4,0:0:0:0:
320,192,87035,128,2,87648:0:0:0:20:A3S.wav
192,192,87341,1,0,0:0:0:30:SCG_G5.wav
64,192,87341,1,4,0:0:0:0:
448,192,87648,1,0,0:0:0:30:SCG_F#5.wav
192,192,87648,128,8,88260:0:0:0:0:
64,192,87648,1,2,0:0:0:0:
64,192,87954,1,0,0:0:0:30:SCG_E5.wav
448,192,87954,1,8,0:0:0:0:
448,192,88107,1,8,0:0:0:0:
320,192,88260,1,0,0:0:0:30:SCG_D5.wav
448,192,88260,1,4,0:0:0:0:
64,192,88260,128,0,89484:0:0:0:30:D4S.wav
192,192,88566,1,0,0:0:0:30:SCG_E5.wav
320,192,88566,1,2,0:0:0:0:
320,192,88872,1,0,0:0:0:30:SCG_F#5.wav
192,192,88872,1,10,0:0:0:0:
448,192,88872,1,4,0:0:0:0:
320,192,89178,1,0,0:0:0:30:SCG_G5.wav
448,192,89178,1,4,0:0:0:0:
192,192,89331,1,4,0:0:0:0:
448,192,89484,1,0,0:0:0:30:SCG_A5.wav
320,192,89484,1,0,0:0:0:30:A3S.wav
192,192,89484,1,6,0:0:0:0:
192,192,89790,1,0,0:0:0:30:SCG_E5.wav
64,192,89790,128,4,90097:0:0:0:0:
448,192,90097,1,4,0:0:0:0:
320,192,90097,1,0,0:0:0:30:SCG_A5.wav
192,192,90097,128,8,90403:0:0:0:0:
64,192,90403,1,0,0:0:0:30:SCG_G5.wav
320,192,90403,128,4,90709:0:0:0:0:
192,192,90556,1,8,0:0:0:0:
64,192,90709,1,0,0:0:0:30:SCG_F#5.wav
192,192,90709,1,4,0:0:0:0:
448,192,90709,128,0,92239:0:0:0:30:B3S.wav
320,192,91015,1,0,0:0:0:30:SCG_B5.wav
192,192,91015,1,4,0:0:0:0:
192,192,91321,1,0,0:0:0:30:SCG_A5.wav
64,192,91321,1,8,0:0:0:0:
320,192,91321,1,6,0:0:0:0:
64,192,91627,1,0,0:0:0:30:SCG_G5.wav
320,192,91627,1,4,0:0:0:0:
192,192,91780,1,4,0:0:0:0:
320,192,91933,1,0,0:0:0:30:SCG_A5.wav
64,192,91933,1,0,0:0:0:30:F#3S_Gb3S.wav
192,192,91933,1,6,0:0:0:0:
192,192,92239,1,0,0:0:0:30:SCG_G5.wav
64,192,92239,128,4,92546:0:0:0:0:
448,192,92546,1,0,0:0:0:30:SCG_F#5.wav
320,192,92546,128,8,92852:0:0:0:0:
192,192,92546,1,4,0:0:0:0:
448,192,92852,1,8,0:0:0:0:
192,192,92852,128,4,93158:0:0:0:0:
64,192,92852,1,0,0:0:0:30:SCG_E5.wav
448,192,93005,1,8,0:0:0:0:
448,192,93158,128,0,94382:0:0:0:50:LR_Drum Finish.wav
320,192,93158,1,0,0:0:0:30:SCG_D5.wav
64,192,93158,1,0,0:0:0:30:G3S.wav
64,192,93464,1,0,0:0:0:30:SCG_B4.wav
192,192,93770,1,0,0:0:0:30:SCG_B5.wav
320,192,93770,1,2,0:0:0:0:
64,192,93923,1,2,0:0:0:0:
320,192,94076,1,0,0:0:0:30:SCG_C#6.wav
192,192,94076,1,2,0:0:0:0:
64,192,94229,1,2,0:0:0:0:
64,192,94382,1,0,0:0:0:30:D3S.wav
320,192,94382,1,0,0:0:0:30:SCG_D6.wav
192,192,94382,128,2,94688:0:0:0:0:
448,192,94688,1,2,0:0:0:30:SCG_C#6.wav
320,192,94688,128,2,94995:0:0:0:0:
192,192,94995,1,2,0:0:0:30:SCG_B5.wav
448,192,94995,128,2,95301:0:0:0:0:
64,192,94995,1,2,0:0:0:0:
320,192,95301,1,2,0:0:0:30:SCG_A5.wav
64,192,95301,128,2,95607:0:0:0:0:
192,192,95301,1,2,0:0:0:0:
320,192,95607,1,0,0:0:0:30:SCG_G5.wav
448,192,95607,1,2,0:0:0:30:G3S.wav
192,192,95607,128,2,96219:0:0:0:0:
64,192,95913,1,2,0:0:0:30:SCG_F#5.wav
64,192,96219,1,2,0:0:0:30:SCG_E5.wav
448,192,96219,128,2,96831:0:0:0:0:
320,192,96219,1,2,0:0:0:0:
320,192,96525,5,2,0:0:0:30:SCG_B5.wav
192,192,96525,1,2,0:0:0:0:
64,192,96831,1,2,0:0:0:30:A3S.wav
192,192,96831,1,2,0:0:0:30:SCG_A5.wav
320,192,96831,128,2,98056:0:0:0:0:
448,192,97137,1,2,0:0:0:30:SCG_B5.wav
192,192,97444,1,2,0:0:0:30:SCG_A5.wav
64,192,97750,1,2,0:0:0:30:SCG_G5.wav
64,192,98056,5,0,0:0:0:40:D4S.wav
192,192,98056,5,0,0:0:0:35:LR_Drum Finish.wav
448,192,98056,1,0,0:0:0:50:SCG_A6.wav
192,192,98362,1,0,0:0:0:50:SCG_F#6.wav
64,192,98362,1,2,0:0:0:0:
320,192,98515,1,0,0:0:0:50:SCG_G6.wav
448,192,98668,1,0,0:0:0:50:SCG_A6.wav
192,192,98668,1,8,0:0:0:0:
192,192,98974,1,0,0:0:0:50:SCG_F#6.wav
64,192,98974,1,4,0:0:0:0:
320,192,99127,1,0,0:0:0:50:SCG_G6.wav
64,192,99127,1,4,0:0:0:0:
192,192,99280,1,0,0:0:0:40:A3S.wav
448,192,99280,1,0,0:0:0:50:SCG_A6.wav
64,192,99280,1,4,0:0:0:0:
320,192,99433,1,0,0:0:0:50:SCG_A5.wav
192,192,99586,1,0,0:0:0:50:SCG_B5.wav
64,192,99586,1,4,0:0:0:0:
320,192,99739,1,0,0:0:0:50:SCG_C#6.wav
448,192,99893,1,0,0:0:0:50:SCG_D6.wav
192,192,99893,1,8,0:0:0:0:
64,192,100046,1,0,0:0:0:50:SCG_E6.wav
192,192,100199,1,0,0:0:0:50:SCG_F#6.wav
448,192,100199,1,4,0:0:0:0:
320,192,100352,1,0,0:0:0:50:SCG_G6.wav
64,192,100352,1,8,0:0:0:0:
192,192,100505,1,0,0:0:0:50:SCG_F#6.wav
448,192,100505,1,0,0:0:0:40:B3S.wav
64,192,100505,1,4,0:0:0:0:
64,192,100811,1,0,0:0:0:50:SCG_D6.wav
320,192,100811,1,4,0:0:0:0:
192,192,100964,1,0,0:0:0:50:SCG_E6.wav
320,192,101117,1,0,0:0:0:50:SCG_F#6.wav
448,192,101117,1,8,0:0:0:0:
64,192,101423,1,0,0:0:0:50:SCG_F#5.wav
448,192,101423,1,4,0:0:0:0:
192,192,101576,1,0,0:0:0:50:SCG_G5.wav
448,192,101576,1,4,0:0:0:0:
64,192,101729,1,0,0:0:0:40:F#3S_Gb3S.wav
320,192,101729,1,0,0:0:0:50:SCG_A5.wav
448,192,101729,1,4,0:0:0:0:
192,192,101882,1,0,0:0:0:50:SCG_B5.wav
320,192,102035,1,0,0:0:0:50:SCG_A5.wav
64,192,102035,1,4,0:0:0:0:
192,192,102188,1,0,0:0:0:50:SCG_G5.wav
320,192,102341,1,0,0:0:0:50:SCG_A5.wav
448,192,102341,1,8,0:0:0:0:
64,192,102495,1,0,0:0:0:50:SCG_F#5.wav
192,192,102648,1,0,0:0:0:50:SCG_G5.wav
448,192,102648,1,8,0:0:0:0:
320,192,102801,1,0,0:0:0:50:SCG_A5.wav
448,192,102801,1,8,0:0:0:0:
192,192,102954,1,0,0:0:0:50:SCG_G5.wav
448,192,102954,1,0,0:0:0:40:G3S.wav
64,192,102954,1,4,0:0:0:0:
448,192,103260,1,0,0:0:0:50:SCG_B5.wav
192,192,103260,1,2,0:0:0:0:
320,192,103413,1,0,0:0:0:50:SCG_A5.wav
192,192,103566,1,0,0:0:0:50:SCG_G5.wav
64,192,103566,1,8,0:0:0:0:
448,192,103872,1,0,0:0:0:50:SCG_F#5.wav
192,192,103872,1,4,0:0:0:0:
320,192,104025,1,0,0:0:0:50:SCG_E5.wav
192,192,104025,1,4,0:0:0:0:
192,192,104178,1,0,0:0:0:40:D3S.wav
448,192,104178,1,0,0:0:0:50:SCG_F#5.wav
64,192,104178,1,4,0:0:0:0:
320,192,104331,1,0,0:0:0:50:SCG_E5.wav
64,192,104484,1,0,0:0:0:50:SCG_D5.wav
448,192,104484,1,4,0:0:0:0:
192,192,104637,1,0,0:0:0:50:SCG_E5.wav
320,192,104790,1,0,0:0:0:50:SCG_F#5.wav
64,192,104790,1,8,0:0:0:0:
448,192,104944,1,0,0:0:0:50:SCG_G5.wav
320,192,105097,1,0,0:0:0:50:SCG_A5.wav
192,192,105097,1,4,0:0:0:0:
448,192,105250,1,0,0:0:0:50:SCG_B5.wav
64,192,105250,1,8,0:0:0:0:
64,192,105403,1,0,0:0:0:50:SCG_G5.wav
320,192,105403,1,0,0:0:0:40:G3S.wav
192,192,105403,1,4,0:0:0:0:
448,192,105709,1,0,0:0:0:50:SCG_B5.wav
320,192,105709,1,4,0:0:0:0:
192,192,105862,1,0,0:0:0:50:SCG_A5.wav
448,192,106015,1,0,0:0:0:50:SCG_B5.wav
64,192,106015,1,8,0:0:0:0:
64,192,106321,1,0,0:0:0:50:SCG_C#6.wav
448,192,106321,1,4,0:0:0:0:
192,192,106474,1,0,0:0:0:50:SCG_D6.wav
448,192,106474,1,4,0:0:0:0:
320,192,106627,1,2,0:0:0:40:A3S.wav
64,192,106627,1,0,0:0:0:50:SCG_A5.wav
448,192,106627,1,4,0:0:0:0:
192,192,106780,1,0,0:0:0:50:SCG_B5.wav
320,192,106933,1,0,0:0:0:50:SCG_C#6.wav
64,192,106933,1,4,0:0:0:0:
448,192,107086,1,0,0:0:0:50:SCG_D6.wav
64,192,107239,1,0,0:0:0:50:SCG_E6.wav
320,192,107239,1,8,0:0:0:0:
192,192,107393,1,0,0:0:0:50:SCG_F#6.wav
320,192,107546,1,0,0:0:0:50:SCG_G6.wav
64,192,107546,1,8,0:0:0:0:
448,192,107699,1,0,0:0:0:50:SCG_A6.wav
64,192,107699,1,8,0:0:0:0:
64,192,107852,5,0,0:0:0:40:D4S.wav
320,192,107852,1,0,0:0:0:50:SCG_F#6.wav
192,192,107852,1,4,0:0:0:0:
192,192,108158,1,0,0:0:0:50:SCG_D6.wav
448,192,108158,1,2,0:0:0:0:
320,192,108311,1,0,0:0:0:50:SCG_E6.wav
448,192,108464,1,0,0:0:0:50:SCG_F#6.wav
64,192,108464,1,8,0:0:0:0:
320,192,108770,1,0,0:0:0:50:SCG_E6.wav
448,192,108770,1,4,0:0:0:0:
192,192,108923,1,0,0:0:0:50:SCG_D6.wav
448,192,108923,1,4,0:0:0:0:
320,192,109076,1,0,0:0:0:50:SCG_E6.wav
448,192,109076,1,0,0:0:0:40:A3S.wav
64,192,109076,1,4,0:0:0:0:
192,192,109229,1,0,0:0:0:50:SCG_C#6.wav
64,192,109382,1,0,0:0:0:50:SCG_D6.wav
448,192,109382,1,4,0:0:0:0:
320,192,109535,1,0,0:0:0:50:SCG_E6.wav
448,192,109688,1,0,0:0:0:50:SCG_F#6.wav
192,192,109688,1,8,0:0:0:0:
320,192,109841,1,0,0:0:0:50:SCG_E6.wav
192,192,109995,1,0,0:0:0:50:SCG_D6.wav
448,192,109995,1,4,0:0:0:0:
64,192,110148,1,0,0:0:0:50:SCG_C#6.wav
320,192,110148,1,8,0:0:0:0:
192,192,110301,1,0,0:0:0:50:SCG_D6.wav
320,192,110301,1,0,0:0:0:40:B3S.wav
448,192,110301,1,4,0:0:0:0:
64,192,110607,1,0,0:0:0:50:SCG_B5.wav
320,192,110607,1,4,0:0:0:0:
192,192,110607,1,2,0:0:0:0:
192,192,110760,1,0,0:0:0:50:SCG_C#6.wav
448,192,110760,1,2,0:0:0:0:
320,192,110760,1,4,0:0:0:0:
448,192,110913,1,0,0:0:0:50:SCG_D6.wav
192,192,110913,1,8,0:0:0:0:
64,192,110913,1,2,0:0:0:0:
192,192,111219,1,0,0:0:0:50:SCG_F#5.wav
64,192,111219,1,4,0:0:0:0:
448,192,111372,1,0,0:0:0:50:SCG_G5.wav
320,192,111372,1,4,0:0:0:0:
64,192,111525,1,0,0:0:0:40:F#3S_Gb3S.wav
320,192,111525,1,0,0:0:0:50:SCG_A5.wav
192,192,111525,1,4,0:0:0:0:
448,192,111678,1,0,0:0:0:50:SCG_B5.wav
320,192,111831,1,0,0:0:0:50:SCG_A5.wav
64,192,111831,1,4,0:0:0:0:
192,192,111984,1,0,0:0:0:50:SCG_G5.wav
320,192,112137,1,0,0:0:0:50:SCG_A5.wav
64,192,112137,1,8,0:0:0:0:
448,192,112290,1,0,0:0:0:50:SCG_D6.wav
192,192,112290,1,2,0:0:0:0:
320,192,112444,1,0,0:0:0:50:SCG_C#6.wav
64,192,112444,1,8,0:0:0:0:
192,192,112444,1,2,0:0:0:0:
448,192,112597,1,0,0:0:0:50:SCG_D6.wav
192,192,112597,1,2,0:0:0:0:
320,192,112750,1,0,0:0:0:40:G3S.wav
192,192,112750,1,0,0:0:0:50:SCG_B5.wav
64,192,112750,1,6,0:0:0:0:
448,192,113056,1,0,0:0:0:50:SCG_D6.wav
64,192,113056,1,2,0:0:0:0:
320,192,113209,1,0,0:0:0:50:SCG_C#6.wav
192,192,113362,1,0,0:0:0:50:SCG_B5.wav
448,192,113362,1,8,0:0:0:0:
448,192,113668,1,0,0:0:0:50:SCG_A5.wav
64,192,113668,1,4,0:0:0:0:
192,192,113821,1,0,0:0:0:50:SCG_G5.wav
64,192,113821,1,4,0:0:0:0:
320,192,113974,1,0,0:0:0:40:D3S.wav
448,192,113974,1,0,0:0:0:50:SCG_A5.wav
64,192,113974,1,4,0:0:0:0:
192,192,114127,1,0,0:0:0:50:SCG_G5.wav
64,192,114280,1,0,0:0:0:50:SCG_F#5.wav
448,192,114280,1,4,0:0:0:0:
192,192,114433,1,0,0:0:0:50:SCG_G5.wav
320,192,114586,1,0,0:0:0:50:SCG_A5.wav
64,192,114586,1,8,0:0:0:0:
448,192,114739,1,0,0:0:0:50:SCG_D6.wav
320,192,114893,1,0,0:0:0:50:SCG_C#6.wav
192,192,114893,1,4,0:0:0:0:
448,192,115046,1,0,0:0:0:50:SCG_D6.wav
64,192,115046,1,8,0:0:0:0:
64,192,115199,1,0,0:0:0:40:G3S.wav
192,192,115199,1,0,0:0:0:50:SCG_B5.wav
320,192,115199,1,4,0:0:0:0:
448,192,115505,1,0,0:0:0:50:SCG_D6.wav
192,192,115505,1,4,0:0:0:0:
320,192,115658,1,0,0:0:0:50:SCG_C#6.wav
448,192,115811,1,0,0:0:0:50:SCG_D6.wav
64,192,115811,1,8,0:0:0:0:
448,192,116117,1,0,0:0:0:50:SCG_C#6.wav
192,192,116117,1,4,0:0:0:0:
320,192,116270,1,0,0:0:0:50:SCG_B5.wav
192,192,116270,1,4,0:0:0:0:
448,192,116423,1,2,0:0:0:40:A3S.wav
192,192,116423,1,0,0:0:0:50:SCG_C#6.wav
64,192,116423,1,4,0:0:0:0:
320,192,116576,1,0,0:0:0:50:SCG_D6.wav
448,192,116729,1,0,0:0:0:50:SCG_E6.wav
192,192,116729,1,4,0:0:0:0:
320,192,116882,1,0,0:0:0:50:SCG_D6.wav
192,192,117035,1,0,0:0:0:50:SCG_C#6.wav
64,192,117035,1,8,0:0:0:0:
320,192,117188,1,0,0:0:0:50:SCG_D6.wav
64,192,117341,1,0,0:0:0:50:SCG_B5.wav
448,192,117341,1,8,0:0:0:0:
192,192,117495,1,0,0:0:0:50:SCG_C#6.wav
320,192,117648,5,0,0:0:0:35:LR_Drum Finish.wav
64,192,117648,1,0,0:0:0:50:SCG_D6.wav
448,192,117648,1,0,0:0:0:50:SCG_A6.wav
192,192,117954,1,0,0:0:0:50:SCG_F#6.wav
64,192,117954,1,2,0:0:0:0:
320,192,118107,1,0,0:0:0:50:SCG_G6.wav
448,192,118260,1,0,0:0:0:50:SCG_A6.wav
64,192,118260,1,8,0:0:0:0:
192,192,118566,1,0,0:0:0:50:SCG_F#6.wav
448,192,118566,1,4,0:0:0:0:
320,192,118719,1,0,0:0:0:50:SCG_G6.wav
448,192,118719,1,4,0:0:0:0:
448,192,118872,1,0,0:0:0:50:SCG_A6.wav
192,192,118872,1,0,0:0:0:40:A3S.wav
64,192,118872,1,4,0:0:0:0:
320,192,119025,1,0,0:0:0:50:SCG_A5.wav
192,192,119178,1,0,0:0:0:50:SCG_B5.wav
64,192,119178,128,4,119484:0:0:0:0:
320,192,119331,1,0,0:0:0:50:SCG_C#6.wav
448,192,119484,1,0,0:0:0:50:SCG_D6.wav
192,192,119484,1,8,0:0:0:0:
64,192,119637,1,0,0:0:0:50:SCG_E6.wav
192,192,119790,1,0,0:0:0:50:SCG_F#6.wav
448,192,119790,128,4,119944:0:0:0:0:
320,192,119944,1,0,0:0:0:50:SCG_G6.wav
64,192,119944,1,8,0:0:0:0:
192,192,120097,1,0,0:0:0:50:SCG_F#6.wav
448,192,120097,1,0,0:0:0:40:B3S.wav
64,192,120097,1,4,0:0:0:0:
64,192,120403,1,0,0:0:0:50:SCG_D6.wav
320,192,120403,1,4,0:0:0:0:
192,192,120556,1,0,0:0:0:50:SCG_E6.wav
320,192,120709,1,0,0:0:0:50:SCG_F#6.wav
448,192,120709,1,8,0:0:0:0:
192,192,121015,1,0,0:0:0:50:SCG_F#5.wav
64,192,121015,1,4,0:0:0:0:
448,192,121168,1,0,0:0:0:50:SCG_G5.wav
320,192,121168,1,4,0:0:0:0:
64,192,121321,1,0,0:0:0:40:F#3S_Gb3S.wav
320,192,121321,1,0,0:0:0:50:SCG_A5.wav
192,192,121321,1,4,0:0:0:0:
448,192,121474,1,0,0:0:0:50:SCG_B5.wav
320,192,121627,1,0,0:0:0:50:SCG_A5.wav
64,192,121627,128,4,121933:0:0:0:0:
192,192,121780,1,0,0:0:0:50:SCG_G5.wav
320,192,121933,1,0,0:0:0:50:SCG_A5.wav
448,192,121933,1,8,0:0:0:0:
64,192,122086,1,0,0:0:0:50:SCG_F#5.wav
192,192,122239,1,0,0:0:0:50:SCG_G5.wav
448,192,122239,1,8,0:0:0:0:
320,192,122393,1,0,0:0:0:50:SCG_A5.wav
448,192,122393,1,8,0:0:0:0:
192,192,122546,1,0,0:0:0:50:SCG_G5.wav
64,192,122546,1,0,0:0:0:40:G3S.wav
448,192,122546,1,4,0:0:0:0:
448,192,122852,1,0,0:0:0:50:SCG_B5.wav
192,192,122852,1,2,0:0:0:0:
320,192,123005,1,0,0:0:0:50:SCG_A5.wav
192,192,123158,1,0,0:0:0:50:SCG_G5.wav
64,192,123158,1,8,0:0:0:0:
448,192,123464,1,0,0:0:0:50:SCG_F#5.wav
64,192,123464,1,4,0:0:0:0:
320,192,123617,1,0,0:0:0:50:SCG_E5.wav
64,192,123617,1,4,0:0:0:0:
192,192,123770,1,0,0:0:0:40:D3S.wav
448,192,123770,1,0,0:0:0:50:SCG_F#5.wav
64,192,123770,1,4,0:0:0:0:
320,192,123923,1,0,0:0:0:50:SCG_E5.wav
64,192,124076,1,0,0:0:0:50:SCG_D5.wav
448,192,124076,128,4,124382:0:0:0:0:
192,192,124229,1,0,0:0:0:50:SCG_E5.wav
320,192,124382,1,0,0:0:0:50:SCG_F#5.wav
64,192,124382,1,8,0:0:0:0:
448,192,124535,1,0,0:0:0:50:SCG_G5.wav
320,192,124688,1,0,0:0:0:50:SCG_A5.wav
192,192,124688,128,4,124841:0:0:0:0:
448,192,124841,1,0,0:0:0:50:SCG_B5.wav
64,192,124841,1,8,0:0:0:0:
64,192,124995,1,0,0:0:0:50:SCG_G5.wav
192,192,124995,1,0,0:0:0:40:G3S.wav
320,192,124995,1,4,0:0:0:0:
320,192,125301,1,0,0:0:0:50:SCG_B5.wav
192,192,125301,1,4,0:0:0:0:
64,192,125454,1,0,0:0:0:50:SCG_A5.wav
320,192,125607,1,0,0:0:0:50:SCG_B5.wav
192,192,125607,1,8,0:0:0:0:
448,192,125607,1,2,0:0:0:0:
64,192,125913,1,0,0:0:0:50:SCG_C#6.wav
448,192,125913,1,2,0:0:0:0:
320,192,125913,1,4,0:0:0:0:
192,192,126066,1,0,0:0:0:50:SCG_D6.wav
320,192,126066,1,4,0:0:0:0:
320,192,126219,1,2,0:0:0:40:A3S.wav
64,192,126219,1,0,0:0:0:50:SCG_A5.wav
448,192,126219,1,6,0:0:0:0:
192,192,126372,1,0,0:0:0:50:SCG_B5.wav
64,192,126525,128,4,126831:0:0:0:0:
320,192,126525,1,0,0:0:0:50:SCG_C#6.wav
448,192,126678,1,0,0:0:0:50:SCG_D6.wav
192,192,126831,1,0,0:0:0:50:SCG_E6.wav
320,192,126831,1,8,0:0:0:0:
64,192,126984,1,0,0:0:0:50:SCG_F#6.wav
320,192,127137,1,0,0:0:0:50:SCG_G6.wav
192,192,127137,1,8,0:0:0:0:
448,192,127290,1,0,0:0:0:50:SCG_A6.wav
192,192,127290,1,8,0:0:0:0:
64,192,127444,5,0,0:0:0:40:D4S.wav
320,192,127444,1,0,0:0:0:50:SCG_F#6.wav
192,192,127444,1,4,0:0:0:0:
192,192,127750,1,0,0:0:0:50:SCG_D6.wav
64,192,127750,1,2,0:0:0:0:
320,192,127903,1,0,0:0:0:50:SCG_E6.wav
448,192,128056,1,0,0:0:0:50:SCG_F#6.wav
64,192,128056,1,8,0:0:0:0:
192,192,128362,1,0,0:0:0:50:SCG_E6.wav
320,192,128362,1,4,0:0:0:0:
64,192,128515,1,0,0:0:0:50:SCG_D6.wav
320,192,128515,1,4,0:0:0:0:
448,192,128668,1,0,0:0:0:40:A3S.wav
320,192,128668,1,0,0:0:0:50:SCG_E6.wav
192,192,128668,1,4,0:0:0:0:
64,192,128821,1,0,0:0:0:50:SCG_C#6.wav
192,192,128974,1,0,0:0:0:50:SCG_D6.wav
448,192,128974,128,4,129280:0:0:0:0:
320,192,129127,1,0,0:0:0:50:SCG_E6.wav
192,192,129280,1,0,0:0:0:50:SCG_F#6.wav
64,192,129280,1,8,0:0:0:0:
320,192,129433,1,0,0:0:0:50:SCG_E6.wav
192,192,129586,1,0,0:0:0:50:SCG_D6.wav
448,192,129586,128,4,129739:0:0:0:0:
64,192,129739,1,0,0:0:0:50:SCG_C#6.wav
320,192,129739,1,8,0:0:0:0:
320,192,129893,1,0,0:0:0:50:SCG_D6.wav
192,192,129893,1,0,0:0:0:40:B3S.wav
448,192,129893,1,4,0:0:0:0:
192,192,130199,1,0,0:0:0:50:SCG_B5.wav
64,192,130199,1,4,0:0:0:0:
320,192,130199,1,2,0:0:0:0:
320,192,130352,1,0,0:0:0:50:SCG_C#6.wav
448,192,130352,1,2,0:0:0:0:
192,192,130352,1,4,0:0:0:0:
448,192,130505,1,0,0:0:0:50:SCG_D6.wav
192,192,130505,1,8,0:0:0:0:
64,192,130505,1,2,0:0:0:0:
192,192,130811,1,0,0:0:0:50:SCG_F#5.wav
64,192,130811,1,4,0:0:0:0:
448,192,130964,1,0,0:0:0:50:SCG_G5.wav
64,192,130964,1,4,0:0:0:0:
64,192,131117,1,0,0:0:0:40:F#3S_Gb3S.wav
320,192,131117,1,0,0:0:0:50:SCG_A5.wav
192,192,131117,1,4,0:0:0:0:
448,192,131270,1,0,0:0:0:50:SCG_B5.wav
320,192,131423,1,0,0:0:0:50:SCG_A5.wav
64,192,131423,128,4,131729:0:0:0:0:
192,192,131576,1,0,0:0:0:50:SCG_G5.wav
320,192,131729,1,0,0:0:0:50:SCG_A5.wav
448,192,131729,1,8,0:0:0:0:
448,192,131882,1,0,0:0:0:50:SCG_D6.wav
192,192,131882,1,2,0:0:0:0:
320,192,132035,1,0,0:0:0:50:SCG_C#6.wav
64,192,132035,1,8,0:0:0:0:
192,192,132035,1,2,0:0:0:0:
448,192,132188,1,0,0:0:0:50:SCG_D6.wav
192,192,132188,1,2,0:0:0:0:
192,192,132341,1,0,0:0:0:50:SCG_B5.wav
64,192,132341,1,0,0:0:0:40:G3S.wav
320,192,132341,1,6,0:0:0:0:
448,192,132648,1,0,0:0:0:50:SCG_D6.wav
192,192,132648,1,2,0:0:0:0:
320,192,132801,1,0,0:0:0:50:SCG_C#6.wav
192,192,132954,1,0,0:0:0:50:SCG_B5.wav
64,192,132954,1,8,0:0:0:0:
448,192,133260,5,0,0:0:0:50:SCG_A5.wav
64,192,133260,1,4,0:0:0:0:
192,192,133413,1,0,0:0:0:50:SCG_G5.wav
64,192,133413,1,4,0:0:0:0:
448,192,133566,1,0,0:0:0:50:SCG_A5.wav
320,192,133566,1,0,0:0:0:40:D3S.wav
64,192,133566,1,4,0:0:0:0:
192,192,133719,1,0,0:0:0:50:SCG_G5.wav
64,192,133872,1,0,0:0:0:50:SCG_F#5.wav
448,192,133872,128,4,134178:0:0:0:0:
192,192,134025,1,0,0:0:0:50:SCG_G5.wav
320,192,134178,1,0,0:0:0:50:SCG_A5.wav
64,192,134178,1,8,0:0:0:0:
448,192,134331,1,0,0:0:0:50:SCG_D6.wav
320,192,134484,1,0,0:0:0:50:SCG_C#6.wav
192,192,134484,128,4,134637:0:0:0:0:
448,192,134637,1,0,0:0:0:50:SCG_D6.wav
64,192,134637,1,8,0:0:0:0:
192,192,134790,1,0,0:0:0:50:SCG_B5.wav
64,192,134790,1,0,0:0:0:40:G3S.wav
320,192,134790,1,4,0:0:0:0:
448,192,135097,1,0,0:0:0:50:SCG_D6.wav
192,192,135097,1,4,0:0:0:0:
320,192,135250,1,0,0:0:0:50:SCG_C#6.wav
448,192,135403,1,0,0:0:0:50:SCG_D6.wav
64,192,135403,1,8,0:0:0:0:
192,192,135403,1,2,0:0:0:0:
448,192,135709,1,0,0:0:0:50:SCG_C#6.wav
320,192,135709,1,4,0:0:0:0:
64,192,135709,1,2,0:0:0:0:
192,192,135862,1,0,0:0:0:50:SCG_B5.wav
64,192,135862,1,4,0:0:0:0:
448,192,136015,1,2,0:0:0:40:A3S.wav
192,192,136015,1,0,0:0:0:50:SCG_C#6.wav
64,192,136015,128,6,137239:0:0:0:0:
320,192,136015,1,4,0:0:0:0:
320,192,136168,1,0,0:0:0:50:SCG_D6.wav
448,192,136321,1,0,0:0:0:50:SCG_E6.wav
192,192,136321,1,4,0:0:0:0:
320,192,136474,1,0,0:0:0:50:SCG_D6.wav
192,192,136627,1,0,0:0:0:50:SCG_C#6.wav
448,192,136627,1,8,0:0:0:0:
320,192,136780,1,0,0:0:0:50:SCG_D6.wav
192,192,136933,1,0,0:0:0:50:SCG_B5.wav
448,192,136933,1,8,0:0:0:0:
320,192,137086,1,0,0:0:0:50:SCG_C#6.wav
448,192,137086,1,8,0:0:0:0:
448,192,137239,1,0,0:0:0:50:SCG_D6.wav
192,192,137239,1,2,0:0:0:0:
320,192,137239,1,0,0:0:0:35:LR_Drum Finish.wav
64,192,137546,1,0,0:0:0:0:
320,192,137546,1,2,0:0:0:0:
448,192,137852,1,2,0:0:0:0:
192,192,137852,1,0,0:0:0:0:
320,192,138158,1,2,0:0:0:0:
64,192,138158,1,0,0:0:0:0:
64,192,138464,1,2,0:0:0:0:
448,192,138464,1,0,0:0:0:40:A3S.wav
192,192,138464,1,0,0:0:0:0:
192,192,138770,1,2,0:0:0:0:
320,192,138770,1,0,0:0:0:0:
320,192,139076,1,0,0:0:0:0:
448,192,139076,1,2,0:0:0:0:
192,192,139382,1,2,0:0:0:0:
320,192,139382,1,0,0:0:0:0:
64,192,139688,1,2,0:0:0:0:
320,192,139688,1,0,0:0:0:40:B3S.wav
192,192,139688,1,0,0:0:0:0:
448,192,139995,1,2,0:0:0:0:
192,192,139995,1,0,0:0:0:0:
64,192,140301,1,0,0:0:0:0:
320,192,140301,1,2,0:0:0:0:
448,192,140607,1,2,0:0:0:0:
192,192,140607,1,0,0:0:0:0:
64,192,140913,1,2,0:0:0:0:
320,192,140913,1,0,0:0:0:40:F#3S_Gb3S.wav
448,192,140913,1,0,0:0:0:0:
320,192,141219,1,2,0:0:0:0:
64,192,141219,1,0,0:0:0:0:
448,192,141525,1,2,0:0:0:0:
192,192,141525,1,0,0:0:0:0:
448,192,141831,1,2,0:0:0:0:
192,192,141831,1,0,0:0:0:0:
64,192,142137,1,2,0:0:0:0:
192,192,142137,1,0,0:0:0:40:G3S.wav
448,192,142137,1,0,0:0:0:0:
64,192,142444,1,0,0:0:0:0:
320,192,142444,1,2,0:0:0:0:
448,192,142750,1,2,0:0:0:0:
192,192,142750,1,0,0:0:0:0:
64,192,143056,1,0,0:0:0:0:
320,192,143056,1,2,0:0:0:0:
448,192,143362,1,0,0:0:0:40:D3S.wav
192,192,143362,1,2,0:0:0:0:
64,192,143362,1,0,0:0:0:0:
64,192,143668,1,2,0:0:0:0:
320,192,143668,1,0,0:0:0:0:
64,192,143974,1,2,0:0:0:0:
320,192,143974,1,0,0:0:0:0:
448,192,144280,1,2,0:0:0:0:
192,192,144280,1,0,0:0:0:0:
64,192,144586,1,2,0:0:0:0:
192,192,144586,1,0,0:0:0:40:G3S.wav
320,192,144586,1,0,0:0:0:0:
448,192,144893,1,2,0:0:0:0:
320,192,144893,1,0,0:0:0:0:
192,192,145199,1,0,0:0:0:0:
64,192,145199,1,2,0:0:0:0:
448,192,145505,1,2,0:0:0:0:
320,192,145505,1,0,0:0:0:0:
64,192,145811,1,2,0:0:0:40:A3S.wav
192,192,145811,1,2,0:0:0:0:
448,192,145811,1,0,0:0:0:0:
320,192,146117,1,2,0:0:0:0:
192,192,146117,1,0,0:0:0:0:
64,192,146423,1,2,0:0:0:0:
448,192,146423,1,0,0:0:0:0:
320,192,146729,1,2,0:0:0:0:
192,192,146729,1,0,0:0:0:0:
64,192,147035,5,0,0:0:0:40:D4S.wav
448,192,147035,1,2,0:0:0:0:
320,192,147035,1,0,0:0:0:0:
64,192,147341,1,2,0:0:0:0:
192,192,147341,1,0,0:0:0:0:
320,192,147648,1,0,0:0:0:0:
448,192,147648,1,2,0:0:0:0:
64,192,147954,1,2,0:0:0:0:
192,192,147954,1,0,0:0:0:0:
64,192,148260,1,2,0:0:0:0:
448,192,148260,1,0,0:0:0:40:A3S.wav
320,192,148260,1,0,0:0:0:0:
64,192,148566,1,0,0:0:0:0:
320,192,148566,1,2,0:0:0:0:
448,192,148872,1,2,0:0:0:0:
192,192,148872,1,0,0:0:0:0:
64,192,149178,1,0,0:0:0:0:
320,192,149178,1,2,0:0:0:0:
192,192,149484,1,2,0:0:0:0:
64,192,149484,1,0,0:0:0:40:B3S.wav
448,192,149484,1,0,0:0:0:0:
448,192,149790,1,2,0:0:0:0:
192,192,149790,1,0,0:0:0:0:
320,192,150097,1,2,0:0:0:0:
64,192,150097,1,0,0:0:0:0:
448,192,150403,1,2,0:0:0:0:
192,192,150403,1,0,0:0:0:0:
64,192,150709,1,2,0:0:0:0:
320,192,150709,1,0,0:0:0:40:F#3S_Gb3S.wav
192,192,150709,1,0,0:0:0:0:
192,192,151015,1,2,0:0:0:0:
64,192,151015,1,0,0:0:0:0:
320,192,151321,1,2,0:0:0:0:
448,192,151321,1,0,0:0:0:0:
192,192,151321,1,8,0:0:0:0:
448,192,151627,1,2,0:0:0:0:
320,192,151627,1,0,0:0:0:0:
64,192,151933,1,2,0:0:0:0:
192,192,151933,1,0,0:0:0:40:G3S.wav
320,192,151933,1,4,0:0:0:0:
448,192,152239,1,2,0:0:0:0:
320,192,152239,1,0,0:0:0:0:
192,192,152546,1,2,0:0:0:0:
64,192,152546,1,0,0:0:0:0:
448,192,152546,1,8,0:0:0:0:
320,192,152852,1,2,0:0:0:0:
64,192,152852,1,0,0:0:0:0:
320,192,153158,1,0,0:0:0:40:D3S.wav
64,192,153158,1,2,0:0:0:0:
192,192,153158,1,4,0:0:0:0:
448,192,153464,1,0,0:0:0:0:
320,192,153464,1,2,0:0:0:0:
448,192,153770,1,8,0:0:0:0:
192,192,153770,1,0,0:0:0:0:
64,192,153770,1,2,0:0:0:0:
192,192,154076,1,2,0:0:0:0:
320,192,154076,1,0,0:0:0:0:
64,192,154382,1,2,0:0:0:0:
448,192,154382,1,0,0:0:0:40:G3S.wav
192,192,154382,1,4,0:0:0:0:
192,192,154688,1,2,0:0:0:0:
448,192,154688,1,0,0:0:0:0:
192,192,154995,1,2,0:0:0:0:
64,192,154995,1,0,0:0:0:0:
320,192,154995,1,8,0:0:0:0:
448,192,155301,1,0,0:0:0:0:
320,192,155301,1,2,0:0:0:0:
64,192,155607,1,2,0:0:0:40:A3S.wav
320,192,155607,1,2,0:0:0:0:
192,192,155607,1,4,0:0:0:0:
192,192,155913,1,2,0:0:0:0:
448,192,155913,1,0,0:0:0:0:
64,192,156219,1,2,0:0:0:0:
320,192,156219,1,0,0:0:0:0:
192,192,156219,1,8,0:0:0:0:
64,192,156525,1,2,0:0:0:0:
192,192,156525,1,8,0:0:0:0:
64,192,156831,1,0,0:0:0:0:
192,192,156831,1,2,0:0:0:0:
320,192,156831,1,4,0:0:0:0:
448,192,156831,128,0,157444:0:0:0:35:LR_Drum Finish.wav
64,192,157137,1,0,0:0:0:0:
192,192,157137,1,2,0:0:0:0:
64,192,157444,1,0,0:0:0:0:
320,192,157444,1,2,0:0:0:0:
192,192,157444,128,2,158056:0:0:0:0:
320,192,157750,1,0,0:0:0:0:
448,192,157750,1,2,0:0:0:0:
448,192,158056,1,0,0:0:0:40:A3S.wav
64,192,158056,1,2,0:0:0:0:
320,192,158056,128,2,158668:0:0:0:0:
192,192,158362,1,0,0:0:0:0:
64,192,158362,1,2,0:0:0:0:
448,192,158668,1,0,0:0:0:0:
192,192,158668,1,2,0:0:0:0:
64,192,158668,128,2,159280:0:0:0:0:
320,192,158974,1,0,0:0:0:0:
192,192,158974,1,2,0:0:0:0:
320,192,159280,1,0,0:0:0:40:B3S.wav
448,192,159280,1,0,0:0:0:0:
192,192,159280,128,2,159893:0:0:0:0:
320,192,159586,1,0,0:0:0:0:
64,192,159586,1,2,0:0:0:0:
64,192,159893,1,0,0:0:0:0:
448,192,159893,1,2,0:0:0:0:
320,192,159893,128,2,160505:0:0:0:0:
192,192,160199,1,0,0:0:0:0:
448,192,160199,1,2,0:0:0:0:
64,192,160505,1,0,0:0:0:0:
192,192,160505,1,0,0:0:0:40:F#3S_Gb3S.wav
448,192,160505,128,2,161117:0:0:0:0:
320,192,160811,1,0,0:0:0:0:
192,192,160811,1,2,0:0:0:0:
64,192,161117,1,0,0:0:0:0:
320,192,161117,1,2,0:0:0:0:
192,192,161117,128,2,161729:0:0:0:0:
64,192,161423,1,0,0:0:0:0:
320,192,161423,1,2,0:0:0:0:
64,192,161729,1,0,0:0:0:40:G3S.wav
448,192,161729,1,0,0:0:0:0:
320,192,161729,128,2,162341:0:0:0:0:
192,192,162035,1,0,0:0:0:0:
64,192,162035,1,2,0:0:0:0:
448,192,162341,1,0,0:0:0:0:
192,192,162341,1,2,0:0:0:0:
64,192,162341,128,2,162954:0:0:0:0:
448,192,162648,1,0,0:0:0:0:
320,192,162648,1,2,0:0:0:0:
448,192,162954,1,0,0:0:0:40:D3S.wav
192,192,162954,1,0,0:0:0:0:
320,192,162954,128,2,163566:0:0:0:0:
64,192,163260,1,0,0:0:0:0:
448,192,163260,1,2,0:0:0:0:
64,192,163566,1,0,0:0:0:0:
448,192,163566,1,2,0:0:0:0:
192,192,163566,128,2,164178:0:0:0:0:
320,192,163872,1,0,0:0:0:0:
64,192,163872,1,2,0:0:0:0:
448,192,164178,1,0,0:0:0:0:
320,192,164178,1,0,0:0:0:40:G3S.wav
64,192,164178,128,2,164790:0:0:0:0:
192,192,164484,1,0,0:0:0:0:
320,192,164484,1,2,0:0:0:0:
448,192,164790,1,0,0:0:0:0:
320,192,164790,128,2,165250:0:0:0:0:
192,192,164790,1,2,0:0:0:0:
64,192,165097,1,0,0:0:0:0:
192,192,165097,1,2,0:0:0:0:
64,192,165403,1,2,0:0:0:40:A3S.wav
448,192,165403,1,0,0:0:0:0:
320,192,165403,128,2,166015:0:0:0:0:
448,192,165709,1,0,0:0:0:0:
192,192,165709,1,2,0:0:0:0:
64,192,166015,1,0,0:0:0:0:
448,192,166015,1,2,0:0:0:0:
192,192,166015,128,2,166627:0:0:0:0:
64,192,166321,1,0,0:0:0:0:
320,192,166321,1,2,0:0:0:0:
320,192,166627,5,0,0:0:0:40:D4S.wav
448,192,166627,1,0,0:0:0:0:
64,192,166627,128,2,167852:0:0:0:0:
320,192,166933,1,0,0:0:0:0:
192,192,166933,1,2,0:0:0:0:
448,192,167239,1,0,0:0:0:0:
192,192,167239,1,2,0:0:0:0:
320,192,167546,1,0,0:0:0:0:
192,192,167546,1,2,0:0:0:0:
192,192,167852,1,0,0:0:0:0:
448,192,167852,1,0,0:0:0:40:A3S.wav
320,192,167852,1,2,0:0:0:0:
320,192,168158,1,0,0:0:0:0:
64,192,168158,128,2,168464:0:0:0:0:
192,192,168158,1,2,0:0:0:0:
448,192,168464,1,0,0:0:0:0:
192,192,168464,128,2,168770:0:0:0:0:
320,192,168464,1,2,0:0:0:0:
64,192,168770,1,0,0:0:0:0:
320,192,168770,128,2,169076:0:0:0:0:
448,192,168770,1,2,0:0:0:0:
64,192,169076,1,0,0:0:0:40:B3S.wav
192,192,169076,1,0,0:0:0:0:
448,192,169076,128,2,170913:0:0:0:0:
320,192,169382,1,0,0:0:0:0:
192,192,169382,1,2,0:0:0:0:
64,192,169688,1,0,0:0:0:0:
320,192,169688,1,2,0:0:0:0:
320,192,169995,1,0,0:0:0:0:
192,192,169995,1,2,0:0:0:0:
64,192,170301,1,0,0:0:0:0:
192,192,170301,1,0,0:0:0:40:F#3S_Gb3S.wav
64,192,170607,1,0,0:0:0:0:
320,192,170607,1,2,0:0:0:0:
192,192,170607,1,2,0:0:0:0:
192,192,170913,1,0,0:0:0:0:
320,192,170913,128,2,171219:0:0:0:0:
64,192,170913,1,2,0:0:0:0:
448,192,171219,1,0,0:0:0:0:
64,192,171219,128,2,171525:0:0:0:0:
192,192,171219,1,2,0:0:0:0:
448,192,171525,1,0,0:0:0:0:
320,192,171525,1,0,0:0:0:40:G3S.wav
192,192,171525,128,2,172750:0:0:0:0:
64,192,171831,1,0,0:0:0:0:
448,192,171831,1,2,0:0:0:0:
320,192,172137,1,0,0:0:0:0:
64,192,172137,1,2,0:0:0:0:
448,192,172444,1,0,0:0:0:0:
64,192,172444,1,2,0:0:0:0:
320,192,172750,1,0,0:0:0:40:D3S.wav
448,192,172750,1,0,0:0:0:0:
64,192,172750,128,2,173056:0:0:0:0:
448,192,173056,1,0,0:0:0:0:
320,192,173056,128,2,173362:0:0:0:0:
192,192,173056,1,2,0:0:0:0:
192,192,173362,1,0,0:0:0:0:
448,192,173362,128,2,173668:0:0:0:0:
64,192,173362,1,2,0:0:0:0:
192,192,173668,1,0,0:0:0:0:
64,192,173668,128,2,173974:0:0:0:0:
320,192,173668,1,2,0:0:0:0:
448,192,173974,1,0,0:0:0:40:G3S.wav
320,192,173974,1,0,0:0:0:0:
192,192,173974,128,2,174586:0:0:0:0:
320,192,174280,1,0,0:0:0:0:
64,192,174280,1,2,0:0:0:0:
448,192,174586,1,2,0:0:0:0:
320,192,174586,128,2,175199:0:0:0:0:
64,192,174586,1,0,0:0:0:0:
192,192,174893,1,0,0:0:0:0:
64,192,174893,1,2,0:0:0:0:
64,192,175199,1,2,0:0:0:40:A3S.wav
448,192,175199,1,0,0:0:0:0:
192,192,175199,128,2,176423:0:0:0:0:
320,192,175505,1,0,0:0:0:0:
64,192,175505,1,2,0:0:0:0:
320,192,175811,1,0,0:0:0:0:
448,192,175811,1,2,0:0:0:0:
64,192,176117,1,0,0:0:0:0:
320,192,176117,1,2,0:0:0:0:
64,192,176423,5,0,0:0:0:40:D4S.wav
448,192,176423,1,0,0:0:0:35:SCG_D6.wav
320,192,176423,1,2,0:0:0:0:
320,192,176729,1,0,0:0:0:35:SCG_D6.wav
64,192,176729,1,2,0:0:0:0:
192,192,176882,1,0,0:0:0:35:SCG_C#6.wav
320,192,177035,1,0,0:0:0:35:SCG_D6.wav
448,192,177035,1,8,0:0:0:0:
64,192,177341,1,0,0:0:0:35:SCG_A5.wav
320,192,177341,1,4,0:0:0:0:
320,192,177495,1,4,0:0:0:0:
64,192,177648,1,0,0:0:0:40:A3S.wav
448,192,177648,1,0,0:0:0:35:SCG_C#6.wav
192,192,177648,1,4,0:0:0:0:
64,192,177954,1,0,0:0:0:35:SCG_C#6.wav
448,192,177954,128,4,178260:0:0:0:0:
192,192,178107,1,0,0:0:0:35:SCG_D6.wav
320,192,178260,1,0,0:0:0:35:SCG_E6.wav
64,192,178260,1,8,0:0:0:0:
64,192,178566,1,0,0:0:0:35:SCG_C#6.wav
192,192,178566,128,4,178719:0:0:0:0:
448,192,178719,1,8,0:0:0:0:
320,192,178872,1,0,0:0:0:35:SCG_D6.wav
192,192,178872,1,0,0:0:0:40:B3S.wav
64,192,178872,1,4,0:0:0:0:
192,192,179178,1,0,0:0:0:35:SCG_D6.wav
64,192,179178,1,4,0:0:0:0:
320,192,179331,1,0,0:0:0:35:SCG_E6.wav
448,192,179484,1,0,0:0:0:35:SCG_F#6.wav
192,192,179484,1,8,0:0:0:0:
192,192,179790,1,0,0:0:0:35:SCG_D6.wav
320,192,179790,1,4,0:0:0:0:
320,192,179944,1,4,0:0:0:0:
192,192,180097,1,0,0:0:0:40:F#3S_Gb3S.wav
448,192,180097,1,0,0:0:0:35:SCG_F#6.wav
64,192,180097,1,4,0:0:0:0:
448,192,180403,1,0,0:0:0:35:SCG_F#6.wav
64,192,180403,128,4,180709:0:0:0:0:
320,192,180556,1,0,0:0:0:35:SCG_E6.wav
192,192,180709,1,0,0:0:0:35:SCG_D6.wav
448,192,180709,1,8,0:0:0:0:
320,192,181015,1,0,0:0:0:35:SCG_C#6.wav
192,192,181015,1,8,0:0:0:0:
192,192,181168,1,8,0:0:0:0:
64,192,181321,1,0,0:0:0:35:SCG_B5.wav
448,192,181321,1,0,0:0:0:40:G3S.wav
320,192,181321,1,4,0:0:0:0:
192,192,181627,1,0,0:0:0:35:SCG_B5.wav
320,192,181627,1,2,0:0:0:0:
64,192,181780,1,0,0:0:0:35:SCG_A5.wav
192,192,181933,1,0,0:0:0:35:SCG_B5.wav
448,192,181933,1,8,0:0:0:0:
320,192,182239,1,0,0:0:0:35:SCG_C#6.wav
64,192,182239,1,4,0:2:0:0:
64,192,182393,1,4,0:2:0:0:
448,192,182546,1,0,0:0:0:35:SCG_D6.wav
320,192,182546,1,0,0:0:0:40:D3S.wav
192,192,182546,1,4,0:0:0:0:
320,192,182852,1,0,0:0:0:35:SCG_F#6.wav
448,192,182852,128,4,183158:0:0:0:0:
192,192,183005,1,0,0:0:0:35:SCG_E6.wav
64,192,183158,1,0,0:0:0:35:SCG_D6.wav
320,192,183158,1,8,0:0:0:0:
320,192,183464,1,0,0:0:0:35:SCG_F#6.wav
64,192,183464,128,4,183617:0:0:0:0:
192,192,183617,1,8,0:0:0:0:
64,192,183770,1,0,0:0:0:40:G3S.wav
448,192,183770,1,0,0:0:0:35:SCG_G6.wav
320,192,183770,1,4,0:0:0:0:
320,192,184076,1,0,0:0:0:35:SCG_D6.wav
448,192,184076,1,4,0:0:0:0:
192,192,184229,1,0,0:0:0:35:SCG_C#6.wav
64,192,184382,1,0,0:0:0:35:SCG_B5.wav
320,192,184382,1,8,0:0:0:0:
448,192,184688,1,0,0:0:0:35:SCG_B5.wav
192,192,184688,1,4,0:0:0:0:
192,192,184841,1,4,0:0:0:0:
448,192,184995,1,2,0:0:0:40:A3S.wav
320,192,184995,1,0,0:0:0:35:SCG_A5.wav
64,192,184995,1,4,0:0:0:0:
320,192,185301,1,0,0:0:0:35:SCG_A5.wav
448,192,185301,128,4,185607:0:0:0:0:
192,192,185454,1,0,0:0:0:35:SCG_G5.wav
64,192,185607,1,0,0:0:0:35:SCG_F#5.wav
320,192,185607,1,8,0:0:0:0:
192,192,185913,1,0,0:0:0:35:SCG_E5.wav
320,192,185913,1,8,0:0:0:0:
320,192,186066,1,8,0:0:0:0:
192,192,186219,5,0,0:0:0:40:D4S.wav
64,192,186219,1,0,0:0:0:35:SCG_D5.wav
448,192,186219,1,0,0:0:0:35:SCG_D6.wav
64,192,186525,1,2,0:0:0:0:
320,192,186525,1,0,0:0:0:35:SCG_D6.wav
192,192,186678,1,0,0:0:0:35:SCG_C#6.wav
320,192,186831,1,0,0:0:0:35:SCG_D6.wav
448,192,186831,1,8,0:0:0:0:
320,192,187137,1,4,0:0:0:0:
64,192,187137,1,0,0:0:0:35:SCG_A5.wav
320,192,187290,1,4,0:0:0:0:
192,192,187444,1,4,0:0:0:0:
448,192,187444,1,0,0:0:0:35:SCG_C#6.wav
64,192,187444,1,0,0:0:0:40:A3S.wav
448,192,187750,128,4,188056:0:0:0:0:
64,192,187750,1,0,0:0:0:35:SCG_C#6.wav
192,192,187903,1,0,0:0:0:35:SCG_D6.wav
64,192,188056,1,8,0:0:0:0:
320,192,188056,1,0,0:0:0:35:SCG_E6.wav
192,192,188362,128,4,188515:0:0:0:0:
64,192,188362,1,0,0:0:0:35:SCG_C#6.wav
448,192,188515,1,8,0:0:0:0:
64,192,188668,1,4,0:0:0:0:
192,192,188668,1,0,0:0:0:40:B3S.wav
320,192,188668,1,0,0:0:0:35:SCG_D6.wav
192,192,188974,1,0,0:0:0:35:SCG_D6.wav
64,192,188974,1,4,0:0:0:0:
320,192,189127,1,0,0:0:0:35:SCG_E6.wav
192,192,189280,1,8,0:0:0:0:
448,192,189280,1,0,0:0:0:35:SCG_F#6.wav
320,192,189586,1,4,0:0:0:0:
192,192,189586,1,0,0:0:0:35:SCG_D6.wav
320,192,189739,1,4,0:0:0:0:
64,192,189893,1,4,0:0:0:0:
192,192,189893,1,0,0:0:0:40:F#3S_Gb3S.wav
448,192,189893,1,0,0:0:0:35:SCG_F#6.wav
448,192,190199,1,0,0:0:0:35:SCG_F#6.wav
64,192,190199,128,4,190505:0:0:0:0:
320,192,190352,1,0,0:0:0:35:SCG_E6.wav
192,192,190505,1,0,0:0:0:35:SCG_D6.wav
448,192,190505,1,8,0:0:0:0:
320,192,190811,1,0,0:0:0:35:SCG_C#6.wav
192,192,190811,1,8,0:0:0:0:
192,192,190964,1,8,0:0:0:0:
448,192,191117,1,0,0:0:0:40:G3S.wav
64,192,191117,1,0,0:0:0:35:SCG_B5.wav
320,192,191117,1,4,0:0:0:0:
320,192,191423,1,2,0:0:0:0:
192,192,191423,1,0,0:0:0:35:SCG_B5.wav
64,192,191576,1,0,0:0:0:35:SCG_A5.wav
192,192,191729,1,0,0:0:0:35:SCG_B5.wav
448,192,191729,1,8,0:0:0:0:
64,192,192035,1,4,0:2:0:0:
320,192,192035,1,0,0:0:0:35:SCG_C#6.wav
64,192,192188,1,4,0:2:0:0:
320,192,192341,1,0,0:0:0:40:D3S.wav
192,192,192341,1,4,0:0:0:0:
448,192,192341,1,0,0:0:0:35:SCG_D6.wav
448,192,192648,128,4,192954:0:0:0:0:
320,192,192648,1,0,0:0:0:35:SCG_F#6.wav
192,192,192801,1,0,0:0:0:35:SCG_E6.wav
64,192,192954,1,0,0:0:0:35:SCG_D6.wav
320,192,192954,1,8,0:0:0:0:
64,192,193260,128,4,193413:0:0:0:0:
320,192,193260,1,0,0:0:0:35:SCG_F#6.wav
192,192,193413,1,8,0:0:0:0:
448,192,193566,1,0,0:0:0:35:SCG_G6.wav
320,192,193566,1,4,0:0:0:0:
192,192,193566,1,0,0:0:0:40:G3S.wav
64,192,193566,1,0,0:0:0:50:LR_Drum Finish.wav
448,192,193872,1,0,0:0:0:35:SCG_D6.wav
192,192,193872,1,2,0:0:0:0:
320,192,194025,1,0,0:0:0:35:SCG_C#6.wav
192,192,194178,1,0,0:0:0:35:SCG_B5.wav
64,192,194178,1,2,0:0:0:0:
448,192,194484,1,0,0:0:0:35:SCG_B5.wav
320,192,194484,1,2,0:0:0:0:
192,192,194790,1,2,0:0:0:40:A3S.wav
320,192,194790,1,0,0:0:0:35:SCG_A5.wav
64,192,194790,1,2,0:0:0:0:
320,192,195097,1,0,0:0:0:35:SCG_A5.wav
64,192,195097,1,4,0:0:0:0:
448,192,195097,1,2,0:0:0:0:
192,192,195250,1,0,0:0:0:35:SCG_G5.wav
64,192,195403,1,0,0:0:0:35:SCG_F#5.wav
320,192,195403,1,4,0:0:0:0:
448,192,195403,1,2,0:0:0:0:
320,192,195709,1,0,0:0:0:35:SCG_E5.wav
192,192,195709,1,4,0:0:0:0:
448,192,195709,1,2,0:0:0:0:
320,192,196015,5,0,0:0:0:60:D4S.wav
192,192,196015,1,0,0:0:0:35:SCG_D5.wav
448,192,196015,1,0,0:0:0:50:LR_Drum Finish.wav
64,192,196015,1,2,0:0:0:0:
192,192,196627,1,0,0:0:0:35:SCG_F#6.wav
320,192,196627,1,8,0:0:0:0:
192,192,196933,1,0,0:0:0:35:SCG_F#6.wav
448,192,196933,1,4,0:0:0:0:
448,192,197086,1,4,0:0:0:0:
192,192,197239,1,0,0:0:0:35:SCG_F#6.wav
320,192,197239,1,0,0:0:0:60:A3S.wav
64,192,197239,1,4,0:0:0:0:
448,192,197546,1,0,0:0:0:35:SCG_G6.wav
192,192,197546,1,4,0:0:0:0:
320,192,197852,1,0,0:0:0:35:SCG_F#6.wav
64,192,197852,1,8,0:0:0:0:
192,192,198158,1,0,0:0:0:35:SCG_E6.wav
448,192,198158,1,4,0:0:0:0:
320,192,198311,1,8,0:0:0:0:
64,192,198464,1,0,0:0:0:35:SCG_D6.wav
448,192,198464,1,0,0:0:0:60:B3S.wav
192,192,198464,1,4,0:0:0:0:
192,192,198770,1,4,0:0:0:0:
320,192,199076,1,8,0:0:0:0:
64,192,199076,1,2,0:0:0:0:
192,192,199382,1,0,0:0:0:35:SCG_D6.wav
448,192,199382,1,4,0:0:0:0:
448,192,199535,1,4,0:0:0:0:
320,192,199688,1,0,0:0:0:60:F#3S_Gb3S.wav
192,192,199688,1,0,0:0:0:35:SCG_D6.wav
64,192,199688,1,4,0:0:0:0:
448,192,199995,1,0,0:0:0:35:SCG_E6.wav
192,192,199995,1,4,0:0:0:0:
320,192,200301,1,0,0:0:0:35:SCG_D6.wav
64,192,200301,1,8,0:0:0:0:
192,192,200607,1,0,0:0:0:35:SCG_C6.wav
320,192,200607,1,8,0:0:0:0:
320,192,200760,1,8,0:0:0:0:
448,192,200913,1,0,0:0:0:50:SCG_B5.wav
64,192,200913,1,0,0:0:0:60:G3S.wav
192,192,200913,1,4,0:0:0:0:
320,192,201219,1,0,0:0:0:50:SCG_A5.wav
64,192,201219,1,2,0:0:0:0:
192,192,201525,1,0,0:0:0:50:SCG_G5.wav
448,192,201525,1,8,0:0:0:0:
320,192,201831,1,0,0:0:0:50:SCG_A5.wav
192,192,201831,1,4,0:0:0:0:
192,192,201984,1,4,0:0:0:0:
448,192,202137,1,0,0:0:0:60:D3S.wav
64,192,202137,1,0,0:0:0:35:SCG_E5.wav
320,192,202137,1,4,0:0:0:0:
64,192,202444,1,0,0:0:0:35:SCG_A5.wav
320,192,202444,1,4,0:0:0:0:
192,192,202750,1,0,0:0:0:35:SCG_D6.wav
448,192,202750,1,8,0:0:0:0:
320,192,203056,1,0,0:0:0:35:SCG_F#6.wav
64,192,203056,1,4,0:0:0:0:
192,192,203209,1,8,0:0:0:0:
448,192,203362,1,0,0:0:0:35:SCG_G6.wav
320,192,203362,1,0,0:0:0:60:G3S.wav
64,192,203362,1,4,0:0:0:0:
320,192,203668,1,0,0:0:0:35:SCG_D6.wav
192,192,203668,1,4,0:0:0:0:
192,192,203974,1,0,0:0:0:35:SCG_B5.wav
448,192,203974,1,8,0:0:0:0:
64,192,204280,1,0,0:0:0:35:SCG_G5.wav
320,192,204280,1,4,0:2:0:0:
320,192,204433,1,4,0:2:0:0:
64,192,204586,1,2,0:0:0:60:A3S.wav
192,192,204586,1,0,0:0:0:35:SCG_A5.wav
448,192,204586,1,4,0:0:0:0:
64,192,204893,1,0,0:0:0:35:SCG_D6.wav
320,192,204893,1,4,0:0:0:0:
192,192,205199,1,0,0:0:0:35:SCG_E6.wav
448,192,205199,1,8,0:0:0:0:
320,192,205505,1,0,0:0:0:35:SCG_A6.wav
192,192,205505,1,8,0:0:0:0:
192,192,205658,1,8,0:0:0:0:
448,192,205811,5,0,0:0:0:60:D4S.wav
64,192,205811,1,0,0:0:0:35:SCG_D5.wav
320,192,205811,1,4,0:0:0:0:
192,192,206117,1,2,0:0:0:0:
64,192,206117,1,2,0:0:0:0:
320,192,206270,1,2,0:0:0:0:
448,192,206423,1,2,0:0:0:0:
64,192,206423,1,8,0:0:0:0:
192,192,206729,1,2,0:0:0:0:
320,192,206729,1,2,0:0:0:0:
64,192,206729,1,4,0:0:0:0:
192,192,207035,1,2,0:0:0:0:
320,192,207035,1,0,0:0:0:60:A3S.wav
448,192,207035,1,4,0:0:0:0:
192,192,207188,1,2,0:0:0:0:
320,192,207341,1,2,0:0:0:0:
64,192,207341,1,2,0:0:0:0:
448,192,207341,1,4,0:0:0:0:
320,192,207495,1,2,0:0:0:0:
448,192,207648,1,2,0:0:0:0:
64,192,207648,1,8,0:0:0:0:
192,192,207648,1,8,0:0:0:0:
192,192,207954,1,2,0:0:0:0:
320,192,207954,1,2,0:0:0:0:
448,192,207954,1,4,0:0:0:0:
64,192,208260,1,2,0:0:0:0:
320,192,208260,1,0,0:0:0:60:B3S.wav
192,192,208260,1,4,0:0:0:0:
192,192,208566,1,2,0:0:0:0:
320,192,208566,1,4,0:0:0:0:
64,192,208872,1,2,0:0:0:0:
320,192,208872,1,8,0:0:0:0:
192,192,209025,1,2,0:0:0:0:
320,192,209178,1,2,0:0:0:0:
64,192,209178,1,2,0:0:0:0:
448,192,209178,1,4,0:0:0:0:
64,192,209484,1,0,0:0:0:60:F#3S_Gb3S.wav
320,192,209484,1,4,0:0:0:0:
192,192,209484,1,2,0:0:0:0:
448,192,209637,1,2,0:0:0:0:
320,192,209790,1,2,0:0:0:0:
64,192,209790,1,4,0:0:0:0:
448,192,209790,1,0,0:0:0:0:
192,192,209944,1,2,0:0:0:0:
320,192,210097,1,2,0:0:0:0:
448,192,210097,1,8,0:0:0:0:
64,192,210097,1,0,0:0:0:0:
64,192,210301,1,2,0:0:0:0:
192,192,210403,1,2,0:0:0:0:
448,192,210403,1,8,0:0:0:0:
320,192,210403,1,0,0:0:0:0:
320,192,210556,1,2,0:0:0:0:
448,192,210709,1,2,0:0:0:0:
64,192,210709,1,0,0:0:0:60:G3S.wav
192,192,210709,1,4,0:0:0:0:
320,192,210862,1,2,0:0:0:0:
192,192,211015,1,2,0:0:0:0:
448,192,211015,1,2,0:0:0:0:
64,192,211168,1,2,0:0:0:0:
448,192,211321,1,2,0:0:0:0:
192,192,211321,1,8,0:0:0:0:
64,192,211474,1,2,0:0:0:0:
192,192,211627,1,2,0:0:0:0:
320,192,211627,1,4,0:0:0:0:
448,192,211780,1,2,0:0:0:0:
320,192,211780,1,4,0:0:0:0:
448,192,211933,1,2,0:0:0:0:
192,192,211933,1,0,0:0:0:60:D3S.wav
64,192,211933,1,4,0:0:0:0:
320,192,212086,1,2,0:0:0:0:
192,192,212239,1,2,0:0:0:0:
448,192,212239,1,4,0:0:0:0:
64,192,212393,1,2,0:0:0:0:
192,192,212546,1,2,0:0:0:0:
448,192,212546,1,8,0:0:0:0:
320,192,212699,1,2,0:0:0:0:
192,192,212852,1,2,0:0:0:0:
448,192,212852,1,4,0:0:0:0:
64,192,213005,1,2,0:0:0:0:
320,192,213005,1,8,0:0:0:0:
192,192,213158,1,0,0:0:0:60:G3S.wav
448,192,213158,1,2,0:0:0:0:
320,192,213158,1,4,0:0:0:0:
64,192,213311,1,2,0:0:0:0:
192,192,213464,1,2,0:0:0:0:
320,192,213464,1,4,0:0:0:0:
64,192,213617,1,2,0:0:0:0:
192,192,213770,1,2,0:0:0:0:
448,192,213770,1,2,0:0:0:0:
320,192,213770,1,8,0:0:0:0:
64,192,213923,1,2,0:0:0:0:
192,192,214076,1,2,0:0:0:0:
448,192,214076,1,4,0:0:0:0:
320,192,214076,1,0,0:0:0:0:
64,192,214229,1,2,0:0:0:0:
320,192,214229,1,4,0:0:0:0:
64,192,214382,1,2,0:0:0:60:A3S.wav
448,192,214382,1,2,0:0:0:0:
192,192,214382,1,4,0:0:0:0:
320,192,214535,1,2,0:0:0:0:
192,192,214688,1,2,0:0:0:0:
448,192,214688,1,4,0:0:0:0:
64,192,214841,1,2,0:0:0:0:
448,192,214995,1,2,0:0:0:0:
192,192,214995,1,8,0:0:0:0:
320,192,215148,1,2,0:0:0:0:
192,192,215301,1,2,0:0:0:0:
448,192,215301,1,8,0:0:0:0:
64,192,215454,1,2,0:0:0:0:
320,192,215607,5,0,0:0:0:60:D4S.wav
448,192,215607,1,2,0:0:0:0:
192,192,215607,1,4,0:0:0:0:
64,192,215760,1,2,0:0:0:0:
192,192,215913,1,2,0:0:0:0:
448,192,215913,1,2,0:0:0:0:
320,192,216066,1,2,0:0:0:0:
448,192,216219,1,2,0:0:0:0:
192,192,216219,1,8,0:0:0:0:
64,192,216372,1,2,0:0:0:0:
192,192,216525,1,2,0:0:0:0:
320,192,216525,1,4,0:0:0:0:
448,192,216678,1,2,0:0:0:0:
320,192,216678,1,4,0:0:0:0:
192,192,216831,1,0,0:0:0:60:A3S.wav
448,192,216831,1,2,0:0:0:0:
64,192,216831,1,4,0:0:0:0:
320,192,216984,1,2,0:0:0:0:
192,192,217137,1,2,0:0:0:0:
64,192,217137,1,4,0:0:0:0:
320,192,217290,1,2,0:0:0:0:
64,192,217444,1,2,0:0:0:0:
448,192,217444,1,8,0:0:0:0:
192,192,217444,1,0,0:0:0:0:
192,192,217699,1,2,0:0:0:0:
320,192,217699,1,0,0:0:0:0:
64,192,217699,1,2,0:0:0:0:
320,192,217864,1,2,0:0:0:0:
448,192,217864,1,0,0:0:0:0:
192,192,217864,1,2,0:0:0:0:
448,192,218056,1,2,0:0:0:0:
64,192,218056,1,0,0:0:0:60:B3S.wav
320,192,218056,1,4,0:0:0:0:
192,192,218209,1,2,0:0:0:0:
64,192,218362,1,2,0:0:0:0:
448,192,218362,1,4,0:0:0:0:
192,192,218515,1,2,0:0:0:0:
448,192,218668,1,2,0:0:0:0:
64,192,218668,1,8,0:0:0:0:
320,192,218668,1,2,0:0:0:0:
192,192,218974,1,2,0:0:0:0:
320,192,218974,1,4,0:0:0:0:
448,192,218974,1,2,0:0:0:0:
448,192,219280,1,2,0:0:0:0:
64,192,219280,1,0,0:0:0:60:F#3S_Gb3S.wav
192,192,219280,1,4,0:0:0:0:
320,192,219433,1,2,0:0:0:0:
192,192,219586,1,2,0:0:0:0:
448,192,219586,1,4,0:0:0:0:
64,192,219739,1,2,0:0:0:0:
448,192,219893,1,2,0:0:0:0:
192,192,219893,1,8,0:0:0:0:
320,192,220046,1,2,0:0:0:0:
192,192,220199,1,2,0:0:0:0:
448,192,220199,1,8,0:0:0:0:
64,192,220352,1,2,0:0:0:0:
192,192,220505,1,2,0:0:0:0:
320,192,220505,1,0,0:0:0:60:G3S.wav
448,192,220505,1,4,0:0:0:0:
64,192,220658,1,2,0:0:0:0:
192,192,220811,1,2,0:0:0:0:
448,192,220811,1,2,0:0:0:0:
320,192,220964,1,2,0:0:0:0:
448,192,221117,1,2,0:0:0:0:
192,192,221117,1,8,0:0:0:0:
64,192,221270,1,2,0:0:0:0:
448,192,221423,1,2,0:0:0:0:
192,192,221423,1,4,0:0:0:0:
320,192,221576,1,2,0:0:0:0:
192,192,221576,1,4,0:0:0:0:
448,192,221729,1,0,0:0:0:60:D3S.wav
64,192,221729,1,2,0:0:0:0:
320,192,221729,1,4,0:0:0:0:
192,192,221882,1,2,0:0:0:0:
64,192,222035,1,2,0:0:0:0:
320,192,222035,1,4,0:0:0:0:
192,192,222188,1,2,0:0:0:0:
320,192,222341,1,2,0:0:0:0:
64,192,222341,1,8,0:0:0:0:
448,192,222495,1,2,0:0:0:0:
320,192,222648,1,2,0:0:0:0:
64,192,222648,1,4,0:0:0:0:
192,192,222801,1,2,0:0:0:0:
448,192,222801,1,8,0:0:0:0:
64,192,222954,1,2,0:0:0:0:
448,192,222954,1,0,0:0:0:60:G3S.wav
320,192,222954,1,4,0:0:0:0:
192,192,223107,1,2,0:0:0:0:
64,192,223260,1,2,0:0:0:0:
320,192,223260,1,4,0:0:0:0:
192,192,223413,1,2,0:0:0:0:
320,192,223566,1,2,0:0:0:0:
64,192,223566,1,8,0:0:0:0:
448,192,223566,1,2,0:0:0:0:
448,192,223719,1,2,0:0:0:0:
320,192,223872,1,2,0:0:0:0:
64,192,223872,1,4,0:0:0:0:
192,192,223872,1,2,0:0:0:0:
448,192,224025,1,4,0:0:0:0:
192,192,224025,1,2,0:0:0:0:
320,192,224178,1,2,0:0:0:60:A3S.wav
64,192,224178,1,2,0:0:0:0:
448,192,224178,1,4,0:0:0:0:
192,192,224331,1,2,0:0:0:0:
320,192,224484,1,2,0:0:0:0:
64,192,224484,1,4,0:0:0:0:
192,192,224637,1,2,0:0:0:0:
64,192,224790,1,2,0:0:0:0:
320,192,224790,1,8,0:0:0:0:
448,192,224944,1,2,0:0:0:0:
64,192,225097,1,2,0:0:0:0:
320,192,225097,1,8,0:0:0:0:
192,192,225250,1,2,0:0:0:0:
320,192,225250,1,8,0:0:0:0:
320,192,225403,5,0,0:0:0:40:D4S.wav
64,192,225403,1,2,0:0:0:0:
448,192,225403,128,0,226015:0:0:0:8:
64,192,225556,1,0,0:0:0:8:
192,192,225709,1,0,0:0:0:8:
320,192,225862,1,0,0:0:0:8:
192,192,226015,1,8,0:0:0:0:
64,192,226015,128,0,226627:0:0:0:8:
320,192,226168,1,0,0:0:0:8:
448,192,226321,1,0,0:0:0:8:
320,192,226474,1,0,0:0:0:8:
192,192,226627,1,4,0:0:0:0:
448,192,226627,1,0,0:0:0:40:A3S.wav
320,192,226627,128,0,227239:0:0:0:8:
64,192,226780,1,2,0:0:0:0:
192,192,226933,1,2,0:0:0:0:
448,192,227086,1,2,0:0:0:0:
448,192,227239,1,2,0:0:0:0:
64,192,227239,1,8,0:0:0:0:
192,192,227239,128,0,227852:0:0:0:0:
64,192,227393,1,2,0:0:0:0:
448,192,227546,1,2,0:0:0:0:
320,192,227699,1,2,0:0:0:0:
320,192,227852,1,2,0:0:0:0:
448,192,227852,1,0,0:0:0:40:B3S.wav
64,192,227852,128,0,230301:0:0:0:10:
192,192,228005,1,0,0:0:0:10:
320,192,228158,1,0,0:0:0:10:
448,192,228311,1,0,0:0:0:10:
192,192,228464,1,0,0:0:0:0:
320,192,228464,1,8,0:0:0:0:
320,192,228770,1,0,0:0:0:0:
448,192,228770,1,2,0:0:0:0:
192,192,229076,1,0,0:0:0:40:F#3S_Gb3S.wav
448,192,229076,1,2,0:0:0:0:
320,192,229229,1,2,0:0:0:0:
192,192,229382,1,2,0:0:0:0:
448,192,229535,1,2,0:0:0:0:
320,192,229688,1,2,0:0:0:0:
192,192,229688,1,8,0:0:0:0:
320,192,229995,1,2,0:0:0:0:
448,192,229995,1,8,0:0:0:0:
192,192,230301,1,2,0:0:0:0:
448,192,230301,1,0,0:0:0:40:G3S.wav
320,192,230301,128,0,231525:0:0:0:10:
64,192,230454,1,0,0:0:0:10:
192,192,230607,1,0,0:0:0:10:
64,192,230760,1,0,0:0:0:10:
192,192,230913,1,0,0:0:0:10:
448,192,230913,1,8,0:0:0:0:
64,192,231066,1,0,0:0:0:10:
448,192,231219,1,0,0:0:0:10:
192,192,231372,1,0,0:0:0:10:
448,192,231525,1,0,0:0:0:40:D3S.wav
64,192,231525,1,2,0:0:0:0:
192,192,231525,128,4,232750:0:0:0:0:
320,192,231678,1,2,0:0:0:0:
448,192,231831,1,2,0:0:0:0:
64,192,231984,1,2,0:0:0:0:
320,192,232137,1,2,0:0:0:0:
448,192,232137,1,8,0:0:0:0:
64,192,232290,1,2,0:0:0:0:
320,192,232444,1,2,0:0:0:0:
448,192,232597,1,2,0:0:0:0:
320,192,232750,1,2,0:0:0:0:
448,192,232750,1,0,0:0:0:40:G3S.wav
64,192,232750,128,0,235199:0:0:0:10:
320,192,232903,1,0,0:0:0:10:
448,192,233056,1,0,0:0:0:10:
192,192,233209,1,0,0:0:0:10:
320,192,233362,1,8,0:0:0:0:
448,192,233362,1,2,0:0:0:0:
320,192,233515,1,0,0:0:0:10:
192,192,233668,1,2,0:0:0:10:
448,192,233668,1,2,0:0:0:0:
448,192,233821,1,0,0:0:0:10:
192,192,233974,1,2,0:0:0:40:A3S.wav
320,192,233974,1,6,0:0:0:0:
448,192,234127,1,2,0:0:0:0:
192,192,234280,1,2,0:0:0:0:
320,192,234433,1,2,0:0:0:0:
448,192,234586,1,2,0:0:0:0:
192,192,234586,1,8,0:0:0:0:
320,192,234739,1,2,0:0:0:0:
192,192,234893,1,2,0:0:0:0:
320,192,235046,1,2,0:0:0:0:
192,192,235199,5,0,0:0:0:40:D4S.wav
320,192,235199,1,4,0:0:0:0:
448,192,235199,128,0,235811:0:0:0:0:
64,192,235352,1,2,0:0:0:0:
192,192,235505,1,2,0:0:0:0:
320,192,235658,1,2,0:0:0:0:
64,192,235811,1,2,0:0:0:0:
192,192,235811,1,8,0:0:0:0:
320,192,235811,128,0,236423:0:0:0:0:
448,192,235964,1,2,0:0:0:0:
64,192,236117,1,2,0:0:0:0:
192,192,236270,1,2,0:0:0:0:
448,192,236423,1,0,0:0:0:40:A3S.wav
64,192,236423,1,4,0:0:0:0:
192,192,236423,128,2,237648:0:0:0:0:
320,192,236576,1,2,0:0:0:0:
448,192,236729,1,2,0:0:0:0:
64,192,236882,1,2,0:0:0:0:
448,192,237035,1,8,0:0:0:0:
320,192,237035,1,0,0:0:0:0:
320,192,237290,1,2,0:0:0:0:
64,192,237290,1,0,0:0:0:0:
448,192,237456,1,0,0:0:0:0:
64,192,237456,1,2,0:0:0:0:
448,192,237648,1,0,0:0:0:40:B3S.wav
320,192,237648,1,4,0:0:0:0:
64,192,237648,128,2,238872:0:0:0:0:
192,192,237801,1,2,0:0:0:0:
320,192,237954,1,2,0:0:0:0:
448,192,238107,1,2,0:0:0:0:
320,192,238260,1,8,0:0:0:0:
192,192,238260,1,2,0:0:0:0:
192,192,238566,1,2,0:0:0:0:
448,192,238566,1,2,0:0:0:0:
448,192,238872,1,4,0:0:0:0:
320,192,238872,1,0,0:0:0:40:F#3S_Gb3S.wav
192,192,238872,128,2,240097:0:0:0:0:
64,192,239025,1,2,0:0:0:0:
448,192,239178,1,2,0:0:0:0:
320,192,239331,1,2,0:0:0:0:
448,192,239484,1,2,0:0:0:0:
64,192,239484,1,8,0:0:0:0:
320,192,239637,1,2,0:0:0:0:
64,192,239790,1,2,0:0:0:0:
320,192,239944,1,2,0:0:0:0:
448,192,240097,1,0,0:0:0:40:G3S.wav
64,192,240097,1,0,0:0:0:55:LR_Drum Finish.wav
320,192,240097,128,6,241015:0:0:0:0:
192,192,240250,1,2,0:0:0:0:
64,192,240403,1,2,0:0:0:0:
448,192,240556,1,2,0:0:0:0:
192,192,240709,1,2,0:0:0:0:
64,192,240862,1,2,0:0:0:0:
448,192,241015,1,2,0:0:0:0:
192,192,241015,128,2,241321:0:0:0:0:
64,192,241168,1,2,0:0:0:0:
448,192,241321,1,0,0:0:0:40:D3S.wav
320,192,241321,128,2,241627:0:0:0:0:
64,192,241474,1,2,0:0:0:0:
448,192,241627,1,2,0:0:0:0:
192,192,241627,128,2,241933:0:0:0:0:
64,192,241780,1,2,0:0:0:0:
448,192,241933,1,2,0:0:0:0:
320,192,241933,128,2,242239:0:0:0:0:
192,192,242086,1,2,0:0:0:0:
448,192,242239,1,2,0:0:0:0:
64,192,242239,128,2,242546:0:0:0:0:
192,192,242393,1,2,0:0:0:0:
320,192,242546,1,0,0:0:0:40:G3S.wav
448,192,242546,1,2,0:0:0:0:
192,192,242546,128,2,243770:0:0:0:0:
64,192,242699,1,2,0:0:0:0:
320,192,242852,1,2,0:0:0:0:
64,192,243005,1,2,0:0:0:0:
448,192,243158,1,2,0:0:0:0:
320,192,243158,1,0,0:0:0:0:
64,192,243311,1,2,0:0:0:0:
64,192,243464,1,2,0:0:0:0:
320,192,243464,1,0,0:0:0:0:
448,192,243617,1,2,0:0:0:0:
64,192,243770,1,2,0:0:0:40:A3S.wav
448,192,243770,1,2,0:0:0:0:
320,192,243770,128,2,244995:0:0:0:0:
192,192,243923,1,2,0:0:0:0:
64,192,244076,1,2,0:0:0:0:
448,192,244229,1,2,0:0:0:0:
192,192,244382,1,2,0:0:0:0:
64,192,244382,1,8,0:0:0:0:
448,192,244535,1,2,0:0:0:0:
192,192,244688,1,2,0:0:0:0:
448,192,244688,1,8,0:0:0:0:
64,192,244841,1,2,0:0:0:0:
64,192,244995,1,2,0:0:0:0:
192,192,244995,1,0,0:0:0:8:
448,192,244995,128,4,248974:0:0:0:0:
320,192,245148,1,0,0:0:0:8:
64,192,245301,1,0,0:0:0:8:
192,192,245454,1,0,0:0:0:8:
320,192,245607,1,0,0:0:0:8:
64,192,245607,1,8,0:0:0:0:
192,192,245760,1,0,0:0:0:8:
64,192,245913,1,0,0:0:0:8:
320,192,246066,1,0,0:0:0:8:
64,192,246219,1,0,0:0:0:8:
192,192,246219,1,4,0:0:0:0:
320,192,246372,1,2,0:0:0:0:
64,192,246525,1,2,0:0:0:0:
192,192,246678,1,2,0:0:0:0:
320,192,246831,1,2,0:0:0:0:
64,192,246831,1,8,0:0:0:0:
192,192,246984,1,2,0:0:0:0:
320,192,247137,1,2,0:0:0:0:
192,192,247290,1,2,0:0:0:0:
64,192,247444,1,2,0:0:0:0:
320,192,247444,1,4,0:0:0:0:
192,192,247597,1,0,0:0:0:10:
64,192,247750,1,0,0:0:0:10:
320,192,247903,1,0,0:0:0:10:
192,192,248056,1,0,0:0:0:0:
64,192,248056,1,8,0:0:0:0:
320,192,248362,1,0,0:0:0:0:
64,192,248362,1,2,0:0:0:0:
320,192,248668,1,0,0:0:0:0:
192,192,248668,1,4,0:0:0:0:
64,192,248821,1,2,0:0:0:0:
192,192,248974,1,2,0:0:0:0:
448,192,249127,1,2,0:0:0:0:
320,192,249280,1,2,0:0:0:0:
64,192,249280,1,8,0:0:0:0:
192,192,249586,1,2,0:0:0:0:
448,192,249586,1,8,0:0:0:0:
64,192,249893,1,2,0:0:0:0:
448,192,249893,1,0,0:0:0:8:
192,192,249893,1,4,0:0:0:0:
320,192,250046,1,0,0:0:0:8:
64,192,250199,1,0,0:0:0:8:
192,192,250352,1,0,0:0:0:8:
320,192,250505,1,0,0:0:0:8:
64,192,250505,1,8,0:0:0:0:
448,192,250658,1,0,0:0:0:8:
192,192,250658,1,2,0:0:0:0:
320,192,250811,1,0,0:0:0:8:
64,192,250811,1,2,0:0:0:0:
448,192,250964,1,0,0:0:0:8:
192,192,250964,1,2,0:0:0:0:
320,192,251117,1,2,0:0:0:0:
64,192,251117,1,0,0:0:0:8:
192,192,251117,1,4,0:0:0:0:
448,192,251270,1,2,0:0:0:0:
64,192,251423,1,2,0:0:0:0:
192,192,251576,1,2,0:0:0:0:
320,192,251729,1,2,0:0:0:0:
64,192,251729,1,8,0:0:0:0:
448,192,251729,1,2,0:0:0:0:
320,192,251882,1,2,0:0:0:0:
64,192,252035,1,2,0:0:0:0:
448,192,252035,1,0,0:0:0:0:
192,192,252035,1,2,0:0:0:0:
192,192,252188,1,2,0:0:0:0:
448,192,252341,1,2,0:0:0:0:
320,192,252341,1,0,0:0:0:8:
64,192,252341,1,4,0:0:0:0:
192,192,252495,1,0,0:0:0:8:
320,192,252648,1,0,0:0:0:8:
64,192,252801,1,0,0:0:0:8:
448,192,252954,1,0,0:0:0:8:
192,192,252954,1,8,0:0:0:0:
320,192,252954,1,2,0:0:0:0:
192,192,253107,1,0,0:0:0:8:
448,192,253260,1,0,0:0:0:8:
320,192,253260,1,2,0:0:0:0:
64,192,253260,1,2,0:0:0:0:
320,192,253413,1,0,0:0:0:8:
192,192,253566,1,2,0:0:0:0:
448,192,253566,1,0,0:0:0:8:
64,192,253566,1,4,0:0:0:0:
320,192,253719,1,2,0:0:0:0:
64,192,253872,1,2,0:0:0:0:
192,192,254025,1,2,0:0:0:0:
320,192,254178,1,2,0:0:0:0:
64,192,254178,1,8,0:0:0:0:
448,192,254331,1,2,0:0:0:0:
192,192,254484,1,2,0:0:0:0:
448,192,254637,1,2,0:0:0:0:
320,192,254790,1,2,0:0:0:0:
192,192,254790,1,0,0:0:0:50:SCG_D5.wav
64,192,254790,1,0,0:0:0:50:D3S.wav
