osu file format v13

[General]
AudioFilename: 12. DJ Noriken - Broken Toybox (PLight Remix).mp3
AudioLeadIn: 0
PreviewTime: 154573
Countdown: 0
SampleSet: Soft
StackLeniency: 0.8
Mode: 3
LetterboxInBreaks: 0
SpecialStyle: 0
WidescreenStoryboard: 1

[Editor]
DistanceSpacing: 0.8
BeatDivisor: 4
GridSize: 4
TimelineZoom: 0.6999999

[Metadata]
Title:Broken Toybox (P*Light Remix)
TitleUnicode:Broken Toybox (P*Light Remix)
Artist:DJ Noriken
ArtistUnicode:DJ Noriken
Creator:-Sandy Corzeta-
Version:4K MX
Source:#From_Ten_Wonderland
Tags:
BeatmapID:511033
BeatmapSetID:217930

[Difficulty]
HPDrainRate:8
CircleSize:4
OverallDifficulty:8
ApproachRate:5
SliderMultiplier:1.6
SliderTickRate:1

[Events]
//Background and Video events
0,0,"bg.jpg",0,0
//Break Periods
//Storyboard Layer 0 (Background)
//Storyboard Layer 1 (Fail)
//Storyboard Layer 2 (Pass)
//Storyboard Layer 3 (Foreground)
//Storyboard Sound Samples
//Background Colour Transformations
3,100,163,162,255

[TimingPoints]
-400,342.857142857143,4,2,1,0,1,0
-100,-100,4,2,1,0,0,0
10485,-133.333333333333,4,2,1,0,0,0
10571,-57.1428571428571,4,2,1,0,0,0
10828,-133.333333333333,4,2,1,0,0,0
10914,-57.1428571428571,4,2,1,0,0,0
11171,-400,4,2,1,0,0,0
11257,-57.1428571428571,4,2,1,0,0,0
11357,-400,4,2,1,0,0,0
11600,-57.1428571428571,4,2,1,0,0,0
11685,-57.1428571428571,4,2,1,0,0,0
11771,-66.6666666666667,4,2,1,0,0,0
11857,-100,4,2,1,0,0,0
11942,-400,4,2,1,0,0,0
12028,-100,4,2,1,0,0,0
17428,-57.1428571428571,4,2,1,0,0,0
17600,-80,4,2,1,0,0,0
18114,-57.1428571428571,4,2,1,0,0,0
18285,-80,4,2,1,0,0,0
18800,-57.1428571428571,4,2,1,0,0,0
18971,-80,4,2,1,0,0,0
19485,-57.1428571428571,4,2,1,0,0,0
19675,-80,4,2,1,0,0,0
20171,-57.1428571428571,4,2,1,0,0,0
20257,-80,4,2,1,0,0,0
21542,-400,4,2,1,0,0,0
21628,-57.1428571428571,4,2,1,0,0,0
21714,-66.6666666666667,4,2,1,0,0,0
21800,-100,4,2,1,0,0,0
21885,-400,4,2,1,0,0,0
21971,-57.1428571428571,4,2,1,0,0,0
22057,-66.6666666666667,4,2,1,0,0,0
22142,-100,4,2,1,0,0,0
22228,-400,4,2,1,0,0,0
22314,-57.1428571428571,4,2,1,0,0,0
22400,-66.6666666666667,4,2,1,0,0,0
22485,-400,4,2,1,0,0,0
22571,-100,4,2,1,0,0,0
22914,-400,4,2,1,0,0,0
23000,-100,4,2,1,0,0,0
27714,-57.1428571428571,4,2,1,0,0,0
27800,-400,4,2,1,0,0,0
27885,-57.1428571428571,4,2,1,0,0,0
27971,-400,4,2,1,0,0,0
28057,-57.1428571428571,4,2,1,0,0,0
28142,-400,4,2,1,0,0,0
28228,-57.1428571428571,4,2,1,0,0,0
28314,-400,4,2,1,0,0,0
28400,-100,4,2,1,0,0,0
32514,-57.1428571428571,4,2,1,0,0,0
32771,-400,4,2,1,0,0,0
32857,-57.1428571428571,4,2,1,0,0,0
33114,-400,4,2,1,0,0,0
33200,-57.1428571428571,4,2,1,0,0,0
33285,-400,4,2,1,0,0,0
33371,-57.1428571428571,4,2,1,0,0,0
33457,-86.9565217391304,4,2,1,0,0,0
38698,-57.1428571428571,4,2,1,0,0,0
38771,-400,4,2,1,0,0,0
38857,-57.1428571428571,4,2,1,0,0,0
38942,-400,4,2,1,0,0,0
39028,-57.1428571428571,4,2,1,0,0,0
39114,-400,4,2,1,0,0,0
39200,-57.1428571428571,4,2,1,0,0,0
39285,-100,4,2,1,0,0,0
44857,-100,4,2,1,0,0,1
45885,-57.1428571428571,4,2,1,0,0,0
45971,-400,4,2,1,0,0,0
46057,-57.1428571428571,4,2,1,0,0,0
46142,-400,4,2,1,0,0,0
46228,-100,4,2,1,0,0,0
47257,-57.1428571428571,4,2,1,0,0,0
47342,-400,4,2,1,0,0,0
47428,-57.1428571428571,4,2,1,0,0,0
47514,-400,4,2,1,0,0,0
47600,-100,4,2,1,0,0,0
48628,-57.1428571428571,4,2,1,0,0,0
48714,-400,4,2,1,0,0,0
48800,-57.1428571428571,4,2,1,0,0,0
48885,-400,4,2,1,0,0,0
48971,-100,4,2,1,0,0,0
49657,-57.1428571428571,4,2,1,0,0,0
49742,-400,4,2,1,0,0,0
49828,-57.1428571428571,4,2,1,0,0,0
49914,-400,4,2,1,0,0,0
50000,-57.1428571428571,4,2,1,0,0,0
50085,-400,4,2,1,0,0,0
50171,-57.1428571428571,4,2,1,0,0,0
50257,-400,4,2,1,0,0,0
50342,-100,4,2,1,0,0,0
51371,-57.1428571428571,4,2,1,0,0,0
51457,-400,4,2,1,0,0,0
51542,-57.1428571428571,4,2,1,0,0,0
51628,-400,4,2,1,0,0,0
51714,-100,4,2,1,0,0,0
52742,-57.1428571428571,4,2,1,0,0,0
52828,-400,4,2,1,0,0,0
52914,-57.1428571428571,4,2,1,0,0,0
53000,-400,4,2,1,0,0,0
53085,-100,4,2,1,0,0,0
54114,-57.1428571428571,4,2,1,0,0,0
54200,-400,4,2,1,0,0,0
54285,-57.1428571428571,4,2,1,0,0,0
54371,-400,4,2,1,0,0,0
54457,-57.1428571428571,4,2,1,0,0,0
54542,-400,4,2,1,0,0,0
54628,-57.1428571428571,4,2,1,0,0,0
54714,-400,4,2,1,0,0,0
54800,-100,4,2,1,0,0,0
55485,-57.1428571428571,4,2,1,0,0,0
55571,-66.6666666666667,4,2,1,0,0,0
55657,-80,4,2,1,0,0,0
55742,-400,4,2,1,0,0,0
55914,-100,4,2,1,0,0,0
65428,-57.1428571428571,4,2,1,0,0,0
65685,-400,4,2,1,0,0,0
65771,-57.1428571428571,4,2,1,0,0,0
66028,-400,4,2,1,0,0,0
66114,-57.1428571428571,4,2,1,0,0,0
66371,-200,4,2,1,0,0,0
66457,-54.054054054054,4,2,1,0,0,0
66542,-58.8235294117647,4,2,1,0,0,0
66628,-80,4,2,1,0,0,0
66714,-400,4,2,1,0,0,0
66800,-100,4,2,1,0,0,1
71600,-57.1428571428571,4,2,1,0,0,0
71685,-400,4,2,1,0,0,0
71771,-57.1428571428571,4,2,1,0,0,0
71857,-400,4,2,1,0,0,0
71942,-57.1428571428571,4,2,1,0,0,0
72028,-400,4,2,1,0,0,0
72114,-100,4,2,1,0,0,0
74685,-57.1428571428571,4,2,1,0,0,0
74771,-400,4,2,1,0,0,0
74857,-57.1428571428571,4,2,1,0,0,0
74942,-400,4,2,1,0,0,0
75028,-100,4,2,1,0,0,0
77000,-400,4,2,1,0,0,0
77085,-57.1428571428571,4,2,1,0,0,0
77171,-400,4,2,1,0,0,0
77257,-57.1428571428571,4,2,1,0,0,0
77342,-400,4,2,1,0,0,0
77428,-57.1428571428571,4,2,1,0,0,0
77514,-400,4,2,1,0,0,0
77685,-100,4,2,1,0,0,0
82571,-57.1428571428571,4,2,1,0,0,0
82657,-400,4,2,1,0,0,0
82742,-57.1428571428571,4,2,1,0,0,0
82828,-400,4,2,1,0,0,0
82914,-57.1428571428571,4,2,1,0,0,0
83000,-400,4,2,1,0,0,0
83085,-57.1428571428571,4,2,1,0,0,0
83171,-400,4,2,1,0,0,0
83257,-100,4,2,1,0,0,0
85677,-57.1428571428571,4,2,1,0,0,0
85742,-400,4,2,1,0,0,0
85828,-57.1428571428571,4,2,1,0,0,0
85914,-400,4,2,1,0,0,0
86000,-100,4,2,1,0,0,0
87371,-80,4,2,1,0,0,0
88657,-400,4,2,1,0,0,0
88742,-100,4,2,1,0,0,0
92171,-57.1428571428571,4,2,1,0,0,0
92257,-400,4,2,1,0,0,0
92342,-57.1428571428571,4,2,1,0,0,0
92428,-400,4,2,1,0,0,0
92514,-57.1428571428571,4,2,1,0,0,0
92600,-400,4,2,1,0,0,0
92685,-100,4,2,1,0,0,0
93542,-57.1428571428571,4,2,1,0,0,0
93628,-400,4,2,1,0,0,0
93714,-57.1428571428571,4,2,1,0,0,0
93800,-400,4,2,1,0,0,0
93885,-57.1428571428571,4,2,1,0,0,0
93971,-400,4,2,1,0,0,0
94057,-57.1428571428571,4,2,1,0,0,0
94142,-100,4,2,1,0,0,0
96285,-57.1428571428571,4,2,1,0,0,0
96371,-400,4,2,1,0,0,0
96457,-57.1428571428571,4,2,1,0,0,0
96542,-400,4,2,1,0,0,0
96625,-57.1428571428571,4,2,1,0,0,0
96714,-400,4,2,1,0,0,0
96800,-57.1428571428571,4,2,1,0,0,0
96885,-400,4,2,1,0,0,0
96971,-100,4,2,1,0,0,0
98342,-57.1428571428571,4,2,1,0,0,0
98428,-400,4,2,1,0,0,0
98514,-57.1428571428571,4,2,1,0,0,0
98600,-400,4,2,1,0,0,0
98685,-57.1428571428571,4,2,1,0,0,0
98771,-400,4,2,1,0,0,0
98857,-57.1428571428571,4,2,1,0,0,0
98942,-100,4,2,1,0,0,0
99028,-52.6315789473684,4,2,1,0,0,0
99114,-400,4,2,1,0,0,0
99200,-52.6315789473684,4,2,1,0,0,0
99285,-400,4,2,1,0,0,0
99371,-52.6315789473684,4,2,1,0,0,0
99628,-400,4,2,1,0,0,0
99714,-100,4,2,1,0,0,0
104524,-57.1428571428571,4,2,1,0,0,0
104600,-400,4,2,1,0,0,0
104685,-57.1428571428571,4,2,1,0,0,0
104771,-400,4,2,1,0,0,0
104857,-57.1428571428571,4,2,1,0,0,0
104942,-400,4,2,1,0,0,0
105028,-57.1428571428571,4,2,1,0,0,0
105114,-400,4,2,1,0,0,0
105200,-100,4,2,1,0,0,0
107257,-57.1428571428571,4,2,1,0,0,0
107342,-400,4,2,1,0,0,0
107428,-57.1428571428571,4,2,1,0,0,0
107514,-400,4,2,1,0,0,0
107600,-52.6315789473684,4,2,1,0,0,0
107685,-100,4,2,1,0,0,0
109314,-80,4,2,1,0,0,0
109657,-66.6666666666667,4,2,1,0,0,0
110000,-62.5,4,2,1,0,0,0
110342,-58.8235294117647,4,2,1,0,0,0
110427,-100,4,2,1,0,0,0
110514,-133.333333333333,4,2,1,0,0,0
110600,-400,4,2,1,0,0,0
110685,-133.333333333333,4,2,1,0,0,0
132200,-400,4,2,1,0,0,0
132285,-57.1428571428571,4,2,1,0,0,0
132628,-100,4,2,1,0,0,0
143600,-74.0740740740741,4,2,1,0,0,0
146342,-68.9655172413793,4,2,1,0,0,0
149085,-64.5161290322581,4,2,1,0,0,0
150457,-60.6060606060606,4,2,1,0,0,0
151485,-57.1428571428571,4,2,1,0,0,0
151828,-400,4,2,1,0,0,0
151914,-100,4,2,1,0,0,0
152085,-400,4,2,1,0,0,0
152171,-57.1428571428571,4,2,1,0,0,0
152428,-400,4,2,1,0,0,0
152514,-57.1428571428571,4,2,1,0,0,0
152600,-400,4,2,1,0,0,0
152685,-57.1428571428571,4,2,1,0,0,0
152771,-400,4,2,1,0,0,0
152857,-57.1428571428571,4,2,1,0,0,0
152942,-400,4,2,1,0,0,0
153028,-57.1428571428571,4,2,1,0,0,0
153114,-400,4,2,1,0,0,0
153200,-57.1428571428571,4,2,1,0,0,0
153457,-400,4,2,1,0,0,0
153542,-57.1428571428571,4,2,1,0,0,0
153800,-400,4,2,1,0,0,0
153885,-57.1428571428571,4,2,1,0,0,0
154142,-400,4,2,1,0,0,0
154228,-66.6666666666667,4,2,1,0,0,0
154485,-400,4,2,1,0,0,0
154571,-100,4,2,1,0,0,0
154828,-400,4,2,1,0,0,0
154914,-100,4,2,1,0,0,0
155342,-400,4,2,1,0,0,0
155428,-100,4,2,1,0,0,0
175142,-400,4,2,1,0,0,0
175228,-57.1428571428571,4,2,1,0,0,0
175314,-100,4,2,1,0,0,0
175400,-400,4,2,1,0,0,0
175485,-57.1428571428571,4,2,1,0,0,0
175571,-100,4,2,1,0,0,0
175657,-400,4,2,1,0,0,0
175742,-57.1428571428571,4,2,1,0,0,0
175828,-100,4,2,1,0,0,0
175914,-400,4,2,1,0,0,0
176000,-57.1428571428571,4,2,1,0,0,0
176085,-100,4,2,1,0,0,0
176171,-400,4,2,1,0,0,0
176257,-57.1428571428571,4,2,1,0,0,0
176342,-66.6666666666667,4,2,1,0,0,0
176428,-100,4,2,1,0,0,0
176514,-400,4,2,1,0,0,0
176600,-100,4,2,1,0,0,0
197085,-400,4,2,1,0,0,0
197171,-66.6666666666667,4,2,1,0,0,0
197257,-400,4,2,1,0,0,0
197342,-66.6666666666667,4,2,1,0,0,0
197514,-400,4,2,1,0,0,0
197600,-66.6666666666667,4,2,1,0,0,0
197771,-400,4,2,1,0,0,0
197857,-66.6666666666667,4,2,1,0,0,0
198028,-400,4,2,1,0,0,0
198114,-66.6666666666667,4,2,1,0,0,0
198371,-400,4,2,1,0,0,0
198457,-100,4,2,1,0,0,0
209428,-80,4,2,1,0,0,0
212171,-76.9230769230769,4,2,1,0,0,0
214914,-74.0740740740741,4,2,1,0,0,0
216293,-71.4285714285714,4,2,1,0,0,0
217681,-68.9655172413793,4,2,1,0,0,0
218342,-66.6666666666667,4,2,1,0,0,0
219028,-400,4,2,1,0,0,0
219114,-57.1428571428571,4,2,1,0,0,0
219285,-400,4,2,1,0,0,0
219457,-57.1428571428571,4,2,1,0,0,0
219628,-400,4,2,1,0,0,0
219800,-57.1428571428571,4,2,1,0,0,0
220314,-400,4,2,1,0,0,0
220485,-100,4,2,1,0,0,0
222885,-57.1428571428571,4,2,1,0,0,0
222971,-400,4,2,1,0,0,0
223057,-57.1428571428571,4,2,1,0,0,0
223142,-400,4,2,1,0,0,0
223228,-100,4,2,1,0,0,0
225371,-400,4,2,1,0,0,0
225457,-80,4,2,1,0,0,0
225542,-400,4,2,1,0,0,0
225628,-80,4,2,1,0,0,0
225714,-400,4,2,1,0,0,0
225800,-80,4,2,1,0,0,0
225885,-400,4,2,1,0,0,0
225971,-100,4,2,1,0,0,0
228371,-80,4,2,1,0,0,0
228457,-400,4,2,1,0,0,0
228542,-80,4,2,1,0,0,0
228628,-400,4,2,1,0,0,0
228714,-100,4,2,1,0,0,0
229914,-400,4,2,1,0,0,0
230085,-66.6666666666667,4,2,1,0,0,0
230257,-400,4,2,1,0,0,0
230428,-66.6666666666667,4,2,1,0,0,0
230600,-400,4,2,1,0,0,0
230771,-66.6666666666667,4,2,1,0,0,0
230857,-80,4,2,1,0,0,0
230942,-400,4,2,1,0,0,0
231114,-66.6666666666667,4,2,1,0,0,0
231285,-400,4,2,1,0,0,0
231457,-100,4,2,1,0,0,0
233857,-80,4,2,1,0,0,0
233942,-400,4,2,1,0,0,0
234028,-80,4,2,1,0,0,0
234114,-400,4,2,1,0,0,0
234200,-100,4,2,1,0,0,0
236171,-400,4,2,1,0,0,0
236257,-80,4,2,1,0,0,0
236342,-400,4,2,1,0,0,0
236428,-80,4,2,1,0,0,0
236514,-400,4,2,1,0,0,0
236600,-80,4,2,1,0,0,0
236685,-400,4,2,1,0,0,0
236771,-80,4,2,1,0,0,0
236857,-400,4,2,1,0,0,0
236942,-100,4,2,1,0,0,0
239257,-80,4,2,1,0,0,0
240971,-100,4,2,1,0,0,0

[HitObjects]
192,192,971,5,0,0:0:0:0:
64,192,971,1,0,0:0:0:0:
320,192,1314,1,0,0:0:0:0:
448,192,1314,1,0,0:0:0:0:
320,192,1657,1,0,0:0:0:0:
192,192,1828,1,0,0:0:0:0:
64,192,2000,1,0,0:0:0:0:
320,192,2342,1,0,0:0:0:0:
448,192,2342,1,0,0:0:0:0:
320,192,2514,1,0,0:0:0:0:
448,192,2514,1,0,0:0:0:0:
320,192,2685,1,0,0:0:0:0:
448,192,2685,1,0,0:0:0:0:
192,192,2857,1,0,0:0:0:0:
64,192,3028,1,0,0:0:0:0:
320,192,3200,1,0,0:0:0:0:
192,192,3371,1,0,0:0:0:0:
64,192,3457,1,0,0:0:0:0:
192,192,3542,1,0,0:0:0:0:
64,192,3628,1,0,0:0:0:0:
448,192,3714,1,0,0:0:0:0:
192,192,4057,1,0,0:0:0:0:
448,192,4057,1,0,0:0:0:0:
448,192,4400,128,0,4571:0:0:0:0:
192,192,4571,1,0,0:0:0:0:
64,192,4571,128,0,4742:0:0:0:0:
320,192,4742,1,0,0:0:0:0:
448,192,4742,128,0,4914:0:0:0:0:
192,192,4914,1,0,0:0:0:0:
448,192,5085,1,0,0:0:0:0:
64,192,5085,1,0,0:0:0:0:
64,192,5257,1,0,0:0:0:0:
448,192,5257,1,0,0:0:0:0:
64,192,5428,1,0,0:0:0:0:
448,192,5428,1,0,0:0:0:0:
192,192,5771,1,0,0:0:0:0:
320,192,5942,1,0,0:0:0:0:
448,192,6114,1,0,0:0:0:0:
64,192,6114,1,0,0:0:0:0:
320,192,6457,1,0,0:0:0:0:
192,192,6800,1,0,0:0:0:0:
448,192,7142,1,0,0:0:0:0:
320,192,7314,1,0,0:0:0:0:
192,192,7485,1,0,0:0:0:0:
192,192,7828,1,0,0:0:0:0:
448,192,7828,1,0,0:0:0:0:
192,192,8000,1,0,0:0:0:0:
448,192,8000,1,0,0:0:0:0:
192,192,8171,1,0,0:0:0:0:
448,192,8171,1,0,0:0:0:0:
320,192,8514,1,0,0:0:0:0:
192,192,8685,1,0,0:0:0:0:
64,192,8857,1,0,0:0:0:0:
192,192,8942,1,0,0:0:0:0:
320,192,9028,1,0,0:0:0:0:
192,192,9114,1,0,0:0:0:0:
320,192,9200,1,0,0:0:0:0:
448,192,9200,1,0,0:0:0:0:
192,192,9542,1,0,0:0:0:0:
320,192,9542,1,0,0:0:0:0:
448,192,9885,128,0,10057:0:0:0:0:
320,192,10057,1,0,0:0:0:0:
192,192,10057,128,0,10228:0:0:0:0:
64,192,10228,1,0,0:0:0:0:
320,192,10228,128,0,10400:0:0:0:0:
448,192,10400,1,0,0:0:0:0:
448,192,10571,1,0,0:0:0:0:
64,192,10571,1,0,0:0:0:0:
192,192,10571,1,0,0:0:0:0:
448,192,10914,1,0,0:0:0:0:
320,192,10914,1,0,0:0:0:0:
64,192,10914,1,0,0:0:0:0:
320,192,11257,1,0,0:0:0:0:
64,192,11257,1,0,0:0:0:0:
192,192,11257,1,0,0:0:0:0:
448,192,11257,1,0,0:0:0:0:
64,192,11600,1,0,0:0:0:0:
448,192,11600,1,0,0:0:0:0:
192,192,11600,128,0,11942:0:0:0:0:
448,192,11942,1,0,0:0:0:0:
64,192,11942,1,0,0:0:0:0:
320,192,11942,1,0,0:0:0:0:
64,192,12285,1,0,0:0:0:0:
320,192,12285,1,0,0:0:0:0:
192,192,12628,1,0,0:0:0:0:
320,192,12800,1,0,0:0:0:0:
448,192,12971,1,0,0:0:0:0:
64,192,12971,1,0,0:0:0:0:
64,192,13314,1,0,0:0:0:0:
320,192,13314,1,0,0:0:0:0:
448,192,13314,1,0,0:0:0:0:
320,192,13485,1,0,0:0:0:0:
192,192,13485,1,0,0:0:0:0:
64,192,13657,1,0,0:0:0:0:
192,192,13657,1,0,0:0:0:0:
448,192,13657,1,0,0:0:0:0:
64,192,14000,1,0,0:0:0:0:
448,192,14000,128,0,14171:0:0:0:0:
320,192,14171,1,0,0:0:0:0:
320,192,14342,1,0,0:0:0:0:
64,192,14342,1,0,0:0:0:0:
448,192,14428,1,0,0:0:0:0:
320,192,14514,1,0,0:0:0:0:
192,192,14600,1,0,0:0:0:0:
448,192,14685,1,0,0:0:0:0:
320,192,14685,1,0,0:0:0:0:
448,192,15028,1,0,0:0:0:0:
64,192,15028,1,0,0:0:0:0:
320,192,15371,1,0,0:0:0:0:
448,192,15371,128,0,15542:0:0:0:0:
192,192,15542,1,0,0:0:0:0:
320,192,15542,128,0,15714:0:0:0:0:
64,192,15714,1,0,0:0:0:0:
192,192,15714,128,0,15885:0:0:0:0:
448,192,15714,1,0,0:0:0:0:
320,192,15885,1,0,0:0:0:0:
64,192,16057,1,0,0:0:0:0:
448,192,16057,1,0,0:0:0:0:
448,192,16228,1,0,0:0:0:0:
320,192,16228,1,0,0:0:0:0:
448,192,16400,1,0,0:0:0:0:
192,192,16400,1,0,0:0:0:0:
64,192,16742,1,0,0:0:0:0:
448,192,16742,128,0,16914:0:0:0:0:
320,192,16914,128,0,17085:0:0:0:0:
64,192,17085,1,0,0:0:0:0:
448,192,17085,128,0,17257:0:0:0:0:
320,192,17257,1,0,0:0:0:0:
192,192,17428,1,0,0:0:0:0:
64,192,17428,1,0,0:0:0:0:
320,192,17428,1,0,0:0:0:0:
448,192,17428,1,0,0:0:0:0:
448,192,17600,1,0,0:0:0:0:
320,192,17771,1,0,0:0:0:0:
192,192,17942,1,0,0:0:0:0:
320,192,18114,1,0,0:0:0:0:
64,192,18114,1,0,0:0:0:0:
448,192,18114,1,0,0:0:0:0:
192,192,18114,1,0,0:0:0:0:
448,192,18285,1,0,0:0:0:0:
320,192,18457,1,0,0:0:0:0:
192,192,18628,1,0,0:0:0:0:
448,192,18800,1,0,0:0:0:0:
64,192,18800,1,0,0:0:0:0:
192,192,18800,1,0,0:0:0:0:
320,192,18800,1,0,0:0:0:0:
64,192,18971,1,0,0:0:0:0:
192,192,19142,1,0,0:0:0:0:
320,192,19314,1,0,0:0:0:0:
64,192,19485,1,0,0:0:0:0:
192,192,19485,1,0,0:0:0:0:
320,192,19485,1,0,0:0:0:0:
448,192,19485,1,0,0:0:0:0:
64,192,19657,1,0,0:0:0:0:
192,192,19828,1,0,0:0:0:0:
320,192,20000,1,0,0:0:0:0:
64,192,20171,1,0,0:0:0:0:
192,192,20171,1,0,0:0:0:0:
320,192,20171,1,0,0:0:0:0:
448,192,20171,1,0,0:0:0:0:
64,192,20257,1,0,0:0:0:0:
192,192,20342,1,0,0:0:0:0:
320,192,20428,1,0,0:0:0:0:
320,192,20514,1,0,0:0:0:0:
448,192,20514,1,0,0:0:0:0:
192,192,20600,1,0,0:0:0:0:
64,192,20685,1,0,0:0:0:0:
192,192,20771,1,0,0:0:0:0:
320,192,20857,1,0,0:0:0:0:
448,192,20857,1,0,0:0:0:0:
192,192,20942,1,0,0:0:0:0:
64,192,21028,1,0,0:0:0:0:
192,192,21114,1,0,0:0:0:0:
192,192,21200,1,0,0:0:0:0:
64,192,21200,1,0,0:0:0:0:
448,192,21200,1,0,0:0:0:0:
320,192,21285,1,0,0:0:0:0:
192,192,21371,1,0,0:0:0:0:
64,192,21457,1,0,0:0:0:0:
64,192,21542,1,0,0:0:0:0:
192,192,21542,1,0,0:0:0:0:
448,192,21542,1,0,0:0:0:0:
320,192,21542,128,0,21885:0:0:0:0:
64,192,21885,1,0,0:0:0:0:
448,192,21885,1,0,0:0:0:0:
192,192,21885,128,0,22228:0:0:0:0:
64,192,22228,1,0,0:0:0:0:
448,192,22228,1,0,0:0:0:0:
320,192,22228,128,0,22914:0:0:0:0:
64,192,22571,1,0,0:0:0:0:
192,192,22657,1,0,0:0:0:0:
448,192,22742,1,0,0:0:0:0:
192,192,22828,1,0,0:0:0:0:
64,192,22914,1,0,0:0:0:0:
448,192,22914,1,0,0:0:0:0:
64,192,23257,1,0,0:0:0:0:
320,192,23257,1,0,0:0:0:0:
64,192,23600,1,0,0:0:0:0:
320,192,23600,1,0,0:0:0:0:
192,192,23771,1,0,0:0:0:0:
448,192,23942,1,0,0:0:0:0:
64,192,23942,1,0,0:0:0:0:
448,192,24285,1,0,0:0:0:0:
64,192,24285,1,0,0:0:0:0:
64,192,24457,1,0,0:0:0:0:
192,192,24457,1,0,0:0:0:0:
448,192,24628,1,0,0:0:0:0:
192,192,24628,1,0,0:0:0:0:
448,192,24971,1,0,0:0:0:0:
192,192,24971,1,0,0:0:0:0:
320,192,25142,1,0,0:0:0:0:
64,192,25142,1,0,0:0:0:0:
192,192,25314,1,0,0:0:0:0:
448,192,25314,128,0,25485:0:0:0:0:
64,192,25400,1,0,0:0:0:0:
192,192,25485,1,0,0:0:0:0:
320,192,25485,128,0,25657:0:0:0:0:
64,192,25571,1,0,0:0:0:0:
192,192,25657,1,0,0:0:0:0:
448,192,25657,1,0,0:0:0:0:
320,192,26000,1,0,0:0:0:0:
64,192,26000,1,0,0:0:0:0:
192,192,26342,1,0,0:0:0:0:
64,192,26342,128,0,26514:0:0:0:0:
192,192,26514,128,0,26685:0:0:0:0:
320,192,26514,1,0,0:0:0:0:
448,192,26685,1,0,0:0:0:0:
320,192,26685,128,0,26857:0:0:0:0:
192,192,26857,1,0,0:0:0:0:
64,192,27028,1,0,0:0:0:0:
448,192,27028,1,0,0:0:0:0:
320,192,27200,1,0,0:0:0:0:
64,192,27200,1,0,0:0:0:0:
64,192,27371,1,0,0:0:0:0:
448,192,27371,1,0,0:0:0:0:
448,192,27714,128,0,27885:0:0:0:0:
320,192,27714,1,0,0:0:0:0:
320,192,27885,128,0,28057:0:0:0:0:
192,192,27885,1,0,0:0:0:0:
192,192,28057,128,0,28228:0:0:0:0:
64,192,28057,1,0,0:0:0:0:
448,192,28057,1,0,0:0:0:0:
64,192,28228,128,0,28400:0:0:0:0:
320,192,28228,1,0,0:0:0:0:
192,192,28400,1,0,0:0:0:0:
448,192,28400,1,0,0:0:0:0:
64,192,28742,1,0,0:0:0:0:
448,192,28742,1,0,0:0:0:0:
320,192,29085,1,0,0:0:0:0:
448,192,29085,1,0,0:0:0:0:
320,192,29257,1,0,0:0:0:0:
192,192,29257,1,0,0:0:0:0:
192,192,29428,1,0,0:0:0:0:
64,192,29428,1,0,0:0:0:0:
320,192,29771,1,0,0:0:0:0:
448,192,29771,1,0,0:0:0:0:
64,192,29771,1,0,0:0:0:0:
320,192,29942,1,0,0:0:0:0:
448,192,29942,1,0,0:0:0:0:
64,192,29942,1,0,0:0:0:0:
192,192,30114,1,0,0:0:0:0:
448,192,30114,1,0,0:0:0:0:
320,192,30114,1,0,0:0:0:0:
320,192,30457,1,0,0:0:0:0:
192,192,30628,1,0,0:0:0:0:
448,192,30628,1,0,0:0:0:0:
64,192,30800,1,0,0:0:0:0:
320,192,30800,128,0,30971:0:0:0:0:
192,192,30885,1,0,0:0:0:0:
64,192,30971,1,0,0:0:0:0:
448,192,30971,128,0,31142:0:0:0:0:
192,192,31057,1,0,0:0:0:0:
64,192,31142,1,0,0:0:0:0:
192,192,31485,1,0,0:0:0:0:
320,192,31485,1,0,0:0:0:0:
192,192,31828,128,0,32000:0:0:0:0:
320,192,31828,1,0,0:0:0:0:
320,192,32000,128,0,32171:0:0:0:0:
64,192,32000,1,0,0:0:0:0:
192,192,32171,1,0,0:0:0:0:
448,192,32171,128,0,32342:0:0:0:0:
320,192,32342,1,0,0:0:0:0:
64,192,32514,1,0,0:0:0:0:
192,192,32514,1,0,0:0:0:0:
320,192,32514,1,0,0:0:0:0:
448,192,32514,1,0,0:0:0:0:
448,192,32857,1,0,0:0:0:0:
64,192,32857,1,0,0:0:0:0:
192,192,32857,1,0,0:0:0:0:
320,192,32857,1,0,0:0:0:0:
320,192,33200,1,0,0:0:0:0:
64,192,33200,1,0,0:0:0:0:
192,192,33200,1,0,0:0:0:0:
448,192,33200,1,0,0:0:0:0:
192,192,33371,1,0,0:0:0:0:
320,192,33371,1,0,0:0:0:0:
64,192,33542,128,0,33885:0:0:0:0:
448,192,33628,128,0,33885:0:0:0:0:
320,192,33714,128,0,33885:0:0:0:0:
192,192,33885,1,0,0:0:0:0:
320,192,34228,1,0,0:0:0:0:
192,192,34228,1,0,0:0:0:0:
192,192,34571,1,0,0:0:0:0:
320,192,34571,1,0,0:0:0:0:
192,192,34742,1,0,0:0:0:0:
320,192,34742,1,0,0:0:0:0:
64,192,34914,1,0,0:0:0:0:
448,192,34914,1,0,0:0:0:0:
192,192,35257,1,0,0:0:0:0:
448,192,35257,1,0,0:0:0:0:
320,192,35428,1,0,0:0:0:0:
64,192,35428,1,0,0:0:0:0:
192,192,35600,1,0,0:0:0:0:
448,192,35600,1,0,0:0:0:0:
192,192,35942,1,0,0:0:0:0:
320,192,35942,1,0,0:0:0:0:
64,192,36114,1,0,0:0:0:0:
320,192,36114,1,0,0:0:0:0:
448,192,36285,1,0,0:0:0:0:
192,192,36285,128,0,36457:0:0:0:0:
320,192,36371,1,0,0:0:0:0:
448,192,36457,1,0,0:0:0:0:
64,192,36457,128,0,36628:0:0:0:0:
320,192,36542,1,0,0:0:0:0:
448,192,36628,1,0,0:0:0:0:
320,192,36971,1,0,0:0:0:0:
192,192,36971,1,0,0:0:0:0:
448,192,37314,128,0,37485:0:0:0:0:
192,192,37485,128,0,37657:0:0:0:0:
320,192,37485,1,0,0:0:0:0:
320,192,37657,128,0,37828:0:0:0:0:
64,192,37657,1,0,0:0:0:0:
192,192,37828,1,0,0:0:0:0:
64,192,38000,1,0,0:0:0:0:
192,192,38000,1,0,0:0:0:0:
192,192,38171,1,0,0:0:0:0:
320,192,38171,1,0,0:0:0:0:
320,192,38342,1,0,0:0:0:0:
448,192,38342,1,0,0:0:0:0:
448,192,38685,128,0,39371:0:0:0:0:
192,192,38857,128,0,39371:0:0:0:0:
320,192,39028,128,0,39371:0:0:0:0:
64,192,39200,128,0,39371:0:0:0:0:
448,192,39542,1,0,0:0:0:0:
64,192,39542,1,0,0:0:0:0:
192,192,39714,1,0,0:0:0:0:
448,192,39885,1,0,0:0:0:0:
192,192,40057,1,0,0:0:0:0:
448,192,40228,1,0,0:0:0:0:
192,192,40228,1,0,0:0:0:0:
192,192,40400,1,0,0:0:0:0:
448,192,40571,1,0,0:0:0:0:
192,192,40742,1,0,0:0:0:0:
448,192,40742,1,0,0:0:0:0:
320,192,40914,1,0,0:0:0:0:
64,192,40914,1,0,0:0:0:0:
64,192,41085,1,0,0:0:0:0:
448,192,41085,1,0,0:0:0:0:
320,192,41257,1,0,0:0:0:0:
64,192,41428,1,0,0:0:0:0:
448,192,41428,1,0,0:0:0:0:
320,192,41600,1,0,0:0:0:0:
448,192,41600,1,0,0:0:0:0:
64,192,41771,1,0,0:0:0:0:
448,192,41771,1,0,0:0:0:0:
320,192,41857,1,0,0:0:0:0:
192,192,41942,1,0,0:0:0:0:
320,192,42028,1,0,0:0:0:0:
192,192,42114,1,0,0:0:0:0:
448,192,42200,1,0,0:0:0:0:
64,192,42285,1,0,0:0:0:0:
320,192,42371,1,0,0:0:0:0:
192,192,42457,1,0,0:0:0:0:
448,192,42542,1,0,0:0:0:0:
64,192,42628,1,0,0:0:0:0:
320,192,42714,1,0,0:0:0:0:
192,192,42800,1,0,0:0:0:0:
448,192,42885,1,0,0:0:0:0:
64,192,42971,1,0,0:0:0:0:
320,192,43057,1,0,0:0:0:0:
192,192,43142,1,0,0:0:0:0:
448,192,43228,1,0,0:0:0:0:
64,192,43314,1,0,0:0:0:0:
320,192,43400,1,0,0:0:0:0:
64,192,43485,1,0,0:0:0:0:
448,192,43485,1,0,0:0:0:0:
320,192,43657,1,0,0:0:0:0:
192,192,43742,1,0,0:0:0:0:
320,192,44000,1,0,0:0:0:0:
320,192,44085,1,0,0:0:0:0:
448,192,44171,1,0,0:0:0:0:
448,192,44257,1,0,0:0:0:0:
64,192,44342,128,0,44857:0:0:0:0:
192,192,44428,1,0,0:0:0:0:
320,192,44514,1,0,0:0:0:0:
448,192,44600,1,0,0:0:0:0:
320,192,44685,1,0,0:0:0:0:
192,192,44771,1,0,0:0:0:0:
320,192,44857,1,0,0:0:0:0:
448,192,44857,1,0,0:0:0:0:
320,192,45028,1,0,0:0:0:0:
448,192,45028,1,0,0:0:0:0:
64,192,45200,1,0,0:0:0:0:
192,192,45285,1,0,0:0:0:0:
64,192,45371,1,0,0:0:0:0:
320,192,45542,1,0,0:0:0:0:
448,192,45542,1,0,0:0:0:0:
448,192,45714,1,0,0:0:0:0:
320,192,45714,1,0,0:0:0:0:
192,192,45885,128,0,46228:0:0:0:0:
64,192,45885,128,0,46057:0:0:0:0:
320,192,45885,128,0,46228:0:0:0:0:
448,192,46057,128,0,46228:0:0:0:0:
448,192,46400,1,0,0:0:0:0:
320,192,46485,1,0,0:0:0:0:
192,192,46571,1,0,0:0:0:0:
192,192,46742,1,0,0:0:0:0:
320,192,46742,1,0,0:0:0:0:
448,192,46914,1,0,0:0:0:0:
64,192,46914,1,0,0:0:0:0:
64,192,47085,1,0,0:0:0:0:
448,192,47085,1,0,0:0:0:0:
192,192,47257,128,0,47600:0:0:0:0:
320,192,47428,128,0,47600:0:0:0:0:
64,192,47600,1,0,0:0:0:0:
448,192,47600,1,0,0:0:0:0:
192,192,47771,1,0,0:0:0:0:
320,192,47857,1,0,0:0:0:0:
192,192,47942,1,0,0:0:0:0:
64,192,48114,1,0,0:0:0:0:
320,192,48114,1,0,0:0:0:0:
448,192,48114,1,0,0:0:0:0:
320,192,48285,1,0,0:0:0:0:
192,192,48285,1,0,0:0:0:0:
192,192,48457,1,0,0:0:0:0:
320,192,48457,1,0,0:0:0:0:
448,192,48628,1,0,0:0:0:0:
64,192,48628,128,0,48971:0:0:0:0:
192,192,48628,128,0,48800:0:0:0:0:
320,192,48800,1,0,0:0:0:0:
320,192,48971,1,0,0:0:0:0:
448,192,48971,1,0,0:0:0:0:
320,192,49142,1,0,0:0:0:0:
192,192,49228,1,0,0:0:0:0:
64,192,49314,1,0,0:0:0:0:
64,192,49485,1,0,0:0:0:0:
192,192,49485,1,0,0:0:0:0:
448,192,49657,128,0,50342:0:0:0:0:
64,192,49828,128,0,50342:0:0:0:0:
320,192,50000,128,0,50342:0:0:0:0:
192,192,50171,128,0,50342:0:0:0:0:
192,192,50514,1,0,0:0:0:0:
320,192,50600,1,0,0:0:0:0:
192,192,50685,1,0,0:0:0:0:
192,192,50857,1,0,0:0:0:0:
320,192,50857,1,0,0:0:0:0:
448,192,51028,1,0,0:0:0:0:
64,192,51028,1,0,0:0:0:0:
448,192,51200,1,0,0:0:0:0:
64,192,51200,1,0,0:0:0:0:
192,192,51371,128,0,51542:0:0:0:0:
320,192,51371,128,0,51542:0:0:0:0:
64,192,51542,128,0,51714:0:0:0:0:
448,192,51542,128,0,51714:0:0:0:0:
192,192,51714,1,0,0:0:0:0:
320,192,51800,1,0,0:0:0:0:
192,192,51885,1,0,0:0:0:0:
192,192,52057,1,0,0:0:0:0:
320,192,52057,1,0,0:0:0:0:
64,192,52400,1,0,0:0:0:0:
320,192,52400,1,0,0:0:0:0:
448,192,52400,1,0,0:0:0:0:
64,192,52571,1,0,0:0:0:0:
320,192,52571,1,0,0:0:0:0:
448,192,52571,1,0,0:0:0:0:
64,192,52742,128,0,52914:0:0:0:0:
320,192,52742,128,0,52914:0:0:0:0:
192,192,52914,128,0,53085:0:0:0:0:
448,192,52914,128,0,53085:0:0:0:0:
64,192,53085,1,0,0:0:0:0:
320,192,53085,1,0,0:0:0:0:
192,192,53257,1,0,0:0:0:0:
320,192,53342,1,0,0:0:0:0:
192,192,53428,1,0,0:0:0:0:
192,192,53600,1,0,0:0:0:0:
320,192,53600,1,0,0:0:0:0:
448,192,53771,1,0,0:0:0:0:
64,192,53771,1,0,0:0:0:0:
64,192,53942,1,0,0:0:0:0:
320,192,53942,1,0,0:0:0:0:
448,192,54114,128,0,54285:0:0:0:0:
320,192,54114,128,0,54285:0:0:0:0:
64,192,54285,128,0,54457:0:0:0:0:
192,192,54285,128,0,54457:0:0:0:0:
448,192,54457,128,0,54628:0:0:0:0:
320,192,54628,128,0,54800:0:0:0:0:
64,192,54800,1,0,0:0:0:0:
192,192,54885,1,0,0:0:0:0:
320,192,54971,1,0,0:0:0:0:
448,192,55057,1,0,0:0:0:0:
64,192,55057,1,0,0:0:0:0:
192,192,55142,1,0,0:0:0:0:
320,192,55228,1,0,0:0:0:0:
448,192,55314,1,0,0:0:0:0:
64,192,55314,1,0,0:0:0:0:
192,192,55400,1,0,0:0:0:0:
320,192,55485,1,0,0:0:0:0:
64,192,55485,128,0,55828:0:0:0:0:
192,192,55571,128,0,55828:0:0:0:0:
320,192,55828,1,0,0:0:0:0:
448,192,55828,1,0,0:0:0:0:
448,192,56000,1,0,0:0:0:0:
192,192,56000,1,0,0:0:0:0:
320,192,56171,1,0,0:0:0:0:
320,192,56342,1,0,0:0:0:0:
448,192,56514,1,0,0:0:0:0:
64,192,56514,1,0,0:0:0:0:
192,192,56514,1,0,0:0:0:0:
448,192,56685,1,0,0:0:0:0:
64,192,56685,1,0,0:0:0:0:
192,192,56685,1,0,0:0:0:0:
320,192,56857,1,0,0:0:0:0:
192,192,56857,1,0,0:0:0:0:
320,192,57028,1,0,0:0:0:0:
64,192,57028,1,0,0:0:0:0:
320,192,57200,1,0,0:0:0:0:
448,192,57200,1,0,0:0:0:0:
448,192,57371,1,0,0:0:0:0:
192,192,57371,1,0,0:0:0:0:
320,192,57542,1,0,0:0:0:0:
320,192,57714,1,0,0:0:0:0:
64,192,57885,1,0,0:0:0:0:
192,192,57885,1,0,0:0:0:0:
448,192,57885,1,0,0:0:0:0:
64,192,58057,1,0,0:0:0:0:
192,192,58057,1,0,0:0:0:0:
448,192,58057,1,0,0:0:0:0:
192,192,58228,1,0,0:0:0:0:
320,192,58228,1,0,0:0:0:0:
64,192,58400,1,0,0:0:0:0:
320,192,58400,1,0,0:0:0:0:
320,192,58571,1,0,0:0:0:0:
448,192,58571,1,0,0:0:0:0:
64,192,58571,1,0,0:0:0:0:
64,192,58742,1,0,0:0:0:0:
448,192,58742,1,0,0:0:0:0:
192,192,58914,1,0,0:0:0:0:
192,192,59085,1,0,0:0:0:0:
64,192,59257,1,0,0:0:0:0:
320,192,59257,1,0,0:0:0:0:
448,192,59257,1,0,0:0:0:0:
64,192,59428,1,0,0:0:0:0:
448,192,59428,1,0,0:0:0:0:
320,192,59428,1,0,0:0:0:0:
192,192,59600,1,0,0:0:0:0:
448,192,59600,1,0,0:0:0:0:
192,192,59771,1,0,0:0:0:0:
320,192,59771,1,0,0:0:0:0:
64,192,59942,1,0,0:0:0:0:
192,192,59942,1,0,0:0:0:0:
64,192,60114,1,0,0:0:0:0:
448,192,60114,1,0,0:0:0:0:
192,192,60285,1,0,0:0:0:0:
192,192,60457,1,0,0:0:0:0:
64,192,60628,1,0,0:0:0:0:
448,192,60628,1,0,0:0:0:0:
64,192,60800,1,0,0:0:0:0:
448,192,60800,1,0,0:0:0:0:
320,192,60800,1,0,0:0:0:0:
192,192,60971,1,0,0:0:0:0:
448,192,60971,1,0,0:0:0:0:
192,192,61142,1,0,0:0:0:0:
320,192,61142,1,0,0:0:0:0:
64,192,61314,1,0,0:0:0:0:
448,192,61314,1,0,0:0:0:0:
192,192,61400,1,0,0:0:0:0:
320,192,61485,1,0,0:0:0:0:
192,192,61571,1,0,0:0:0:0:
320,192,61657,1,0,0:0:0:0:
192,192,61742,1,0,0:0:0:0:
320,192,61828,1,0,0:0:0:0:
192,192,61914,1,0,0:0:0:0:
448,192,62000,1,0,0:0:0:0:
64,192,62000,1,0,0:0:0:0:
320,192,62085,1,0,0:0:0:0:
192,192,62171,1,0,0:0:0:0:
320,192,62257,1,0,0:0:0:0:
192,192,62342,1,0,0:0:0:0:
320,192,62428,1,0,0:0:0:0:
192,192,62514,1,0,0:0:0:0:
320,192,62600,1,0,0:0:0:0:
64,192,62685,1,0,0:0:0:0:
448,192,62685,1,0,0:0:0:0:
64,192,62771,1,0,0:0:0:0:
448,192,62857,1,0,0:0:0:0:
64,192,62942,1,0,0:0:0:0:
448,192,63028,1,0,0:0:0:0:
64,192,63114,1,0,0:0:0:0:
448,192,63200,1,0,0:0:0:0:
64,192,63285,1,0,0:0:0:0:
192,192,63371,1,0,0:0:0:0:
320,192,63371,1,0,0:0:0:0:
448,192,63457,1,0,0:0:0:0:
64,192,63542,1,0,0:0:0:0:
448,192,63628,1,0,0:0:0:0:
64,192,63714,1,0,0:0:0:0:
448,192,63800,1,0,0:0:0:0:
64,192,63885,1,0,0:0:0:0:
448,192,63971,1,0,0:0:0:0:
192,192,64057,1,0,0:0:0:0:
320,192,64057,1,0,0:0:0:0:
192,192,64228,1,0,0:0:0:0:
320,192,64228,1,0,0:0:0:0:
64,192,64400,1,0,0:0:0:0:
448,192,64400,1,0,0:0:0:0:
64,192,64571,1,0,0:0:0:0:
448,192,64571,1,0,0:0:0:0:
320,192,64742,1,0,0:0:0:0:
192,192,64828,1,0,0:0:0:0:
448,192,64914,1,0,0:0:0:0:
64,192,65000,1,0,0:0:0:0:
320,192,65085,1,0,0:0:0:0:
192,192,65171,1,0,0:0:0:0:
448,192,65257,1,0,0:0:0:0:
64,192,65342,1,0,0:0:0:0:
192,192,65428,1,0,0:0:0:0:
320,192,65428,128,0,65771:0:0:0:0:
192,192,65771,128,0,66114:0:0:0:0:
64,192,65771,1,0,0:0:0:0:
320,192,66114,1,0,0:0:0:0:
64,192,66114,128,0,66457:0:0:0:0:
448,192,66457,128,0,66800:0:0:0:0:
320,192,66542,128,0,66800:0:0:0:0:
192,192,66628,128,0,66800:0:0:0:0:
64,192,66800,1,0,0:0:0:0:
64,192,66971,1,0,0:0:0:0:
192,192,67142,1,0,0:0:0:0:
320,192,67228,1,0,0:0:0:0:
448,192,67314,1,0,0:0:0:0:
192,192,67485,1,0,0:0:0:0:
448,192,67485,1,0,0:0:0:0:
192,192,67657,1,0,0:0:0:0:
448,192,67657,1,0,0:0:0:0:
320,192,67828,1,0,0:0:0:0:
64,192,67828,1,0,0:0:0:0:
64,192,68000,1,0,0:0:0:0:
320,192,68000,1,0,0:0:0:0:
320,192,68171,128,0,68257:0:0:0:0:
448,192,68171,128,0,68257:0:0:0:0:
64,192,68342,128,0,68428:0:0:0:0:
192,192,68342,128,0,68428:0:0:0:0:
320,192,68514,1,0,0:0:0:0:
192,192,68514,1,0,0:0:0:0:
64,192,68857,128,0,68942:0:0:0:0:
192,192,68857,128,0,68942:0:0:0:0:
320,192,69028,128,0,69114:0:0:0:0:
448,192,69028,128,0,69114:0:0:0:0:
192,192,69200,128,0,69285:0:0:0:0:
320,192,69200,128,0,69285:0:0:0:0:
64,192,69371,128,0,69457:0:0:0:0:
448,192,69371,128,0,69457:0:0:0:0:
320,192,69542,1,0,0:0:0:0:
192,192,69714,1,0,0:0:0:0:
64,192,69885,1,0,0:0:0:0:
320,192,69885,1,0,0:0:0:0:
320,192,70228,1,0,0:0:0:0:
448,192,70228,1,0,0:0:0:0:
320,192,70400,1,0,0:0:0:0:
448,192,70400,1,0,0:0:0:0:
64,192,70571,1,0,0:0:0:0:
192,192,70571,1,0,0:0:0:0:
64,192,70742,1,0,0:0:0:0:
192,192,70742,1,0,0:0:0:0:
192,192,70914,1,0,0:0:0:0:
448,192,70914,1,0,0:0:0:0:
320,192,71085,1,0,0:0:0:0:
192,192,71085,1,0,0:0:0:0:
64,192,71257,1,0,0:0:0:0:
320,192,71257,1,0,0:0:0:0:
192,192,71428,1,0,0:0:0:0:
64,192,71428,1,0,0:0:0:0:
448,192,71600,1,0,0:0:0:0:
320,192,71600,1,0,0:0:0:0:
320,192,71771,1,0,0:0:0:0:
192,192,71771,1,0,0:0:0:0:
192,192,71942,1,0,0:0:0:0:
64,192,71942,1,0,0:0:0:0:
192,192,72114,1,0,0:0:0:0:
64,192,72114,1,0,0:0:0:0:
320,192,72285,128,0,72457:0:0:0:0:
192,192,72457,1,0,0:0:0:0:
320,192,72628,1,0,0:0:0:0:
448,192,72971,128,0,73142:0:0:0:0:
192,192,73142,128,0,73314:0:0:0:0:
64,192,73142,1,0,0:0:0:0:
320,192,73314,1,0,0:0:0:0:
448,192,73314,128,0,73485:0:0:0:0:
64,192,73485,1,0,0:0:0:0:
192,192,73657,1,0,0:0:0:0:
320,192,73657,1,0,0:0:0:0:
192,192,73828,1,0,0:0:0:0:
320,192,73828,1,0,0:0:0:0:
320,192,74000,1,0,0:0:0:0:
192,192,74085,1,0,0:0:0:0:
320,192,74171,1,0,0:0:0:0:
64,192,74342,1,0,0:0:0:0:
448,192,74342,1,0,0:0:0:0:
64,192,74514,1,0,0:0:0:0:
448,192,74514,1,0,0:0:0:0:
448,192,74685,128,0,74857:0:0:0:0:
192,192,74685,128,0,75028:0:0:0:0:
320,192,74685,128,0,75028:0:0:0:0:
64,192,74857,128,0,75028:0:0:0:0:
448,192,75028,1,0,0:0:0:0:
192,192,75200,1,0,0:0:0:0:
320,192,75285,1,0,0:0:0:0:
448,192,75371,1,0,0:0:0:0:
320,192,75542,1,0,0:0:0:0:
192,192,75542,1,0,0:0:0:0:
64,192,75714,1,0,0:0:0:0:
192,192,75800,1,0,0:0:0:0:
320,192,75885,1,0,0:0:0:0:
64,192,76057,1,0,0:0:0:0:
192,192,76057,1,0,0:0:0:0:
64,192,76228,1,0,0:0:0:0:
192,192,76228,1,0,0:0:0:0:
320,192,76400,1,0,0:0:0:0:
448,192,76400,1,0,0:0:0:0:
64,192,76571,1,0,0:0:0:0:
192,192,76571,1,0,0:0:0:0:
64,192,76742,1,0,0:0:0:0:
192,192,76828,1,0,0:0:0:0:
320,192,76914,1,0,0:0:0:0:
448,192,77000,1,0,0:0:0:0:
192,192,77085,1,0,0:0:0:0:
64,192,77085,1,0,0:0:0:0:
64,192,77257,1,0,0:0:0:0:
192,192,77257,1,0,0:0:0:0:
64,192,77428,1,0,0:0:0:0:
192,192,77428,1,0,0:0:0:0:
320,192,77771,1,0,0:0:0:0:
192,192,77942,1,0,0:0:0:0:
192,192,78114,1,0,0:0:0:0:
320,192,78200,1,0,0:0:0:0:
448,192,78286,1,0,0:0:0:0:
192,192,78457,1,0,0:0:0:0:
448,192,78457,1,0,0:0:0:0:
192,192,78629,1,0,0:0:0:0:
448,192,78629,1,0,0:0:0:0:
64,192,78800,1,0,0:0:0:0:
320,192,78800,1,0,0:0:0:0:
64,192,78972,1,0,0:0:0:0:
320,192,78972,1,0,0:0:0:0:
320,192,79143,128,0,79229:0:0:0:0:
448,192,79143,128,0,79229:0:0:0:0:
64,192,79314,128,0,79400:0:0:0:0:
192,192,79314,128,0,79400:0:0:0:0:
192,192,79486,1,0,0:0:0:0:
320,192,79486,1,0,0:0:0:0:
64,192,79829,128,0,79914:0:0:0:0:
192,192,79829,128,0,79914:0:0:0:0:
320,192,80000,128,0,80086:0:0:0:0:
448,192,80000,128,0,80086:0:0:0:0:
320,192,80172,128,0,80257:0:0:0:0:
192,192,80172,128,0,80257:0:0:0:0:
448,192,80342,128,0,80428:0:0:0:0:
64,192,80342,128,0,80428:0:0:0:0:
320,192,80513,1,0,0:0:0:0:
192,192,80685,1,0,0:0:0:0:
320,192,80856,1,0,0:0:0:0:
64,192,80856,1,0,0:0:0:0:
320,192,81199,1,0,0:0:0:0:
448,192,81199,1,0,0:0:0:0:
448,192,81371,1,0,0:0:0:0:
320,192,81371,1,0,0:0:0:0:
64,192,81542,1,0,0:0:0:0:
192,192,81542,1,0,0:0:0:0:
64,192,81713,1,0,0:0:0:0:
192,192,81713,1,0,0:0:0:0:
192,192,81885,1,0,0:0:0:0:
448,192,81885,1,0,0:0:0:0:
192,192,82056,1,0,0:0:0:0:
320,192,82056,1,0,0:0:0:0:
64,192,82228,1,0,0:0:0:0:
320,192,82228,1,0,0:0:0:0:
192,192,82399,1,0,0:0:0:0:
64,192,82399,1,0,0:0:0:0:
448,192,82571,1,0,0:0:0:0:
320,192,82571,1,0,0:0:0:0:
192,192,82742,1,0,0:0:0:0:
320,192,82742,1,0,0:0:0:0:
192,192,82913,1,0,0:0:0:0:
64,192,82913,1,0,0:0:0:0:
64,192,83085,1,0,0:0:0:0:
192,192,83085,1,0,0:0:0:0:
320,192,83256,128,0,83428:0:0:0:0:
192,192,83428,1,0,0:0:0:0:
320,192,83599,1,0,0:0:0:0:
448,192,83942,128,0,84113:0:0:0:0:
64,192,84113,1,0,0:0:0:0:
192,192,84113,128,0,84285:0:0:0:0:
448,192,84285,128,0,84456:0:0:0:0:
320,192,84285,1,0,0:0:0:0:
64,192,84456,1,0,0:0:0:0:
192,192,84628,1,0,0:0:0:0:
320,192,84628,1,0,0:0:0:0:
192,192,84800,1,0,0:0:0:0:
320,192,84800,1,0,0:0:0:0:
320,192,84972,1,0,0:0:0:0:
192,192,85057,1,0,0:0:0:0:
320,192,85143,1,0,0:0:0:0:
64,192,85314,1,0,0:0:0:0:
448,192,85314,1,0,0:0:0:0:
448,192,85486,1,0,0:0:0:0:
64,192,85486,1,0,0:0:0:0:
448,192,85657,128,0,85829:0:0:0:0:
192,192,85657,128,0,86000:0:0:0:0:
320,192,85657,128,0,86000:0:0:0:0:
64,192,85829,128,0,86000:0:0:0:0:
448,192,86000,1,0,0:0:0:0:
192,192,86172,1,0,0:0:0:0:
320,192,86257,1,0,0:0:0:0:
448,192,86343,1,0,0:0:0:0:
320,192,86514,1,0,0:0:0:0:
192,192,86514,1,0,0:0:0:0:
64,192,86686,1,0,0:0:0:0:
192,192,86772,1,0,0:0:0:0:
320,192,86857,1,0,0:0:0:0:
64,192,87029,1,0,0:0:0:0:
192,192,87029,1,0,0:0:0:0:
192,192,87200,1,0,0:0:0:0:
64,192,87200,1,0,0:0:0:0:
448,192,87372,1,0,0:0:0:0:
320,192,87372,1,0,0:0:0:0:
192,192,87457,1,0,0:0:0:0:
64,192,87542,1,0,0:0:0:0:
448,192,87542,1,0,0:0:0:0:
320,192,87628,1,0,0:0:0:0:
192,192,87714,1,0,0:0:0:0:
64,192,87800,1,0,0:0:0:0:
448,192,87800,1,0,0:0:0:0:
320,192,87885,1,0,0:0:0:0:
192,192,87971,1,0,0:0:0:0:
64,192,88057,1,0,0:0:0:0:
448,192,88057,1,0,0:0:0:0:
320,192,88142,1,0,0:0:0:0:
192,192,88228,1,0,0:0:0:0:
64,192,88314,1,0,0:0:0:0:
448,192,88314,1,0,0:0:0:0:
320,192,88400,1,0,0:0:0:0:
192,192,88485,1,0,0:0:0:0:
64,192,88571,1,0,0:0:0:0:
448,192,88571,1,0,0:0:0:0:
320,192,88657,1,0,0:0:0:0:
64,192,88742,1,0,0:0:0:0:
192,192,88742,1,0,0:0:0:0:
192,192,89085,1,0,0:0:0:0:
320,192,89085,1,0,0:0:0:0:
192,192,89428,1,0,0:0:0:0:
448,192,89428,1,0,0:0:0:0:
64,192,89600,1,0,0:0:0:0:
448,192,89600,1,0,0:0:0:0:
192,192,89771,1,0,0:0:0:0:
448,192,89771,1,0,0:0:0:0:
192,192,90114,1,0,0:0:0:0:
320,192,90114,1,0,0:0:0:0:
192,192,90285,1,0,0:0:0:0:
320,192,90285,1,0,0:0:0:0:
448,192,90457,1,0,0:0:0:0:
64,192,90457,1,0,0:0:0:0:
448,192,90800,1,0,0:0:0:0:
192,192,90800,1,0,0:0:0:0:
320,192,90971,1,0,0:0:0:0:
448,192,91142,1,0,0:0:0:0:
320,192,91228,1,0,0:0:0:0:
192,192,91314,1,0,0:0:0:0:
64,192,91400,1,0,0:0:0:0:
448,192,91485,1,0,0:0:0:0:
192,192,91828,1,0,0:0:0:0:
64,192,91828,1,0,0:0:0:0:
448,192,92171,128,0,92342:0:0:0:0:
320,192,92171,1,0,0:0:0:0:
320,192,92342,128,0,92514:0:0:0:0:
192,192,92342,1,0,0:0:0:0:
192,192,92514,128,0,92685:0:0:0:0:
64,192,92514,1,0,0:0:0:0:
320,192,92685,1,0,0:0:0:0:
448,192,92857,1,0,0:0:0:0:
64,192,92857,1,0,0:0:0:0:
192,192,93028,1,0,0:0:0:0:
320,192,93028,1,0,0:0:0:0:
64,192,93200,1,0,0:0:0:0:
448,192,93200,1,0,0:0:0:0:
448,192,93542,128,0,93714:0:0:0:0:
320,192,93542,1,0,0:0:0:0:
320,192,93714,128,0,93885:0:0:0:0:
192,192,93714,1,0,0:0:0:0:
192,192,93885,128,0,94057:0:0:0:0:
64,192,93885,1,0,0:0:0:0:
448,192,93885,1,0,0:0:0:0:
64,192,94057,128,0,94228:0:0:0:0:
320,192,94057,1,0,0:0:0:0:
448,192,94228,1,0,0:0:0:0:
192,192,94571,1,0,0:0:0:0:
320,192,94571,1,0,0:0:0:0:
192,192,94914,1,0,0:0:0:0:
448,192,95085,1,0,0:0:0:0:
192,192,95257,1,0,0:0:0:0:
64,192,95600,1,0,0:0:0:0:
448,192,95600,1,0,0:0:0:0:
192,192,95771,1,0,0:0:0:0:
320,192,95771,1,0,0:0:0:0:
448,192,95942,1,0,0:0:0:0:
320,192,96028,1,0,0:0:0:0:
192,192,96114,1,0,0:0:0:0:
64,192,96200,1,0,0:0:0:0:
448,192,96285,128,0,96971:0:0:0:0:
64,192,96457,128,0,96971:0:0:0:0:
320,192,96628,128,0,96971:0:0:0:0:
192,192,96800,128,0,96971:0:0:0:0:
192,192,97314,1,0,0:0:0:0:
320,192,97314,1,0,0:0:0:0:
320,192,97657,1,0,0:0:0:0:
448,192,97657,128,0,97829:0:0:0:0:
320,192,97829,128,0,98000:0:0:0:0:
192,192,97829,1,0,0:0:0:0:
448,192,98000,1,0,0:0:0:0:
192,192,98000,128,0,98172:0:0:0:0:
64,192,98000,1,0,0:0:0:0:
320,192,98172,1,0,0:0:0:0:
64,192,98172,128,0,98343:0:0:0:0:
448,192,98342,1,0,0:0:0:0:
320,192,98514,1,0,0:0:0:0:
192,192,98685,1,0,0:0:0:0:
64,192,98857,1,0,0:0:0:0:
192,192,99028,1,0,0:0:0:0:
448,192,99028,1,0,0:0:0:0:
192,192,99200,1,0,0:0:0:0:
448,192,99200,1,0,0:0:0:0:
192,192,99371,128,0,99714:0:0:0:0:
448,192,99371,128,0,99714:0:0:0:0:
64,192,99714,1,0,0:0:0:0:
320,192,99714,1,0,0:0:0:0:
192,192,100057,1,0,0:0:0:0:
320,192,100057,1,0,0:0:0:0:
192,192,100400,1,0,0:0:0:0:
448,192,100400,1,0,0:0:0:0:
320,192,100571,1,0,0:0:0:0:
64,192,100572,1,0,0:0:0:0:
320,192,100742,1,0,0:0:0:0:
64,192,100742,1,0,0:0:0:0:
320,192,101086,1,0,0:0:0:0:
64,192,101086,1,0,0:0:0:0:
448,192,101257,1,0,0:0:0:0:
192,192,101257,1,0,0:0:0:0:
448,192,101428,1,0,0:0:0:0:
192,192,101428,1,0,0:0:0:0:
448,192,101771,1,0,0:0:0:0:
64,192,101771,1,0,0:0:0:0:
64,192,101942,1,0,0:0:0:0:
448,192,102113,1,0,0:0:0:0:
320,192,102199,1,0,0:0:0:0:
192,192,102285,1,0,0:0:0:0:
64,192,102371,1,0,0:0:0:0:
448,192,102456,1,0,0:0:0:0:
64,192,102799,1,0,0:0:0:0:
192,192,102799,1,0,0:0:0:0:
448,192,103142,128,0,103313:0:0:0:0:
320,192,103142,1,0,0:0:0:0:
192,192,103313,1,0,0:0:0:0:
320,192,103313,128,0,103485:0:0:0:0:
192,192,103485,128,0,103656:0:0:0:0:
64,192,103485,1,0,0:0:0:0:
320,192,103656,1,0,0:0:0:0:
64,192,103828,1,0,0:0:0:0:
448,192,103828,1,0,0:0:0:0:
192,192,103999,1,0,0:0:0:0:
320,192,103999,1,0,0:0:0:0:
64,192,104171,1,0,0:0:0:0:
448,192,104171,1,0,0:0:0:0:
64,192,104514,128,0,104685:0:0:0:0:
192,192,104514,1,0,0:0:0:0:
320,192,104685,1,0,0:0:0:0:
192,192,104685,128,0,104857:0:0:0:0:
320,192,104857,128,0,105028:0:0:0:0:
64,192,104857,1,0,0:0:0:0:
448,192,105028,128,0,105200:0:0:0:0:
192,192,105028,1,0,0:0:0:0:
64,192,105200,1,0,0:0:0:0:
320,192,105543,1,0,0:0:0:0:
192,192,105543,1,0,0:0:0:0:
448,192,105885,1,0,0:0:0:0:
320,192,106057,1,0,0:0:0:0:
192,192,106229,1,0,0:0:0:0:
320,192,106571,1,0,0:0:0:0:
64,192,106571,1,0,0:0:0:0:
64,192,106742,1,0,0:0:0:0:
320,192,106742,1,0,0:0:0:0:
192,192,106914,1,0,0:0:0:0:
320,192,107000,1,0,0:0:0:0:
448,192,107085,1,0,0:0:0:0:
192,192,107257,1,0,0:0:0:0:
448,192,107257,1,0,0:0:0:0:
192,192,107428,1,0,0:0:0:0:
448,192,107428,1,0,0:0:0:0:
64,192,107600,128,0,107942:0:0:0:0:
320,192,107600,128,0,107942:0:0:0:0:
192,192,107771,128,0,107942:0:0:0:0:
448,192,107771,128,0,107942:0:0:0:0:
64,192,108114,1,0,0:0:0:0:
192,192,108200,1,0,0:0:0:0:
320,192,108285,1,0,0:0:0:0:
448,192,108371,1,0,0:0:0:0:
64,192,108457,1,0,0:0:0:0:
192,192,108542,1,0,0:0:0:0:
320,192,108628,1,0,0:0:0:0:
448,192,108714,1,0,0:0:0:0:
64,192,108800,1,0,0:0:0:0:
192,192,108885,1,0,0:0:0:0:
320,192,108971,1,0,0:0:0:0:
448,192,109057,1,0,0:0:0:0:
192,192,109142,1,0,0:0:0:0:
320,192,109228,1,0,0:0:0:0:
448,192,109314,128,0,110685:0:0:0:0:
64,192,110685,128,0,112057:0:0:0:0:
192,192,110857,1,0,0:0:0:0:
192,192,111028,1,0,0:0:0:0:
320,192,111028,1,0,0:0:0:0:
192,192,111371,1,0,0:0:0:0:
320,192,111457,1,0,0:0:0:0:
448,192,111542,1,0,0:0:0:0:
320,192,111628,1,0,0:0:0:0:
448,192,111885,1,0,0:0:0:0:
448,192,112057,128,0,113428:0:0:0:0:
192,192,112228,1,0,0:0:0:0:
320,192,112400,1,0,0:0:0:0:
192,192,112400,1,0,0:0:0:0:
320,192,112742,1,0,0:0:0:0:
192,192,113000,1,0,0:0:0:0:
64,192,113257,1,0,0:0:0:0:
192,192,113428,128,0,114800:0:0:0:0:
320,192,113600,1,0,0:0:0:0:
64,192,113771,1,0,0:0:0:0:
320,192,113771,1,0,0:0:0:0:
64,192,114114,1,0,0:0:0:0:
320,192,114200,1,0,0:0:0:0:
448,192,114285,1,0,0:0:0:0:
320,192,114371,1,0,0:0:0:0:
448,192,114628,1,0,0:0:0:0:
64,192,114800,128,0,115485:0:0:0:0:
320,192,114971,1,0,0:0:0:0:
320,192,115142,1,0,0:0:0:0:
448,192,115142,1,0,0:0:0:0:
192,192,115485,128,0,116171:0:0:0:0:
448,192,115485,1,0,0:0:0:0:
320,192,115742,1,0,0:0:0:0:
64,192,116000,1,0,0:0:0:0:
448,192,116171,128,0,117542:0:0:0:0:
64,192,116342,1,0,0:0:0:0:
64,192,116514,1,0,0:0:0:0:
192,192,116514,1,0,0:0:0:0:
64,192,116857,1,0,0:0:0:0:
192,192,116942,1,0,0:0:0:0:
320,192,117028,1,0,0:0:0:0:
192,192,117114,1,0,0:0:0:0:
320,192,117371,1,0,0:0:0:0:
64,192,117542,128,0,118914:0:0:0:0:
320,192,117714,1,0,0:0:0:0:
192,192,117885,1,0,0:0:0:0:
448,192,117885,1,0,0:0:0:0:
320,192,118228,1,0,0:0:0:0:
448,192,118485,1,0,0:0:0:0:
192,192,118485,1,0,0:0:0:0:
320,192,118742,1,0,0:0:0:0:
448,192,118914,128,0,120285:0:0:0:0:
192,192,119085,1,0,0:0:0:0:
64,192,119257,1,0,0:0:0:0:
320,192,119257,1,0,0:0:0:0:
64,192,119600,1,0,0:0:0:0:
192,192,119685,1,0,0:0:0:0:
320,192,119771,1,0,0:0:0:0:
192,192,119857,1,0,0:0:0:0:
64,192,120114,1,0,0:0:0:0:
192,192,120285,128,0,120971:0:0:0:0:
320,192,120457,1,0,0:0:0:0:
448,192,120628,1,0,0:0:0:0:
64,192,120971,128,0,121657:0:0:0:0:
320,192,120971,1,0,0:0:0:0:
448,192,121228,1,0,0:0:0:0:
320,192,121485,1,0,0:0:0:0:
192,192,121657,128,0,123028:0:0:0:0:
448,192,121828,1,0,0:0:0:0:
64,192,122000,1,0,0:0:0:0:
64,192,122342,1,0,0:0:0:0:
320,192,122428,1,0,0:0:0:0:
448,192,122514,1,0,0:0:0:0:
64,192,122600,1,0,0:0:0:0:
320,192,122857,1,0,0:0:0:0:
448,192,123028,128,0,124400:0:0:0:0:
320,192,123200,1,0,0:0:0:0:
64,192,123371,1,0,0:0:0:0:
320,192,123371,1,0,0:0:0:0:
192,192,123714,1,0,0:0:0:0:
192,192,123971,1,0,0:0:0:0:
192,192,124228,1,0,0:0:0:0:
320,192,124400,128,0,125771:0:0:0:0:
64,192,124571,1,0,0:0:0:0:
64,192,124742,1,0,0:0:0:0:
192,192,124742,1,0,0:0:0:0:
64,192,125085,1,0,0:0:0:0:
192,192,125171,1,0,0:0:0:0:
448,192,125257,1,0,0:0:0:0:
64,192,125342,1,0,0:0:0:0:
448,192,125600,1,0,0:0:0:0:
64,192,125771,128,0,126457:0:0:0:0:
448,192,125942,1,0,0:0:0:0:
192,192,126114,1,0,0:0:0:0:
320,192,126114,1,0,0:0:0:0:
448,192,126457,128,0,127142:0:0:0:0:
320,192,126457,1,0,0:0:0:0:
192,192,126714,1,0,0:0:0:0:
320,192,126971,1,0,0:0:0:0:
64,192,127142,128,0,128514:0:0:0:0:
320,192,127314,1,0,0:0:0:0:
320,192,127485,1,0,0:0:0:0:
448,192,127485,1,0,0:0:0:0:
192,192,127828,1,0,0:0:0:0:
320,192,127914,1,0,0:0:0:0:
448,192,128000,1,0,0:0:0:0:
192,192,128085,1,0,0:0:0:0:
320,192,128342,1,0,0:0:0:0:
448,192,128514,128,0,129885:0:0:0:0:
192,192,128685,1,0,0:0:0:0:
192,192,128857,1,0,0:0:0:0:
192,192,129200,1,0,0:0:0:0:
64,192,129457,1,0,0:0:0:0:
320,192,129714,1,0,0:0:0:0:
192,192,129885,128,0,131257:0:0:0:0:
64,192,130057,1,0,0:0:0:0:
64,192,130228,1,0,0:0:0:0:
448,192,130228,1,0,0:0:0:0:
448,192,130571,1,0,0:0:0:0:
320,192,130657,1,0,0:0:0:0:
64,192,130742,1,0,0:0:0:0:
448,192,130828,1,0,0:0:0:0:
320,192,131085,1,0,0:0:0:0:
64,192,131257,128,0,131942:0:0:0:0:
448,192,131428,1,0,0:0:0:0:
192,192,131600,1,0,0:0:0:0:
320,192,131942,128,0,132628:0:0:0:0:
192,192,131942,1,0,0:0:0:0:
192,192,132285,1,0,0:0:0:0:
64,192,132628,1,0,0:0:0:0:
448,192,132628,1,0,0:0:0:0:
320,192,132971,1,0,0:0:0:0:
64,192,133314,1,0,0:0:0:0:
192,192,133485,1,0,0:0:0:0:
320,192,133657,1,0,0:0:0:0:
448,192,133828,1,0,0:0:0:0:
64,192,134000,1,0,0:0:0:0:
320,192,134000,1,0,0:0:0:0:
192,192,134342,1,0,0:0:0:0:
448,192,134342,1,0,0:0:0:0:
64,192,134685,1,0,0:0:0:0:
320,192,134685,1,0,0:0:0:0:
192,192,135028,1,0,0:0:0:0:
448,192,135028,1,0,0:0:0:0:
448,192,135371,1,0,0:0:0:0:
64,192,135371,1,0,0:0:0:0:
448,192,135714,1,0,0:0:0:0:
64,192,135714,1,0,0:0:0:0:
448,192,136057,1,0,0:0:0:0:
320,192,136228,1,0,0:0:0:0:
192,192,136400,1,0,0:0:0:0:
64,192,136571,1,0,0:0:0:0:
192,192,136742,1,0,0:0:0:0:
448,192,136742,1,0,0:0:0:0:
64,192,137085,1,0,0:0:0:0:
320,192,137085,1,0,0:0:0:0:
192,192,137428,1,0,0:0:0:0:
448,192,137428,1,0,0:0:0:0:
64,192,137771,1,0,0:0:0:0:
320,192,137771,1,0,0:0:0:0:
192,192,138114,1,0,0:0:0:0:
320,192,138114,1,0,0:0:0:0:
64,192,138457,1,0,0:0:0:0:
448,192,138457,1,0,0:0:0:0:
192,192,138800,1,0,0:0:0:0:
320,192,138971,1,0,0:0:0:0:
192,192,139142,1,0,0:0:0:0:
320,192,139314,1,0,0:0:0:0:
64,192,139485,1,0,0:0:0:0:
448,192,139485,1,0,0:0:0:0:
192,192,139828,1,0,0:0:0:0:
320,192,139828,1,0,0:0:0:0:
64,192,140171,1,0,0:0:0:0:
448,192,140171,1,0,0:0:0:0:
192,192,140514,1,0,0:0:0:0:
320,192,140514,1,0,0:0:0:0:
64,192,140857,1,0,0:0:0:0:
320,192,140857,1,0,0:0:0:0:
448,192,140857,1,0,0:0:0:0:
448,192,141200,1,0,0:0:0:0:
64,192,141200,1,0,0:0:0:0:
320,192,141200,1,0,0:0:0:0:
192,192,141542,1,0,0:0:0:0:
64,192,141714,1,0,0:0:0:0:
192,192,141885,1,0,0:0:0:0:
320,192,142057,1,0,0:0:0:0:
448,192,142228,1,0,0:0:0:0:
64,192,142571,1,0,0:0:0:0:
192,192,142571,1,0,0:0:0:0:
192,192,142914,1,0,0:0:0:0:
320,192,142914,1,0,0:0:0:0:
320,192,143257,1,0,0:0:0:0:
448,192,143257,1,0,0:0:0:0:
64,192,143600,1,0,0:0:0:0:
448,192,143600,1,0,0:0:0:0:
320,192,143685,1,0,0:0:0:0:
192,192,143771,1,0,0:0:0:0:
64,192,143857,1,0,0:0:0:0:
448,192,143942,1,0,0:0:0:0:
320,192,144028,1,0,0:0:0:0:
192,192,144114,1,0,0:0:0:0:
64,192,144200,1,0,0:0:0:0:
448,192,144285,1,0,0:0:0:0:
320,192,144371,1,0,0:0:0:0:
192,192,144457,1,0,0:0:0:0:
64,192,144543,1,0,0:0:0:0:
448,192,144628,1,0,0:0:0:0:
320,192,144714,1,0,0:0:0:0:
192,192,144800,1,0,0:0:0:0:
64,192,144886,1,0,0:0:0:0:
448,192,144971,1,0,0:0:0:0:
320,192,145057,1,0,0:0:0:0:
192,192,145143,1,0,0:0:0:0:
64,192,145229,1,0,0:0:0:0:
448,192,145314,1,0,0:0:0:0:
320,192,145400,1,0,0:0:0:0:
192,192,145486,1,0,0:0:0:0:
64,192,145572,1,0,0:0:0:0:
448,192,145657,1,0,0:0:0:0:
320,192,145743,1,0,0:0:0:0:
192,192,145829,1,0,0:0:0:0:
64,192,145915,1,0,0:0:0:0:
448,192,146000,1,0,0:0:0:0:
320,192,146086,1,0,0:0:0:0:
192,192,146172,1,0,0:0:0:0:
64,192,146258,1,0,0:0:0:0:
320,192,146342,1,0,0:0:0:0:
448,192,146342,1,0,0:0:0:0:
64,192,146342,1,0,0:0:0:0:
192,192,146428,1,0,0:0:0:0:
320,192,146514,1,0,0:0:0:0:
448,192,146600,1,0,0:0:0:0:
64,192,146685,1,0,0:0:0:0:
192,192,146771,1,0,0:0:0:0:
320,192,146857,1,0,0:0:0:0:
448,192,146942,1,0,0:0:0:0:
64,192,147028,1,0,0:0:0:0:
192,192,147114,1,0,0:0:0:0:
320,192,147200,1,0,0:0:0:0:
448,192,147285,1,0,0:0:0:0:
64,192,147371,1,0,0:0:0:0:
192,192,147457,1,0,0:0:0:0:
320,192,147543,1,0,0:0:0:0:
448,192,147628,1,0,0:0:0:0:
64,192,147714,1,0,0:0:0:0:
192,192,147800,1,0,0:0:0:0:
320,192,147886,1,0,0:0:0:0:
448,192,147971,1,0,0:0:0:0:
64,192,148057,1,0,0:0:0:0:
192,192,148143,1,0,0:0:0:0:
320,192,148229,1,0,0:0:0:0:
448,192,148314,1,0,0:0:0:0:
64,192,148400,1,0,0:0:0:0:
192,192,148486,1,0,0:0:0:0:
320,192,148572,1,0,0:0:0:0:
448,192,148657,1,0,0:0:0:0:
64,192,148742,1,0,0:0:0:0:
192,192,148828,1,0,0:0:0:0:
320,192,148914,1,0,0:0:0:0:
448,192,148999,1,0,0:0:0:0:
64,192,149085,1,0,0:0:0:0:
192,192,149085,1,0,0:0:0:0:
320,192,149171,1,0,0:0:0:0:
192,192,149257,1,0,0:0:0:0:
320,192,149342,1,0,0:0:0:0:
192,192,149428,1,0,0:0:0:0:
320,192,149514,1,0,0:0:0:0:
192,192,149600,1,0,0:0:0:0:
320,192,149685,1,0,0:0:0:0:
192,192,149771,1,0,0:0:0:0:
320,192,149857,1,0,0:0:0:0:
192,192,149943,1,0,0:0:0:0:
320,192,150028,1,0,0:0:0:0:
192,192,150114,1,0,0:0:0:0:
320,192,150200,1,0,0:0:0:0:
192,192,150286,1,0,0:0:0:0:
320,192,150371,1,0,0:0:0:0:
64,192,150457,1,0,0:0:0:0:
448,192,150457,1,0,0:0:0:0:
448,192,150542,1,0,0:0:0:0:
64,192,150628,1,0,0:0:0:0:
448,192,150714,1,0,0:0:0:0:
64,192,150800,1,0,0:0:0:0:
448,192,150885,1,0,0:0:0:0:
64,192,150971,1,0,0:0:0:0:
448,192,151057,1,0,0:0:0:0:
64,192,151142,1,0,0:0:0:0:
448,192,151227,1,0,0:0:0:0:
64,192,151313,1,0,0:0:0:0:
448,192,151400,1,0,0:0:0:0:
64,192,151485,1,0,0:0:0:0:
192,192,151528,1,0,0:0:0:0:
320,192,151571,1,0,0:0:0:0:
448,192,151614,1,0,0:0:0:0:
64,192,151657,1,0,0:0:0:0:
192,192,151700,1,0,0:0:0:0:
320,192,151742,1,0,0:0:0:0:
448,192,151785,1,0,0:0:0:0:
64,192,151828,1,0,0:0:0:0:
448,192,151828,1,0,0:0:0:0:
192,192,152171,1,0,0:0:0:0:
320,192,152171,1,0,0:0:0:0:
64,192,152514,1,0,0:0:0:0:
192,192,152514,1,0,0:0:0:0:
192,192,152685,1,0,0:0:0:0:
320,192,152685,1,0,0:0:0:0:
320,192,152857,1,0,0:0:0:0:
448,192,152857,1,0,0:0:0:0:
64,192,153028,1,0,0:0:0:0:
192,192,153028,1,0,0:0:0:0:
448,192,153200,128,0,153542:0:0:0:0:
320,192,153200,1,0,0:0:0:0:
320,192,153542,128,0,153885:0:0:0:0:
192,192,153542,1,0,0:0:0:0:
192,192,153885,128,0,154228:0:0:0:0:
64,192,153885,1,0,0:0:0:0:
64,192,154228,1,0,0:0:0:0:
192,192,154314,1,0,0:0:0:0:
320,192,154400,1,0,0:0:0:0:
448,192,154485,1,0,0:0:0:0:
64,192,154571,128,0,154828:0:0:0:0:
448,192,154828,1,0,0:0:0:0:
320,192,155085,128,0,155342:0:0:0:0:
64,192,155342,1,0,0:0:0:0:
448,192,155600,1,0,0:0:0:0:
320,192,155685,1,0,0:0:0:0:
192,192,155771,1,0,0:0:0:0:
64,192,155857,1,0,0:0:0:0:
448,192,155942,128,0,156200:0:0:0:0:
320,192,156200,1,0,0:0:0:0:
320,192,156457,128,0,156714:0:0:0:0:
448,192,156714,1,0,0:0:0:0:
64,192,156971,1,0,0:0:0:0:
192,192,156971,1,0,0:0:0:0:
192,192,157142,1,0,0:0:0:0:
320,192,157142,1,0,0:0:0:0:
320,192,157314,1,0,0:0:0:0:
448,192,157314,1,0,0:0:0:0:
64,192,157314,128,0,157571:0:0:0:0:
192,192,157571,1,0,0:0:0:0:
192,192,157828,128,0,158085:0:0:0:0:
64,192,158085,1,0,0:0:0:0:
448,192,158342,1,0,0:0:0:0:
320,192,158428,1,0,0:0:0:0:
192,192,158514,1,0,0:0:0:0:
64,192,158600,1,0,0:0:0:0:
448,192,158685,128,0,158942:0:0:0:0:
320,192,158942,128,0,159200:0:0:0:0:
192,192,159200,128,0,159457:0:0:0:0:
64,192,159457,128,0,159714:0:0:0:0:
448,192,159714,1,0,0:0:0:0:
320,192,159885,1,0,0:0:0:0:
192,192,160057,1,0,0:0:0:0:
64,192,160057,128,0,160314:0:0:0:0:
448,192,160314,1,0,0:0:0:0:
448,192,160571,128,0,160828:0:0:0:0:
64,192,160828,1,0,0:0:0:0:
192,192,161085,1,0,0:0:0:0:
320,192,161085,1,0,0:0:0:0:
448,192,161171,1,0,0:0:0:0:
64,192,161171,1,0,0:0:0:0:
192,192,161257,1,0,0:0:0:0:
320,192,161257,1,0,0:0:0:0:
448,192,161342,1,0,0:0:0:0:
64,192,161342,1,0,0:0:0:0:
192,192,161428,1,0,0:0:0:0:
320,192,161428,128,0,161685:0:0:0:0:
192,192,161685,1,0,0:0:0:0:
192,192,161942,128,0,162200:0:0:0:0:
320,192,162200,1,0,0:0:0:0:
320,192,162457,1,0,0:0:0:0:
448,192,162457,1,0,0:0:0:0:
320,192,162628,1,0,0:0:0:0:
192,192,162628,1,0,0:0:0:0:
64,192,162800,1,0,0:0:0:0:
192,192,162800,128,0,163057:0:0:0:0:
448,192,163057,1,0,0:0:0:0:
320,192,163314,128,0,163571:0:0:0:0:
192,192,163571,1,0,0:0:0:0:
192,192,163828,1,0,0:0:0:0:
320,192,163914,1,0,0:0:0:0:
192,192,164000,1,0,0:0:0:0:
64,192,164085,1,0,0:0:0:0:
448,192,164171,128,0,164514:0:0:0:0:
320,192,164514,1,0,0:0:0:0:
448,192,164685,1,0,0:0:0:0:
64,192,164685,1,0,0:0:0:0:
320,192,164942,1,0,0:0:0:0:
192,192,164942,1,0,0:0:0:0:
448,192,165200,1,0,0:0:0:0:
320,192,165371,1,0,0:0:0:0:
64,192,165542,128,0,165800:0:0:0:0:
192,192,165542,1,0,0:0:0:0:
192,192,165800,128,0,166057:0:0:0:0:
320,192,165800,1,0,0:0:0:0:
320,192,166057,128,0,166314:0:0:0:0:
448,192,166057,1,0,0:0:0:0:
64,192,166057,1,0,0:0:0:0:
448,192,166314,128,0,166571:0:0:0:0:
192,192,166314,1,0,0:0:0:0:
320,192,166571,1,0,0:0:0:0:
64,192,166571,1,0,0:0:0:0:
192,192,166657,1,0,0:0:0:0:
320,192,166742,1,0,0:0:0:0:
448,192,166828,1,0,0:0:0:0:
192,192,166914,128,0,167171:0:0:0:0:
320,192,167171,128,0,167428:0:0:0:0:
448,192,167428,128,0,167685:0:0:0:0:
64,192,167685,128,0,167942:0:0:0:0:
448,192,167942,128,0,168114:0:0:0:0:
320,192,167942,128,0,168285:0:0:0:0:
192,192,168114,128,0,168285:0:0:0:0:
64,192,168285,128,0,168542:0:0:0:0:
320,192,168542,1,0,0:0:0:0:
192,192,168800,128,0,169057:0:0:0:0:
448,192,169057,1,0,0:0:0:0:
64,192,169314,1,0,0:0:0:0:
320,192,169400,1,0,0:0:0:0:
192,192,169485,1,0,0:0:0:0:
448,192,169571,1,0,0:0:0:0:
64,192,169657,128,0,169914:0:0:0:0:
192,192,169914,1,0,0:0:0:0:
448,192,170171,128,0,170428:0:0:0:0:
320,192,170428,1,0,0:0:0:0:
192,192,170685,1,0,0:0:0:0:
320,192,170685,1,0,0:0:0:0:
64,192,170857,1,0,0:0:0:0:
448,192,170857,1,0,0:0:0:0:
192,192,171028,1,0,0:0:0:0:
320,192,171028,1,0,0:0:0:0:
448,192,171028,1,0,0:0:0:0:
320,192,171200,1,0,0:0:0:0:
64,192,171200,1,0,0:0:0:0:
192,192,171371,1,0,0:0:0:0:
320,192,171371,1,0,0:0:0:0:
448,192,171371,1,0,0:0:0:0:
64,192,171542,1,0,0:0:0:0:
320,192,171542,1,0,0:0:0:0:
320,192,171714,1,0,0:0:0:0:
448,192,171714,1,0,0:0:0:0:
192,192,171714,1,0,0:0:0:0:
64,192,171886,1,0,0:0:0:0:
320,192,171886,1,0,0:0:0:0:
448,192,172057,1,0,0:0:0:0:
192,192,172057,1,0,0:0:0:0:
320,192,172057,1,0,0:0:0:0:
320,192,172228,1,0,0:0:0:0:
64,192,172228,1,0,0:0:0:0:
64,192,172400,1,0,0:0:0:0:
192,192,172400,1,0,0:0:0:0:
320,192,172400,1,0,0:0:0:0:
192,192,172571,1,0,0:0:0:0:
448,192,172571,1,0,0:0:0:0:
64,192,172742,1,0,0:0:0:0:
192,192,172742,1,0,0:0:0:0:
320,192,172742,1,0,0:0:0:0:
192,192,172913,1,0,0:0:0:0:
448,192,172913,1,0,0:0:0:0:
320,192,173085,1,0,0:0:0:0:
192,192,173085,1,0,0:0:0:0:
64,192,173085,1,0,0:0:0:0:
448,192,173256,1,0,0:0:0:0:
192,192,173256,1,0,0:0:0:0:
64,192,173428,1,0,0:0:0:0:
192,192,173428,1,0,0:0:0:0:
320,192,173428,1,0,0:0:0:0:
192,192,173599,1,0,0:0:0:0:
448,192,173599,1,0,0:0:0:0:
320,192,173771,1,0,0:0:0:0:
64,192,173771,1,0,0:0:0:0:
192,192,173857,1,0,0:0:0:0:
320,192,173942,1,0,0:0:0:0:
448,192,174028,1,0,0:0:0:0:
64,192,174114,1,0,0:0:0:0:
192,192,174200,1,0,0:0:0:0:
320,192,174285,1,0,0:0:0:0:
448,192,174371,1,0,0:0:0:0:
64,192,174457,1,0,0:0:0:0:
192,192,174543,1,0,0:0:0:0:
320,192,174628,1,0,0:0:0:0:
448,192,174714,1,0,0:0:0:0:
64,192,174800,1,0,0:0:0:0:
192,192,174886,1,0,0:0:0:0:
320,192,174971,1,0,0:0:0:0:
448,192,175057,1,0,0:0:0:0:
64,192,175142,128,0,175400:0:0:0:0:
192,192,175400,128,0,175657:0:0:0:0:
320,192,175657,128,0,175914:0:0:0:0:
64,192,175914,128,0,176514:0:0:0:0:
448,192,175914,128,0,176514:0:0:0:0:
192,192,176171,128,0,176514:0:0:0:0:
320,192,176171,128,0,176514:0:0:0:0:
192,192,176857,1,0,0:0:0:0:
320,192,176857,1,0,0:0:0:0:
448,192,177200,1,0,0:0:0:0:
192,192,177200,1,0,0:0:0:0:
64,192,177372,1,0,0:0:0:0:
448,192,177372,1,0,0:0:0:0:
192,192,177543,1,0,0:0:0:0:
448,192,177543,1,0,0:0:0:0:
192,192,177886,1,0,0:0:0:0:
320,192,177886,1,0,0:0:0:0:
192,192,178057,1,0,0:0:0:0:
320,192,178057,1,0,0:0:0:0:
448,192,178229,1,0,0:0:0:0:
64,192,178229,1,0,0:0:0:0:
448,192,178572,1,0,0:0:0:0:
192,192,178572,1,0,0:0:0:0:
320,192,178743,1,0,0:0:0:0:
448,192,178914,1,0,0:0:0:0:
320,192,179000,1,0,0:0:0:0:
192,192,179086,1,0,0:0:0:0:
64,192,179172,1,0,0:0:0:0:
448,192,179257,1,0,0:0:0:0:
192,192,179600,1,0,0:0:0:0:
64,192,179600,1,0,0:0:0:0:
448,192,179943,128,0,180114:0:0:0:0:
320,192,179943,1,0,0:0:0:0:
192,192,180114,1,0,0:0:0:0:
320,192,180114,128,0,180286:0:0:0:0:
64,192,180286,1,0,0:0:0:0:
192,192,180286,128,0,180457:0:0:0:0:
320,192,180457,1,0,0:0:0:0:
448,192,180629,1,0,0:0:0:0:
64,192,180629,1,0,0:0:0:0:
320,192,180800,1,0,0:0:0:0:
192,192,180800,1,0,0:0:0:0:
64,192,180972,1,0,0:0:0:0:
448,192,180972,1,0,0:0:0:0:
64,192,181314,1,0,0:0:0:0:
448,192,181314,128,0,181485:0:0:0:0:
320,192,181314,128,0,181657:0:0:0:0:
192,192,181485,128,0,181657:0:0:0:0:
64,192,181657,1,0,0:0:0:0:
448,192,181657,1,0,0:0:0:0:
64,192,182000,1,0,0:0:0:0:
448,192,182000,1,0,0:0:0:0:
192,192,182343,1,0,0:0:0:0:
448,192,182428,1,0,0:0:0:0:
192,192,182686,1,0,0:0:0:0:
448,192,182686,1,0,0:0:0:0:
320,192,182857,1,0,0:0:0:0:
448,192,183029,1,0,0:0:0:0:
192,192,183029,1,0,0:0:0:0:
448,192,183371,1,0,0:0:0:0:
192,192,183372,1,0,0:0:0:0:
320,192,183543,1,0,0:0:0:0:
64,192,183715,1,0,0:0:0:0:
448,192,183715,1,0,0:0:0:0:
192,192,184058,1,0,0:0:0:0:
448,192,184058,1,0,0:0:0:0:
320,192,184229,1,0,0:0:0:0:
64,192,184400,1,0,0:0:0:0:
448,192,184485,1,0,0:0:0:0:
320,192,184571,1,0,0:0:0:0:
192,192,184657,1,0,0:0:0:0:
448,192,184743,1,0,0:0:0:0:
64,192,185086,1,0,0:0:0:0:
192,192,185086,1,0,0:0:0:0:
320,192,185429,1,0,0:0:0:0:
448,192,185429,128,0,185600:0:0:0:0:
320,192,185600,128,0,185772:0:0:0:0:
192,192,185600,1,0,0:0:0:0:
192,192,185772,128,0,185943:0:0:0:0:
64,192,185772,1,0,0:0:0:0:
320,192,185943,1,0,0:0:0:0:
64,192,186115,1,0,0:0:0:0:
448,192,186115,1,0,0:0:0:0:
192,192,186286,1,0,0:0:0:0:
320,192,186286,1,0,0:0:0:0:
448,192,186458,1,0,0:0:0:0:
64,192,186458,1,0,0:0:0:0:
192,192,186800,1,0,0:0:0:0:
320,192,186800,1,0,0:0:0:0:
192,192,186971,1,0,0:0:0:0:
320,192,186971,1,0,0:0:0:0:
64,192,187142,128,0,187485:0:0:0:0:
448,192,187142,128,0,187485:0:0:0:0:
192,192,187485,1,0,0:0:0:0:
192,192,187828,1,0,0:0:0:0:
320,192,187828,1,0,0:0:0:0:
448,192,188171,1,0,0:0:0:0:
192,192,188171,1,0,0:0:0:0:
64,192,188343,1,0,0:0:0:0:
320,192,188514,1,0,0:0:0:0:
192,192,188857,1,0,0:0:0:0:
320,192,188857,1,0,0:0:0:0:
192,192,189028,1,0,0:0:0:0:
448,192,189200,1,0,0:0:0:0:
64,192,189200,1,0,0:0:0:0:
448,192,189543,1,0,0:0:0:0:
192,192,189543,1,0,0:0:0:0:
320,192,189714,1,0,0:0:0:0:
448,192,189885,1,0,0:0:0:0:
320,192,189971,1,0,0:0:0:0:
192,192,190057,1,0,0:0:0:0:
64,192,190143,1,0,0:0:0:0:
448,192,190228,1,0,0:0:0:0:
192,192,190571,1,0,0:0:0:0:
64,192,190571,1,0,0:0:0:0:
448,192,190914,128,0,191085:0:0:0:0:
320,192,190914,1,0,0:0:0:0:
192,192,191085,1,0,0:0:0:0:
320,192,191085,128,0,191257:0:0:0:0:
64,192,191257,1,0,0:0:0:0:
192,192,191257,128,0,191428:0:0:0:0:
320,192,191428,1,0,0:0:0:0:
448,192,191600,5,0,0:0:0:0:
64,192,191600,1,0,0:0:0:0:
320,192,191771,1,0,0:0:0:0:
192,192,191771,1,0,0:0:0:0:
64,192,191943,1,0,0:0:0:0:
448,192,191943,1,0,0:0:0:0:
320,192,192285,1,0,0:0:0:0:
192,192,192457,1,0,0:0:0:0:
64,192,192628,1,0,0:0:0:0:
448,192,192628,128,0,192971:0:0:0:0:
64,192,192971,1,0,0:0:0:0:
320,192,193142,1,0,0:0:0:0:
448,192,193142,1,0,0:0:0:0:
64,192,193314,1,0,0:0:0:0:
320,192,193485,1,0,0:0:0:0:
448,192,193485,1,0,0:0:0:0:
64,192,193657,1,0,0:0:0:0:
320,192,193828,1,0,0:0:0:0:
448,192,193828,1,0,0:0:0:0:
64,192,194000,1,0,0:0:0:0:
448,192,194171,1,0,0:0:0:0:
320,192,194171,1,0,0:0:0:0:
448,192,194342,1,0,0:0:0:0:
64,192,194514,1,0,0:0:0:0:
192,192,194514,1,0,0:0:0:0:
448,192,194685,1,0,0:0:0:0:
192,192,194857,1,0,0:0:0:0:
64,192,194857,1,0,0:0:0:0:
448,192,195028,1,0,0:0:0:0:
192,192,195200,1,0,0:0:0:0:
64,192,195200,1,0,0:0:0:0:
448,192,195371,1,0,0:0:0:0:
64,192,195543,1,0,0:0:0:0:
192,192,195543,1,0,0:0:0:0:
448,192,195714,1,0,0:0:0:0:
64,192,195714,1,0,0:0:0:0:
320,192,195800,1,0,0:0:0:0:
192,192,195800,1,0,0:0:0:0:
448,192,195885,1,0,0:0:0:0:
64,192,195885,1,0,0:0:0:0:
320,192,195971,1,0,0:0:0:0:
192,192,195971,1,0,0:0:0:0:
64,192,196057,1,0,0:0:0:0:
448,192,196057,1,0,0:0:0:0:
192,192,196143,1,0,0:0:0:0:
320,192,196143,1,0,0:0:0:0:
448,192,196228,1,0,0:0:0:0:
64,192,196228,1,0,0:0:0:0:
320,192,196314,1,0,0:0:0:0:
192,192,196314,1,0,0:0:0:0:
64,192,196400,1,0,0:0:0:0:
448,192,196400,1,0,0:0:0:0:
192,192,196486,1,0,0:0:0:0:
320,192,196486,1,0,0:0:0:0:
448,192,196571,1,0,0:0:0:0:
64,192,196571,1,0,0:0:0:0:
320,192,196657,1,0,0:0:0:0:
192,192,196657,1,0,0:0:0:0:
64,192,196742,1,0,0:0:0:0:
448,192,196742,1,0,0:0:0:0:
192,192,196828,1,0,0:0:0:0:
320,192,196828,1,0,0:0:0:0:
448,192,196914,1,0,0:0:0:0:
64,192,196914,1,0,0:0:0:0:
320,192,197000,1,0,0:0:0:0:
192,192,197000,1,0,0:0:0:0:
448,192,197085,128,0,197342:0:0:0:0:
64,192,197085,1,0,0:0:0:0:
320,192,197342,128,0,197600:0:0:0:0:
64,192,197342,1,0,0:0:0:0:
192,192,197600,128,0,197857:0:0:0:0:
64,192,197600,1,0,0:0:0:0:
448,192,197600,1,0,0:0:0:0:
64,192,197857,128,0,198114:0:0:0:0:
448,192,197857,1,0,0:0:0:0:
448,192,198114,1,0,0:0:0:0:
320,192,198200,1,0,0:0:0:0:
192,192,198285,1,0,0:0:0:0:
64,192,198371,1,0,0:0:0:0:
320,192,198457,1,0,0:0:0:0:
448,192,198457,1,0,0:0:0:0:
192,192,198800,1,0,0:0:0:0:
320,192,198800,1,0,0:0:0:0:
448,192,199142,1,0,0:0:0:0:
320,192,199314,1,0,0:0:0:0:
192,192,199485,1,0,0:0:0:0:
64,192,199657,1,0,0:0:0:0:
192,192,199828,1,0,0:0:0:0:
320,192,199828,1,0,0:0:0:0:
64,192,200171,1,0,0:0:0:0:
448,192,200171,1,0,0:0:0:0:
192,192,200514,1,0,0:0:0:0:
320,192,200514,1,0,0:0:0:0:
64,192,200857,1,0,0:0:0:0:
448,192,200857,1,0,0:0:0:0:
192,192,201200,1,0,0:0:0:0:
320,192,201200,1,0,0:0:0:0:
192,192,201542,1,0,0:0:0:0:
320,192,201542,1,0,0:0:0:0:
64,192,201885,1,0,0:0:0:0:
192,192,202057,1,0,0:0:0:0:
320,192,202228,1,0,0:0:0:0:
448,192,202400,1,0,0:0:0:0:
64,192,202571,1,0,0:0:0:0:
192,192,202571,1,0,0:0:0:0:
320,192,202914,1,0,0:0:0:0:
448,192,202914,1,0,0:0:0:0:
64,192,203257,1,0,0:0:0:0:
192,192,203257,1,0,0:0:0:0:
320,192,203600,1,0,0:0:0:0:
448,192,203600,1,0,0:0:0:0:
64,192,203942,1,0,0:0:0:0:
192,192,203942,1,0,0:0:0:0:
192,192,204285,1,0,0:0:0:0:
320,192,204285,1,0,0:0:0:0:
448,192,204628,1,0,0:0:0:0:
320,192,204628,1,0,0:0:0:0:
320,192,204800,1,0,0:0:0:0:
192,192,204800,1,0,0:0:0:0:
192,192,204971,1,0,0:0:0:0:
64,192,204971,1,0,0:0:0:0:
192,192,205142,1,0,0:0:0:0:
320,192,205142,1,0,0:0:0:0:
64,192,205314,1,0,0:0:0:0:
448,192,205314,1,0,0:0:0:0:
192,192,205657,1,0,0:0:0:0:
448,192,205657,1,0,0:0:0:0:
448,192,206000,1,0,0:0:0:0:
64,192,206000,1,0,0:0:0:0:
448,192,206342,1,0,0:0:0:0:
192,192,206342,1,0,0:0:0:0:
64,192,206685,1,0,0:0:0:0:
448,192,206685,1,0,0:0:0:0:
448,192,207028,1,0,0:0:0:0:
64,192,207028,1,0,0:0:0:0:
192,192,207371,1,0,0:0:0:0:
448,192,207371,1,0,0:0:0:0:
320,192,207542,1,0,0:0:0:0:
64,192,207542,1,0,0:0:0:0:
448,192,207714,1,0,0:0:0:0:
192,192,207714,1,0,0:0:0:0:
64,192,207885,1,0,0:0:0:0:
320,192,207885,1,0,0:0:0:0:
64,192,208057,1,0,0:0:0:0:
320,192,208057,1,0,0:0:0:0:
64,192,208400,1,0,0:0:0:0:
448,192,208400,1,0,0:0:0:0:
64,192,208742,1,0,0:0:0:0:
320,192,208742,1,0,0:0:0:0:
64,192,209085,1,0,0:0:0:0:
448,192,209085,1,0,0:0:0:0:
64,192,209428,1,0,0:0:0:0:
320,192,209428,1,0,0:0:0:0:
448,192,209428,1,0,0:0:0:0:
192,192,209514,1,0,0:0:0:0:
320,192,209600,1,0,0:0:0:0:
448,192,209685,1,0,0:0:0:0:
64,192,209771,1,0,0:0:0:0:
192,192,209857,1,0,0:0:0:0:
320,192,209943,1,0,0:0:0:0:
448,192,210028,1,0,0:0:0:0:
64,192,210114,1,0,0:0:0:0:
192,192,210200,1,0,0:0:0:0:
320,192,210286,1,0,0:0:0:0:
448,192,210371,1,0,0:0:0:0:
64,192,210457,1,0,0:0:0:0:
192,192,210543,1,0,0:0:0:0:
320,192,210629,1,0,0:0:0:0:
448,192,210714,1,0,0:0:0:0:
64,192,210800,1,0,0:0:0:0:
192,192,210886,1,0,0:0:0:0:
320,192,210972,1,0,0:0:0:0:
448,192,211057,1,0,0:0:0:0:
64,192,211142,1,0,0:0:0:0:
192,192,211228,1,0,0:0:0:0:
320,192,211314,1,0,0:0:0:0:
448,192,211399,1,0,0:0:0:0:
64,192,211485,1,0,0:0:0:0:
192,192,211571,1,0,0:0:0:0:
320,192,211657,1,0,0:0:0:0:
448,192,211742,1,0,0:0:0:0:
64,192,211828,1,0,0:0:0:0:
192,192,211914,1,0,0:0:0:0:
320,192,212000,1,0,0:0:0:0:
448,192,212085,1,0,0:0:0:0:
64,192,212171,1,0,0:0:0:0:
192,192,212171,1,0,0:0:0:0:
320,192,212257,1,0,0:0:0:0:
448,192,212342,1,0,0:0:0:0:
64,192,212428,1,0,0:0:0:0:
192,192,212514,1,0,0:0:0:0:
320,192,212600,1,0,0:0:0:0:
448,192,212685,1,0,0:0:0:0:
64,192,212771,1,0,0:0:0:0:
192,192,212857,1,0,0:0:0:0:
320,192,212943,1,0,0:0:0:0:
448,192,213028,1,0,0:0:0:0:
64,192,213114,1,0,0:0:0:0:
192,192,213200,1,0,0:0:0:0:
320,192,213286,1,0,0:0:0:0:
448,192,213371,1,0,0:0:0:0:
64,192,213457,1,0,0:0:0:0:
192,192,213543,1,0,0:0:0:0:
320,192,213629,1,0,0:0:0:0:
448,192,213714,1,0,0:0:0:0:
64,192,213800,1,0,0:0:0:0:
192,192,213886,1,0,0:0:0:0:
320,192,213972,1,0,0:0:0:0:
448,192,214057,1,0,0:0:0:0:
64,192,214142,1,0,0:0:0:0:
192,192,214228,1,0,0:0:0:0:
320,192,214314,1,0,0:0:0:0:
448,192,214399,1,0,0:0:0:0:
64,192,214485,1,0,0:0:0:0:
192,192,214571,1,0,0:0:0:0:
320,192,214657,1,0,0:0:0:0:
448,192,214742,1,0,0:0:0:0:
64,192,214828,1,0,0:0:0:0:
192,192,214914,1,0,0:0:0:0:
320,192,214914,1,0,0:0:0:0:
448,192,215000,1,0,0:0:0:0:
64,192,215000,1,0,0:0:0:0:
192,192,215085,1,0,0:0:0:0:
320,192,215085,1,0,0:0:0:0:
64,192,215171,1,0,0:0:0:0:
448,192,215171,1,0,0:0:0:0:
320,192,215256,1,0,0:0:0:0:
192,192,215256,1,0,0:0:0:0:
448,192,215342,1,0,0:0:0:0:
64,192,215342,1,0,0:0:0:0:
192,192,215427,1,0,0:0:0:0:
320,192,215427,1,0,0:0:0:0:
64,192,215514,1,0,0:0:0:0:
448,192,215514,1,0,0:0:0:0:
320,192,215599,1,0,0:0:0:0:
192,192,215599,1,0,0:0:0:0:
448,192,215685,1,0,0:0:0:0:
64,192,215685,1,0,0:0:0:0:
192,192,215770,1,0,0:0:0:0:
320,192,215770,1,0,0:0:0:0:
64,192,215857,1,0,0:0:0:0:
448,192,215857,1,0,0:0:0:0:
320,192,215942,1,0,0:0:0:0:
192,192,215942,1,0,0:0:0:0:
64,192,216028,1,0,0:0:0:0:
448,192,216028,1,0,0:0:0:0:
320,192,216113,1,0,0:0:0:0:
192,192,216113,1,0,0:0:0:0:
64,192,216200,1,0,0:0:0:0:
448,192,216200,1,0,0:0:0:0:
64,192,216285,1,0,0:0:0:0:
192,192,216285,1,0,0:0:0:0:
320,192,216285,1,0,0:0:0:0:
448,192,216285,1,0,0:0:0:0:
320,192,216371,1,0,0:0:0:0:
192,192,216457,1,0,0:0:0:0:
320,192,216542,1,0,0:0:0:0:
192,192,216628,1,0,0:0:0:0:
320,192,216714,1,0,0:0:0:0:
192,192,216800,1,0,0:0:0:0:
320,192,216885,1,0,0:0:0:0:
192,192,216971,1,0,0:0:0:0:
320,192,217057,1,0,0:0:0:0:
192,192,217142,1,0,0:0:0:0:
320,192,217228,1,0,0:0:0:0:
192,192,217314,1,0,0:0:0:0:
320,192,217400,1,0,0:0:0:0:
192,192,217485,1,0,0:0:0:0:
320,192,217571,1,0,0:0:0:0:
64,192,217657,1,0,0:0:0:0:
192,192,217657,1,0,0:0:0:0:
320,192,217657,1,0,0:0:0:0:
448,192,217657,1,0,0:0:0:0:
320,192,217742,1,0,0:0:0:0:
192,192,217828,1,0,0:0:0:0:
64,192,217914,1,0,0:0:0:0:
448,192,218000,1,0,0:0:0:0:
320,192,218085,1,0,0:0:0:0:
192,192,218171,1,0,0:0:0:0:
64,192,218257,1,0,0:0:0:0:
64,192,218342,1,0,0:0:0:0:
192,192,218342,1,0,0:0:0:0:
320,192,218342,1,0,0:0:0:0:
448,192,218342,1,0,0:0:0:0:
320,192,218428,1,0,0:0:0:0:
192,192,218514,1,0,0:0:0:0:
64,192,218600,1,0,0:0:0:0:
448,192,218685,1,0,0:0:0:0:
320,192,218771,1,0,0:0:0:0:
192,192,218857,1,0,0:0:0:0:
64,192,218942,1,0,0:0:0:0:
64,192,219028,1,0,0:0:0:0:
192,192,219028,1,0,0:0:0:0:
448,192,219028,1,0,0:0:0:0:
320,192,219028,128,0,219371:0:0:0:0:
192,192,219371,128,0,219714:0:0:0:0:
448,192,219371,1,0,0:0:0:0:
320,192,219714,1,0,0:0:0:0:
64,192,219714,128,0,220400:0:0:0:0:
320,192,220400,1,0,0:0:0:0:
448,192,220400,1,0,0:0:0:0:
448,192,220571,1,0,0:0:0:0:
64,192,220571,128,0,220742:0:0:0:0:
320,192,220657,1,0,0:0:0:0:
192,192,220742,1,0,0:0:0:0:
64,192,220914,128,0,221085:0:0:0:0:
192,192,220914,1,0,0:0:0:0:
320,192,221000,1,0,0:0:0:0:
448,192,221085,1,0,0:0:0:0:
448,192,221257,1,0,0:0:0:0:
64,192,221257,128,0,221428:0:0:0:0:
320,192,221342,1,0,0:0:0:0:
192,192,221428,1,0,0:0:0:0:
64,192,221600,128,0,221771:0:0:0:0:
192,192,221600,1,0,0:0:0:0:
320,192,221685,1,0,0:0:0:0:
448,192,221771,1,0,0:0:0:0:
64,192,221942,128,0,222114:0:0:0:0:
448,192,221942,1,0,0:0:0:0:
320,192,222028,1,0,0:0:0:0:
192,192,222114,1,0,0:0:0:0:
64,192,222285,128,0,222457:0:0:0:0:
192,192,222285,1,0,0:0:0:0:
320,192,222371,1,0,0:0:0:0:
448,192,222457,1,0,0:0:0:0:
448,192,222628,1,0,0:0:0:0:
64,192,222628,128,0,222800:0:0:0:0:
320,192,222714,1,0,0:0:0:0:
192,192,222800,1,0,0:0:0:0:
448,192,222800,128,0,222971:0:0:0:0:
64,192,222971,128,0,223142:0:0:0:0:
448,192,223314,128,0,223485:0:0:0:0:
64,192,223314,1,0,0:0:0:0:
192,192,223400,1,0,0:0:0:0:
320,192,223485,1,0,0:0:0:0:
448,192,223657,128,0,223828:0:0:0:0:
320,192,223657,1,0,0:0:0:0:
192,192,223742,1,0,0:0:0:0:
64,192,223828,1,0,0:0:0:0:
448,192,224000,128,0,224171:0:0:0:0:
64,192,224000,1,0,0:0:0:0:
192,192,224086,1,0,0:0:0:0:
320,192,224171,1,0,0:0:0:0:
448,192,224342,128,0,224513:0:0:0:0:
320,192,224343,1,0,0:0:0:0:
192,192,224428,1,0,0:0:0:0:
64,192,224514,1,0,0:0:0:0:
448,192,224685,128,0,224856:0:0:0:0:
64,192,224685,1,0,0:0:0:0:
192,192,224771,1,0,0:0:0:0:
320,192,224856,1,0,0:0:0:0:
448,192,225028,128,0,225199:0:0:0:0:
320,192,225028,1,0,0:0:0:0:
192,192,225113,1,0,0:0:0:0:
64,192,225199,1,0,0:0:0:0:
320,192,225371,1,0,0:0:0:0:
448,192,225371,1,0,0:0:0:0:
192,192,225542,1,0,0:0:0:0:
320,192,225542,1,0,0:0:0:0:
64,192,225714,1,0,0:0:0:0:
192,192,225714,1,0,0:0:0:0:
64,192,225885,1,0,0:0:0:0:
192,192,225885,1,0,0:0:0:0:
320,192,225885,1,0,0:0:0:0:
448,192,225885,1,0,0:0:0:0:
320,192,226057,128,0,226228:0:0:0:0:
448,192,226057,1,0,0:0:0:0:
192,192,226142,1,0,0:0:0:0:
64,192,226228,1,0,0:0:0:0:
192,192,226400,128,0,226571:0:0:0:0:
64,192,226400,1,0,0:0:0:0:
320,192,226485,1,0,0:0:0:0:
448,192,226571,1,0,0:0:0:0:
320,192,226742,128,0,226913:0:0:0:0:
448,192,226742,1,0,0:0:0:0:
192,192,226827,1,0,0:0:0:0:
64,192,226913,1,0,0:0:0:0:
192,192,227085,128,0,227256:0:0:0:0:
64,192,227085,1,0,0:0:0:0:
320,192,227170,1,0,0:0:0:0:
448,192,227256,1,0,0:0:0:0:
320,192,227428,128,0,227599:0:0:0:0:
448,192,227428,1,0,0:0:0:0:
192,192,227513,1,0,0:0:0:0:
64,192,227599,1,0,0:0:0:0:
192,192,227771,128,0,227942:0:0:0:0:
64,192,227771,1,0,0:0:0:0:
320,192,227856,1,0,0:0:0:0:
448,192,227942,1,0,0:0:0:0:
320,192,228114,128,0,228285:0:0:0:0:
448,192,228114,1,0,0:0:0:0:
192,192,228199,1,0,0:0:0:0:
64,192,228285,1,0,0:0:0:0:
448,192,228285,128,0,228457:0:0:0:0:
192,192,228457,128,0,228628:0:0:0:0:
320,192,228457,1,0,0:0:0:0:
64,192,228628,1,0,0:0:0:0:
320,192,228628,1,0,0:0:0:0:
192,192,228971,1,0,0:0:0:0:
448,192,228971,1,0,0:0:0:0:
448,192,229314,1,0,0:0:0:0:
192,192,229314,1,0,0:0:0:0:
320,192,229485,1,0,0:0:0:0:
64,192,229485,1,0,0:0:0:0:
448,192,229657,1,0,0:0:0:0:
192,192,229657,1,0,0:0:0:0:
64,192,229828,1,0,0:0:0:0:
320,192,229828,1,0,0:0:0:0:
64,192,230000,1,0,0:0:0:0:
448,192,230000,1,0,0:0:0:0:
192,192,230000,128,0,230685:0:0:0:0:
320,192,230342,128,0,230685:0:0:0:0:
64,192,230685,1,0,0:0:0:0:
448,192,230685,1,0,0:0:0:0:
448,192,230857,1,0,0:0:0:0:
64,192,230857,1,0,0:0:0:0:
192,192,231028,128,0,231371:0:0:0:0:
320,192,231028,128,0,231371:0:0:0:0:
64,192,231371,1,0,0:0:0:0:
448,192,231371,1,0,0:0:0:0:
320,192,231542,128,0,231714:0:0:0:0:
192,192,231542,1,0,0:0:0:0:
64,192,231628,1,0,0:0:0:0:
192,192,231714,1,0,0:0:0:0:
192,192,231885,128,0,232057:0:0:0:0:
320,192,231885,1,0,0:0:0:0:
448,192,231971,1,0,0:0:0:0:
320,192,232057,1,0,0:0:0:0:
320,192,232228,128,0,232400:0:0:0:0:
192,192,232228,1,0,0:0:0:0:
64,192,232314,1,0,0:0:0:0:
192,192,232400,1,0,0:0:0:0:
192,192,232571,128,0,232743:0:0:0:0:
320,192,232571,1,0,0:0:0:0:
448,192,232657,1,0,0:0:0:0:
320,192,232743,1,0,0:0:0:0:
320,192,232914,128,0,233086:0:0:0:0:
192,192,232914,1,0,0:0:0:0:
64,192,233000,1,0,0:0:0:0:
192,192,233086,1,0,0:0:0:0:
192,192,233257,128,0,233429:0:0:0:0:
320,192,233257,1,0,0:0:0:0:
448,192,233343,1,0,0:0:0:0:
320,192,233429,1,0,0:0:0:0:
320,192,233600,128,0,233772:0:0:0:0:
192,192,233600,1,0,0:0:0:0:
64,192,233686,1,0,0:0:0:0:
448,192,233771,128,0,233942:0:0:0:0:
192,192,233772,1,0,0:0:0:0:
64,192,233942,128,0,234114:0:0:0:0:
448,192,234285,128,0,234457:0:0:0:0:
320,192,234285,1,0,0:0:0:0:
192,192,234371,1,0,0:0:0:0:
320,192,234457,1,0,0:0:0:0:
64,192,234628,128,0,234800:0:0:0:0:
192,192,234628,1,0,0:0:0:0:
320,192,234714,1,0,0:0:0:0:
192,192,234800,1,0,0:0:0:0:
448,192,234971,128,0,235143:0:0:0:0:
320,192,234971,1,0,0:0:0:0:
192,192,235057,1,0,0:0:0:0:
320,192,235143,1,0,0:0:0:0:
192,192,235314,1,0,0:0:0:0:
64,192,235314,128,0,235486:0:0:0:0:
320,192,235400,1,0,0:0:0:0:
192,192,235486,1,0,0:0:0:0:
320,192,235657,1,0,0:0:0:0:
448,192,235657,128,0,235829:0:0:0:0:
192,192,235743,1,0,0:0:0:0:
320,192,235829,1,0,0:0:0:0:
64,192,236000,128,0,236172:0:0:0:0:
192,192,236000,1,0,0:0:0:0:
320,192,236086,1,0,0:0:0:0:
448,192,236171,128,0,236342:0:0:0:0:
192,192,236172,1,0,0:0:0:0:
320,192,236342,128,0,236514:0:0:0:0:
192,192,236514,128,0,236685:0:0:0:0:
64,192,236685,128,0,236857:0:0:0:0:
192,192,236857,1,0,0:0:0:0:
448,192,236857,1,0,0:0:0:0:
192,192,237028,1,0,0:0:0:0:
320,192,237028,1,0,0:0:0:0:
448,192,237028,1,0,0:0:0:0:
64,192,237200,1,0,0:0:0:0:
320,192,237200,1,0,0:0:0:0:
64,192,237371,1,0,0:0:0:0:
192,192,237371,1,0,0:0:0:0:
320,192,237371,1,0,0:0:0:0:
448,192,237542,1,0,0:0:0:0:
192,192,237542,1,0,0:0:0:0:
192,192,237713,1,0,0:0:0:0:
320,192,237713,1,0,0:0:0:0:
448,192,237713,1,0,0:0:0:0:
64,192,237885,1,0,0:0:0:0:
320,192,237885,1,0,0:0:0:0:
64,192,238056,1,0,0:0:0:0:
320,192,238056,1,0,0:0:0:0:
192,192,238056,1,0,0:0:0:0:
192,192,238228,1,0,0:0:0:0:
448,192,238228,1,0,0:0:0:0:
448,192,238399,1,0,0:0:0:0:
320,192,238399,1,0,0:0:0:0:
192,192,238399,1,0,0:0:0:0:
320,192,238571,1,0,0:0:0:0:
64,192,238571,1,0,0:0:0:0:
192,192,238742,1,0,0:0:0:0:
320,192,238742,1,0,0:0:0:0:
64,192,238742,1,0,0:0:0:0:
192,192,238914,1,0,0:0:0:0:
448,192,238914,1,0,0:0:0:0:
320,192,239085,1,0,0:0:0:0:
192,192,239085,1,0,0:0:0:0:
448,192,239085,1,0,0:0:0:0:
64,192,239257,1,0,0:0:0:0:
192,192,239342,1,0,0:0:0:0:
192,192,239428,1,0,0:0:0:0:
320,192,239514,1,0,0:0:0:0:
320,192,239600,1,0,0:0:0:0:
448,192,239685,1,0,0:0:0:0:
64,192,239771,1,0,0:0:0:0:
192,192,239856,1,0,0:0:0:0:
192,192,239942,1,0,0:0:0:0:
320,192,240028,1,0,0:0:0:0:
320,192,240114,1,0,0:0:0:0:
448,192,240199,1,0,0:0:0:0:
64,192,240285,1,0,0:0:0:0:
192,192,240370,1,0,0:0:0:0:
192,192,240456,1,0,0:0:0:0:
320,192,240542,1,0,0:0:0:0:
320,192,240628,1,0,0:0:0:0:
448,192,240713,1,0,0:0:0:0:
320,192,240800,1,0,0:0:0:0:
192,192,240885,1,0,0:0:0:0:
64,192,240971,128,0,242342:0:0:0:0:
448,192,241142,1,0,0:0:0:0:
448,192,241228,1,0,0:0:0:0:
448,192,241485,1,0,0:0:0:0:
448,192,241571,1,0,0:0:0:0:
320,192,241657,1,0,0:0:0:0:
320,192,241742,1,0,0:0:0:0:
448,192,241828,1,0,0:0:0:0:
320,192,241914,1,0,0:0:0:0:
192,192,242000,1,0,0:0:0:0:
320,192,242085,1,0,0:0:0:0:
448,192,242171,1,0,0:0:0:0:
320,192,242257,1,0,0:0:0:0:
448,192,242342,1,0,0:0:0:0:
320,192,242685,1,0,0:0:0:0:
64,192,243028,1,0,0:0:0:0:
192,192,243200,1,0,0:0:0:0:
320,192,243371,1,0,0:0:0:0:
192,192,243714,1,0,0:0:0:0:
192,192,243885,1,0,0:0:0:0:
192,192,244057,1,0,0:0:0:0:
320,192,244400,1,0,0:0:0:0:
192,192,244571,1,0,0:0:0:0:
448,192,244742,1,0,0:0:0:0:
64,192,244828,1,0,0:0:0:0:
320,192,244914,1,0,0:0:0:0:
192,192,245000,1,0,0:0:0:0:
64,192,245085,1,0,0:0:0:0:
448,192,245085,1,0,0:0:0:0:
192,192,245428,1,0,0:0:0:0:
64,192,245771,1,0,0:0:0:0:
192,192,245942,1,0,0:0:0:0:
448,192,246028,1,0,0:0:0:0:
320,192,246200,1,0,0:0:0:0:
64,192,246285,1,0,0:0:0:0:
448,192,246285,1,0,0:0:0:0:
192,192,246457,1,0,0:0:0:0:
320,192,246628,1,0,0:0:0:0:
320,192,246800,1,0,0:0:0:0:
320,192,247142,1,0,0:0:0:0:
192,192,247314,1,0,0:0:0:0:
448,192,247485,1,0,0:0:0:0:
64,192,247485,1,0,0:0:0:0:
192,192,247828,1,0,0:0:0:0:
448,192,248171,1,0,0:0:0:0:
64,192,248171,1,0,0:0:0:0:
192,192,248514,1,0,0:0:0:0:
448,192,248685,1,0,0:0:0:0:
192,192,248857,1,0,0:0:0:0:
64,192,248857,1,0,0:0:0:0:
320,192,249200,1,0,0:0:0:0:
320,192,249371,1,0,0:0:0:0:
320,192,249542,1,0,0:0:0:0:
192,192,249885,1,0,0:0:0:0:
64,192,250057,1,0,0:0:0:0:
192,192,250228,1,0,0:0:0:0:
320,192,250314,1,0,0:0:0:0:
192,192,250400,1,0,0:0:0:0:
320,192,250485,1,0,0:0:0:0:
64,192,250571,1,0,0:0:0:0:
448,192,250571,1,0,0:0:0:0:
192,192,250914,1,0,0:0:0:0:
448,192,251257,1,0,0:0:0:0:
320,192,251428,1,0,0:0:0:0:
64,192,251514,1,0,0:0:0:0:
192,192,251685,1,0,0:0:0:0:
320,192,251771,1,0,0:0:0:0:
64,192,251942,1,0,0:0:0:0:
448,192,251942,1,0,0:0:0:0:
64,192,252285,1,0,0:0:0:0:
448,192,252285,1,0,0:0:0:0:
192,192,252628,1,0,0:0:0:0:
320,192,252800,1,0,0:0:0:0:
64,192,252971,128,0,253314:0:0:0:0:
448,192,252971,128,0,253314:0:0:0:0:
192,192,253314,1,0,0:0:0:0:
320,192,253314,1,0,0:0:0:0:
320,192,253657,1,0,0:0:0:0:
64,192,254000,1,0,0:0:0:0:
192,192,254171,1,0,0:0:0:0:
320,192,254342,1,0,0:0:0:0:
448,192,254685,1,0,0:0:0:0:
64,192,254685,1,0,0:0:0:0:
448,192,254857,1,0,0:0:0:0:
192,192,254857,1,0,0:0:0:0:
320,192,255028,1,0,0:0:0:0:
448,192,255028,1,0,0:0:0:0:
448,192,255371,1,0,0:0:0:0:
192,192,255542,1,0,0:0:0:0:
448,192,255714,1,0,0:0:0:0:
320,192,255800,1,0,0:0:0:0:
192,192,255885,1,0,0:0:0:0:
64,192,255971,1,0,0:0:0:0:
320,192,256057,1,0,0:0:0:0:
448,192,256057,1,0,0:0:0:0:
448,192,256400,1,0,0:0:0:0:
320,192,256742,1,0,0:0:0:0:
448,192,256742,1,0,0:0:0:0:
320,192,256914,1,0,0:0:0:0:
192,192,257000,1,0,0:0:0:0:
64,192,257000,1,0,0:0:0:0:
192,192,257171,1,0,0:0:0:0:
320,192,257257,1,0,0:0:0:0:
64,192,257428,1,0,0:0:0:0:
448,192,257428,1,0,0:0:0:0:
64,192,257600,1,0,0:0:0:0:
320,192,257600,1,0,0:0:0:0:
64,192,257771,1,0,0:0:0:0:
192,192,257771,1,0,0:0:0:0:
448,192,258114,1,0,0:0:0:0:
192,192,258285,1,0,0:0:0:0:
320,192,258285,1,0,0:0:0:0:
64,192,258457,1,0,0:0:0:0:
320,192,258800,1,0,0:0:0:0:
192,192,258971,1,0,0:0:0:0:
448,192,258971,1,0,0:0:0:0:
320,192,259142,1,0,0:0:0:0:
192,192,259314,1,0,0:0:0:0:
64,192,259485,1,0,0:0:0:0:
320,192,259485,1,0,0:0:0:0:
192,192,259657,1,0,0:0:0:0:
320,192,259828,1,0,0:0:0:0:
448,192,259999,1,0,0:0:0:0:
192,192,259999,1,0,0:0:0:0:
320,192,260170,1,0,0:0:0:0:
192,192,260342,1,0,0:0:0:0:
64,192,260513,1,0,0:0:0:0:
320,192,260513,1,0,0:0:0:0:
192,192,260685,1,0,0:0:0:0:
320,192,260857,1,0,0:0:0:0:
192,192,261028,1,0,0:0:0:0:
448,192,261028,1,0,0:0:0:0:
320,192,261199,1,0,0:0:0:0:
192,192,261371,1,0,0:0:0:0:
64,192,261542,1,0,0:0:0:0:
64,192,261628,1,0,0:0:0:0:
192,192,261714,1,0,0:0:0:0:
192,192,261800,1,0,0:0:0:0:
320,192,261885,1,0,0:0:0:0:
320,192,261971,1,0,0:0:0:0:
448,192,262057,1,0,0:0:0:0:
448,192,262142,1,0,0:0:0:0:
64,192,262228,1,0,0:0:0:0:
64,192,262314,1,0,0:0:0:0:
192,192,262400,1,0,0:0:0:0:
192,192,262485,1,0,0:0:0:0:
320,192,262571,1,0,0:0:0:0:
320,192,262657,1,0,0:0:0:0:
448,192,262742,1,0,0:0:0:0:
448,192,262828,1,0,0:0:0:0:
64,192,262914,128,0,264285:0:0:0:0:
