osu file format v14

[General]
AudioFilename: DJ Newo - Sekolah itu Bangstit (Lim Cut).mp3
AudioLeadIn: 0
PreviewTime: -1
Countdown: 0
SampleSet: None
StackLeniency: 0.7
Mode: 3
LetterboxInBreaks: 1
EpilepsyWarning: 1
SpecialStyle: 0
WidescreenStoryboard: 1

[Editor]
DistanceSpacing: 0.9
BeatDivisor: 16
GridSize: 32
TimelineZoom: 1.9

[Metadata]
Title:Sekolah itu Bangst*t
TitleUnicode:Sekolah itu Bangst*t
Artist:DJ Newo
ArtistUnicode:DJ Newo
Creator:-Unnamed-
Version:Kena Bacok
Source:
Tags:
BeatmapID:663997
BeatmapSetID:295299

[Difficulty]
HPDrainRate:8
CircleSize:4
OverallDifficulty:8
ApproachRate:5
SliderMultiplier:1.4
SliderTickRate:1

[Events]
//Background and Video events
0,0,"BG.jpg",0,0
//Break Periods
//Storyboard Layer 0 (Background)
//Storyboard Layer 1 (Fail)
//Storyboard Layer 2 (Pass)
//Storyboard Layer 3 (Foreground)
//Storyboard Sound Samples

[TimingPoints]
0,600,4,1,0,100,1,0

[HitObjects]
64,192,1425,128,0,3375:0:0:0:0:
448,192,1950,1,0,0:0:0:0:
192,192,2025,1,0,0:0:0:0:
448,192,2117,128,0,2338:0:0:0:0:
320,192,2338,1,0,0:0:0:0:
448,192,2475,1,0,0:0:0:0:
192,192,2587,128,0,2850:0:0:0:0:
448,192,2867,1,0,0:0:0:0:
320,192,3037,128,0,3375:0:0:0:0:
64,192,3675,1,0,0:0:0:0:
320,192,3825,128,0,4050:0:0:0:0:
448,192,4050,128,0,4350:0:0:0:0:
192,192,4350,1,0,0:0:0:0:
64,192,4725,1,0,0:0:0:0:
192,192,4800,1,0,0:0:0:0:
320,192,4875,128,0,5100:0:0:0:0:
448,192,5100,1,0,0:0:0:0:
192,192,5475,128,0,5775:0:0:0:0:
320,192,5475,128,0,5775:0:0:0:0:
64,192,5775,1,0,0:0:0:0:
448,192,5775,1,0,0:0:0:0:
64,192,6075,1,0,0:0:0:0:
192,192,6150,1,0,0:0:0:0:
448,192,6225,1,0,0:0:0:0:
320,192,6300,1,0,0:0:0:0:
64,192,6450,1,0,0:0:0:0:
192,192,6450,1,0,0:0:0:0:
448,192,6525,1,0,0:0:0:0:
64,192,6825,1,0,0:0:0:0:
448,192,6825,1,0,0:0:0:0:
320,192,6975,128,0,7125:0:0:0:0:
192,192,6975,128,0,7125:0:0:0:0:
64,192,7125,1,0,0:0:0:0:
448,192,7275,128,0,7500:0:0:0:0:
192,192,7500,1,0,0:0:0:0:
320,192,7500,1,0,0:0:0:0:
64,192,7837,1,0,0:0:0:0:
192,192,7837,1,0,0:0:0:0:
320,192,7837,1,0,0:0:0:0:
448,192,7837,1,0,0:0:0:0:
64,192,8025,128,0,8137:0:0:0:0:
192,192,8137,1,0,0:0:0:0:
448,192,8400,128,0,8512:0:0:0:0:
320,192,8512,1,0,0:0:0:0:
64,192,8700,1,0,0:0:0:0:
192,192,8850,1,0,0:0:0:0:
64,192,8925,1,0,0:0:0:0:
192,192,9075,1,0,0:0:0:0:
64,192,9150,1,0,0:0:0:0:
448,192,9412,128,0,9562:0:0:0:0:
320,192,9562,1,0,0:0:0:0:
64,192,9712,128,0,9862:0:0:0:0:
192,192,9862,1,0,0:0:0:0:
448,192,10050,1,0,0:0:0:0:
320,192,10200,1,0,0:0:0:0:
448,192,10275,1,0,0:0:0:0:
320,192,10425,1,0,0:0:0:0:
448,192,10500,1,0,0:0:0:0:
64,192,10762,128,0,10875:0:0:0:0:
192,192,10875,1,0,0:0:0:0:
448,192,11062,128,0,11212:0:0:0:0:
320,192,11212,1,0,0:0:0:0:
64,192,11437,1,0,0:0:0:0:
192,192,11587,1,0,0:0:0:0:
64,192,11662,1,0,0:0:0:0:
192,192,11812,1,0,0:0:0:0:
64,192,11887,1,0,0:0:0:0:
448,192,12112,128,0,12225:0:0:0:0:
320,192,12225,1,0,0:0:0:0:
64,192,12487,128,0,12600:0:0:0:0:
192,192,12600,1,0,0:0:0:0:
448,192,12787,1,0,0:0:0:0:
320,192,12937,1,0,0:0:0:0:
448,192,13012,1,0,0:0:0:0:
320,192,13162,1,0,0:0:0:0:
448,192,13237,1,0,0:0:0:0:
64,192,13500,128,0,13612:0:0:0:0:
192,192,13612,1,0,0:0:0:0:
448,192,13800,128,0,13950:0:0:0:0:
320,192,13950,1,0,0:0:0:0:
64,192,14137,1,0,0:0:0:0:
192,192,14287,1,0,0:0:0:0:
64,192,14362,1,0,0:0:0:0:
192,192,14512,1,0,0:0:0:0:
64,192,14587,1,0,0:0:0:0:
448,192,14850,128,0,14962:0:0:0:0:
320,192,14962,1,0,0:0:0:0:
64,192,15187,128,0,15337:0:0:0:0:
192,192,15337,1,0,0:0:0:0:
448,192,15525,1,0,0:0:0:0:
320,192,15675,1,0,0:0:0:0:
448,192,15750,1,0,0:0:0:0:
320,192,15900,1,0,0:0:0:0:
448,192,15975,1,0,0:0:0:0:
64,192,16237,128,0,16350:0:0:0:0:
192,192,16350,1,0,0:0:0:0:
448,192,16537,128,0,16650:0:0:0:0:
320,192,16650,1,0,0:0:0:0:
64,192,16912,1,0,0:0:0:0:
192,192,17025,1,0,0:0:0:0:
64,192,17137,1,0,0:0:0:0:
192,192,17250,1,0,0:0:0:0:
64,192,17362,1,0,0:0:0:0:
448,192,17587,128,0,17700:0:0:0:0:
320,192,17700,1,0,0:0:0:0:
64,192,17887,128,0,18037:0:0:0:0:
192,192,18037,1,0,0:0:0:0:
448,192,18262,1,0,0:0:0:0:
320,192,18412,1,0,0:0:0:0:
448,192,18525,1,0,0:0:0:0:
320,192,18637,1,0,0:0:0:0:
64,192,18750,1,0,0:0:0:0:
192,192,18750,1,0,0:0:0:0:
448,192,19012,1,0,0:0:0:0:
192,192,19087,1,0,0:0:0:0:
320,192,19237,1,0,0:0:0:0:
64,192,19387,1,0,0:0:0:0:
448,192,19687,1,0,0:0:0:0:
320,192,19762,1,0,0:0:0:0:
192,192,19875,1,0,0:0:0:0:
64,192,19987,1,0,0:0:0:0:
320,192,20062,1,0,0:0:0:0:
448,192,20062,1,0,0:0:0:0:
64,192,20287,1,0,0:0:0:0:
320,192,20437,1,0,0:0:0:0:
192,192,20662,1,0,0:0:0:0:
448,192,20737,1,0,0:0:0:0:
64,192,20962,1,0,0:0:0:0:
192,192,21112,1,0,0:0:0:0:
320,192,21225,1,0,0:0:0:0:
448,192,21300,1,0,0:0:0:0:
320,192,21412,1,0,0:0:0:0:
64,192,21412,1,0,0:0:0:0:
192,192,21637,1,0,0:0:0:0:
320,192,21750,1,0,0:0:0:0:
64,192,21975,1,0,0:0:0:0:
448,192,22087,1,0,0:0:0:0:
192,192,22312,1,0,0:0:0:0:
320,192,22462,1,0,0:0:0:0:
448,192,22575,1,0,0:0:0:0:
320,192,22687,1,0,0:0:0:0:
64,192,22800,1,0,0:0:0:0:
192,192,22800,1,0,0:0:0:0:
448,192,22987,1,0,0:0:0:0:
320,192,23137,1,0,0:0:0:0:
192,192,23325,1,0,0:0:0:0:
64,192,23475,1,0,0:0:0:0:
320,192,23700,1,0,0:0:0:0:
192,192,23812,1,0,0:0:0:0:
64,192,23925,1,0,0:0:0:0:
192,192,24000,1,0,0:0:0:0:
320,192,24150,1,0,0:0:0:0:
448,192,24150,1,0,0:0:0:0:
64,192,24412,1,0,0:0:0:0:
448,192,24525,1,0,0:0:0:0:
192,192,24712,1,0,0:0:0:0:
320,192,24825,1,0,0:0:0:0:
448,192,24825,1,0,0:0:0:0:
448,192,25087,1,0,0:0:0:0:
192,192,25200,1,0,0:0:0:0:
320,192,25312,1,0,0:0:0:0:
64,192,25387,1,0,0:0:0:0:
192,192,25537,1,0,0:0:0:0:
320,192,25537,1,0,0:0:0:0:
64,192,25762,1,0,0:0:0:0:
320,192,25875,1,0,0:0:0:0:
192,192,26062,1,0,0:0:0:0:
448,192,26212,1,0,0:0:0:0:
320,192,26212,1,0,0:0:0:0:
448,192,26437,1,0,0:0:0:0:
320,192,26550,1,0,0:0:0:0:
192,192,26662,1,0,0:0:0:0:
64,192,26737,1,0,0:0:0:0:
320,192,26887,1,0,0:0:0:0:
448,192,26887,1,0,0:0:0:0:
192,192,27112,1,0,0:0:0:0:
448,192,27225,1,0,0:0:0:0:
320,192,27225,1,0,0:0:0:0:
448,192,27412,1,0,0:0:0:0:
192,192,27562,1,0,0:0:0:0:
64,192,27562,1,0,0:0:0:0:
64,192,27787,1,0,0:0:0:0:
320,192,27937,1,0,0:0:0:0:
448,192,27937,1,0,0:0:0:0:
192,192,28012,1,0,0:0:0:0:
320,192,28125,1,0,0:0:0:0:
192,192,28237,1,0,0:0:0:0:
64,192,28237,1,0,0:0:0:0:
320,192,28500,1,0,0:0:0:0:
192,192,28500,1,0,0:0:0:0:
192,192,28612,1,0,0:0:0:0:
320,192,28612,1,0,0:0:0:0:
320,192,28800,1,0,0:0:0:0:
192,192,28800,1,0,0:0:0:0:
192,192,28912,1,0,0:0:0:0:
320,192,28912,1,0,0:0:0:0:
64,192,29137,1,0,0:0:0:0:
448,192,29137,1,0,0:0:0:0:
64,192,29287,1,0,0:0:0:0:
448,192,29287,1,0,0:0:0:0:
64,192,29437,1,0,0:0:0:0:
448,192,29437,1,0,0:0:0:0:
64,192,29550,1,0,0:0:0:0:
448,192,29550,1,0,0:0:0:0:
448,192,29662,1,0,0:0:0:0:
192,192,29662,1,0,0:0:0:0:
64,192,29662,1,0,0:0:0:0:
320,192,29662,128,0,29962:0:0:0:0:
448,192,29962,1,0,0:0:0:0:
64,192,29962,1,0,0:0:0:0:
192,192,29962,128,0,30300:0:0:0:0:
448,192,30300,1,0,0:0:0:0:
320,192,30300,1,0,0:0:0:0:
64,192,30300,128,0,30637:0:0:0:0:
448,192,30637,1,0,0:0:0:0:
192,192,30637,1,0,0:0:0:0:
320,192,30637,128,0,30862:0:0:0:0:
448,192,30862,1,0,0:0:0:0:
320,192,31012,1,0,0:0:0:0:
192,192,31012,1,0,0:0:0:0:
448,192,31312,1,0,0:0:0:0:
64,192,31312,1,0,0:0:0:0:
192,192,31312,1,0,0:0:0:0:
448,192,31687,1,0,0:0:0:0:
192,192,31687,1,0,0:0:0:0:
320,192,31800,1,0,0:0:0:0:
64,192,31800,1,0,0:0:0:0:
448,192,31912,1,0,0:0:0:0:
192,192,31912,1,0,0:0:0:0:
320,192,32025,1,0,0:0:0:0:
64,192,32025,1,0,0:0:0:0:
448,192,32212,1,0,0:0:0:0:
320,192,32212,1,0,0:0:0:0:
448,192,32362,1,0,0:0:0:0:
320,192,32362,1,0,0:0:0:0:
448,192,32700,1,0,0:0:0:0:
192,192,32700,1,0,0:0:0:0:
64,192,32700,1,0,0:0:0:0:
320,192,32700,128,0,33037:0:0:0:0:
448,192,33037,1,0,0:0:0:0:
192,192,33037,1,0,0:0:0:0:
64,192,33037,128,0,33375:0:0:0:0:
448,192,33375,1,0,0:0:0:0:
320,192,33375,1,0,0:0:0:0:
448,192,33600,1,0,0:0:0:0:
64,192,33600,1,0,0:0:0:0:
320,192,33712,1,0,0:0:0:0:
192,192,33712,1,0,0:0:0:0:
320,192,33937,1,0,0:0:0:0:
192,192,33937,1,0,0:0:0:0:
448,192,34050,1,0,0:0:0:0:
64,192,34050,1,0,0:0:0:0:
448,192,34275,1,0,0:0:0:0:
64,192,34275,1,0,0:0:0:0:
320,192,34387,1,0,0:0:0:0:
192,192,34387,1,0,0:0:0:0:
64,192,34500,1,0,0:0:0:0:
448,192,34500,1,0,0:0:0:0:
192,192,34612,1,0,0:0:0:0:
320,192,34612,1,0,0:0:0:0:
64,192,34725,1,0,0:0:0:0:
448,192,34725,1,0,0:0:0:0:
320,192,34837,1,0,0:0:0:0:
192,192,34837,1,0,0:0:0:0:
448,192,34950,1,0,0:0:0:0:
64,192,34950,1,0,0:0:0:0:
448,192,35062,1,0,0:0:0:0:
64,192,35062,1,0,0:0:0:0:
448,192,35400,1,0,0:0:0:0:
192,192,35400,1,0,0:0:0:0:
64,192,35400,1,0,0:0:0:0:
320,192,35400,128,0,35775:0:0:0:0:
448,192,35775,1,0,0:0:0:0:
64,192,35775,1,0,0:0:0:0:
192,192,35775,128,0,36112:0:0:0:0:
448,192,36112,1,0,0:0:0:0:
320,192,36112,1,0,0:0:0:0:
448,192,36337,1,0,0:0:0:0:
64,192,36337,1,0,0:0:0:0:
448,192,36450,1,0,0:0:0:0:
64,192,36450,1,0,0:0:0:0:
448,192,36787,1,0,0:0:0:0:
192,192,36787,1,0,0:0:0:0:
320,192,36787,1,0,0:0:0:0:
448,192,37125,1,0,0:0:0:0:
192,192,37125,1,0,0:0:0:0:
320,192,37237,1,0,0:0:0:0:
64,192,37237,1,0,0:0:0:0:
192,192,37350,1,0,0:0:0:0:
448,192,37350,1,0,0:0:0:0:
64,192,37462,1,0,0:0:0:0:
320,192,37462,1,0,0:0:0:0:
64,192,37687,1,0,0:0:0:0:
448,192,37687,1,0,0:0:0:0:
64,192,37837,1,0,0:0:0:0:
448,192,37837,1,0,0:0:0:0:
64,192,38175,1,0,0:0:0:0:
192,192,38175,1,0,0:0:0:0:
320,192,38175,1,0,0:0:0:0:
448,192,38175,128,0,38475:0:0:0:0:
64,192,38475,1,0,0:0:0:0:
192,192,38475,1,0,0:0:0:0:
320,192,38475,128,0,38812:0:0:0:0:
64,192,38812,1,0,0:0:0:0:
448,192,38812,1,0,0:0:0:0:
64,192,39037,1,0,0:0:0:0:
448,192,39037,1,0,0:0:0:0:
64,192,39187,1,0,0:0:0:0:
448,192,39187,1,0,0:0:0:0:
192,192,39375,1,0,0:0:0:0:
320,192,39375,1,0,0:0:0:0:
320,192,39525,1,0,0:0:0:0:
192,192,39525,1,0,0:0:0:0:
64,192,39712,1,0,0:0:0:0:
448,192,39712,1,0,0:0:0:0:
192,192,39862,1,0,0:0:0:0:
320,192,39862,1,0,0:0:0:0:
448,192,39975,1,0,0:0:0:0:
64,192,39975,1,0,0:0:0:0:
448,192,40087,1,0,0:0:0:0:
320,192,40200,1,0,0:0:0:0:
192,192,40312,1,0,0:0:0:0:
64,192,40387,1,0,0:0:0:0:
64,192,40537,1,0,0:0:0:0:
192,192,40537,1,0,0:0:0:0:
320,192,40537,1,0,0:0:0:0:
64,192,40912,1,0,0:0:0:0:
192,192,40912,1,0,0:0:0:0:
320,192,40912,1,0,0:0:0:0:
448,192,40912,128,0,41212:0:0:0:0:
64,192,41212,1,0,0:0:0:0:
192,192,41212,1,0,0:0:0:0:
320,192,41212,128,0,41550:0:0:0:0:
64,192,41550,1,0,0:0:0:0:
192,192,41550,1,0,0:0:0:0:
64,192,41775,1,0,0:0:0:0:
192,192,41775,1,0,0:0:0:0:
64,192,41925,1,0,0:0:0:0:
320,192,41925,1,0,0:0:0:0:
448,192,41925,1,0,0:0:0:0:
192,192,41925,128,0,42225:0:0:0:0:
64,192,42225,1,0,0:0:0:0:
448,192,42225,1,0,0:0:0:0:
64,192,42562,1,0,0:0:0:0:
320,192,42562,1,0,0:0:0:0:
192,192,42675,1,0,0:0:0:0:
448,192,42675,1,0,0:0:0:0:
320,192,42787,1,0,0:0:0:0:
64,192,42787,1,0,0:0:0:0:
448,192,42900,1,0,0:0:0:0:
192,192,42900,1,0,0:0:0:0:
448,192,43162,1,0,0:0:0:0:
320,192,43162,1,0,0:0:0:0:
64,192,43312,1,0,0:0:0:0:
192,192,43312,1,0,0:0:0:0:
448,192,43312,1,0,0:0:0:0:
320,192,43312,128,0,43612:0:0:0:0:
448,192,43612,1,0,0:0:0:0:
192,192,43612,1,0,0:0:0:0:
64,192,43612,128,0,43950:0:0:0:0:
448,192,43950,1,0,0:0:0:0:
320,192,43950,1,0,0:0:0:0:
192,192,43950,128,0,44287:0:0:0:0:
448,192,44287,1,0,0:0:0:0:
64,192,44287,1,0,0:0:0:0:
448,192,44512,1,0,0:0:0:0:
64,192,44512,1,0,0:0:0:0:
448,192,44625,1,0,0:0:0:0:
64,192,44625,1,0,0:0:0:0:
448,192,44850,1,0,0:0:0:0:
64,192,44850,1,0,0:0:0:0:
448,192,44962,1,0,0:0:0:0:
64,192,44962,1,0,0:0:0:0:
448,192,45187,1,0,0:0:0:0:
64,192,45187,1,0,0:0:0:0:
320,192,45300,1,0,0:0:0:0:
192,192,45300,1,0,0:0:0:0:
64,192,45412,1,0,0:0:0:0:
448,192,45412,1,0,0:0:0:0:
192,192,45525,1,0,0:0:0:0:
320,192,45525,1,0,0:0:0:0:
192,192,45675,1,0,0:0:0:0:
320,192,45787,1,0,0:0:0:0:
448,192,45900,1,0,0:0:0:0:
448,192,46012,1,0,0:0:0:0:
192,192,46012,1,0,0:0:0:0:
320,192,46012,1,0,0:0:0:0:
448,192,46312,1,0,0:0:0:0:
64,192,46312,1,0,0:0:0:0:
192,192,46312,1,0,0:0:0:0:
320,192,46312,128,0,46687:0:0:0:0:
448,192,46687,1,0,0:0:0:0:
64,192,46687,1,0,0:0:0:0:
192,192,46687,128,0,47025:0:0:0:0:
448,192,47025,1,0,0:0:0:0:
64,192,47025,1,0,0:0:0:0:
448,192,47212,1,0,0:0:0:0:
320,192,47212,1,0,0:0:0:0:
448,192,47362,1,0,0:0:0:0:
64,192,47362,1,0,0:0:0:0:
320,192,47362,1,0,0:0:0:0:
448,192,47700,1,0,0:0:0:0:
320,192,47700,1,0,0:0:0:0:
192,192,47700,1,0,0:0:0:0:
448,192,48037,1,0,0:0:0:0:
192,192,48037,1,0,0:0:0:0:
320,192,48150,1,0,0:0:0:0:
64,192,48150,1,0,0:0:0:0:
192,192,48262,1,0,0:0:0:0:
448,192,48262,1,0,0:0:0:0:
64,192,48375,1,0,0:0:0:0:
320,192,48375,1,0,0:0:0:0:
64,192,48562,1,0,0:0:0:0:
192,192,48562,1,0,0:0:0:0:
64,192,48712,1,0,0:0:0:0:
192,192,48712,1,0,0:0:0:0:
320,192,48712,1,0,0:0:0:0:
64,192,49050,1,0,0:0:0:0:
192,192,49050,1,0,0:0:0:0:
448,192,49050,1,0,0:0:0:0:
320,192,49050,128,0,49387:0:0:0:0:
64,192,49387,1,0,0:0:0:0:
448,192,49387,1,0,0:0:0:0:
192,192,49387,128,0,49725:0:0:0:0:
64,192,49725,1,0,0:0:0:0:
320,192,49725,1,0,0:0:0:0:
64,192,49950,1,0,0:0:0:0:
448,192,49950,1,0,0:0:0:0:
64,192,50100,1,0,0:0:0:0:
448,192,50100,1,0,0:0:0:0:
64,192,50287,1,0,0:0:0:0:
448,192,50287,1,0,0:0:0:0:
64,192,50437,1,0,0:0:0:0:
448,192,50437,1,0,0:0:0:0:
64,192,50662,1,0,0:0:0:0:
192,192,50775,1,0,0:0:0:0:
320,192,50887,1,0,0:0:0:0:
448,192,51000,1,0,0:0:0:0:
320,192,51112,1,0,0:0:0:0:
192,192,51225,1,0,0:0:0:0:
64,192,51300,1,0,0:0:0:0:
320,192,51450,1,0,0:0:0:0:
448,192,51450,1,0,0:0:0:0:
192,192,51562,1,0,0:0:0:0:
320,192,51650,1,0,0:0:0:0:
448,192,51738,128,0,51959:0:0:0:0:
320,192,51959,1,0,0:0:0:0:
192,192,52091,1,0,0:0:0:0:
320,192,52223,128,0,52488:0:0:0:0:
448,192,52488,1,0,0:0:0:0:
