osu file format v13

[General]
AudioFilename: track.mp3
AudioLeadIn: 0
PreviewTime: 73188
Countdown: 0
SampleSet: None
StackLeniency: 0.7
Mode: 0
LetterboxInBreaks: 0
WidescreenStoryboard: 0

[Editor]
Bookmarks: 34050,141809
DistanceSpacing: 2
BeatDivisor: 4
GridSize: 4
TimelineZoom: 7.099995

[Metadata]
Title:Be Free (Nightcore Mix)
TitleUnicode:Be Free (Nightcore Mix)
Artist:DJ Mikesh
ArtistUnicode:DJ Mikesh
Creator:Kazuya
Version:Another
Source:
Tags:dancecore remix trance techno Kazuya-sama
BeatmapID:551273
BeatmapSetID:238360

[Difficulty]
HPDrainRate:7
CircleSize:4
OverallDifficulty:7
ApproachRate:9
SliderMultiplier:1.7
SliderTickRate:1

[Events]
//Background and Video events
0,0,"bg.jpg",0,0
//Break Periods
2,6837,7761
2,17871,18795
2,47181,49140
//Storyboard Layer 0 (Background)
//Storyboard Layer 1 (Fail)
//Storyboard Layer 2 (Pass)
//Storyboard Layer 3 (Foreground)
//Storyboard Sound Samples
//Background Colour Transformations
3,100,0,0,0

[TimingPoints]
2844,344.827586206897,4,1,0,100,1,0
2844,-133.333333333333,4,2,1,50,0,0
49740,-100,4,2,1,70,0,0
62154,-100,4,1,1,70,0,0
73188,-100,4,1,1,70,0,1
84223,-100,4,1,1,70,0,0
85602,-100,4,1,1,70,0,1
95257,-133.333333333333,4,2,1,50,0,0
114568,-100,4,2,1,50,0,0
120085,-83.3333333333333,4,1,1,70,0,1
130775,-83.3333333333333,4,1,1,70,0,0
131119,-83.3333333333333,4,1,1,70,0,1
142154,-83.3333333333333,4,2,1,70,0,0

[Colours]
Combo1 : 30,220,190
Combo2 : 253,161,166
Combo3 : 155,133,169
Combo4 : 69,118,171
SliderBorder : 255,255,255

[HitObjects]
348,344,2844,6,0,P|412:356|460:320,1,127.500004863739,4|0,0:0|3:0,0:0:0:0:
488,236,3361,1,0,0:0:0:0:
436,164,3533,2,0,L|304:156,1,127.500004863739,0|0,3:0|0:0,0:0:0:0:
256,84,4050,2,0,L|124:76,1,127.500004863739,0|0,3:0|0:0,0:0:0:0:
39,72,4568,1,0,3:0:0:0:
32,161,4740,2,0,L|35:288,1,127.500004863739
81,365,5257,2,0,P|112:373|147:367,1,63.7500024318696,8|0,3:0|0:0,0:0:0:0:
222,327,5602,5,0,3:0:0:0:
242,311,5947,1,0,3:0:0:0:
262,295,6292,1,0,3:0:0:0:
282,279,6637,1,0,3:0:0:0:
282,279,8361,6,0,P|350:287|410:279,1,127.500004863739,0|0,3:0|3:0,0:0:0:0:
407,151,8878,2,0,P|343:143|280:151,1,127.500004863739,0|0,3:0|3:0,0:0:0:0:
207,244,9395,1,0,3:0:0:0:
156,352,9568,2,0,P|100:372|32:364,1,127.500004863739,0|0,3:0|3:0,0:0:0:0:
4,240,10085,1,0,3:0:0:0:
32,116,10257,2,0,P|91:95|154:103,1,127.500004863739,0|0,3:0|3:0,0:0:0:0:
256,184,10775,1,0,3:0:0:0:
256,184,10947,1,0,3:0:0:0:
344,276,11119,6,0,P|408:300|476:284,1,127.500004863739,0|0,3:0|3:0,0:0:0:0:
417,170,11637,2,0,L|429:42,1,127.500004863739,0|0,3:0|3:0,0:0:0:0:
308,84,12154,1,0,3:0:0:0:
216,172,12326,2,0,L|204:298,1,127.500004863739,0|0,3:0|3:0,0:0:0:0:
87,352,12844,1,0,3:0:0:0:
64,227,13016,1,0,0:0:0:0:
144,128,13188,2,0,P|192:92|260:104,1,127.500004863739,0|0,3:0|3:0,0:0:0:0:
416,300,13878,6,0,B|360:332|360:332|232:324,1,191.250007295609,0|0,3:0|3:0,0:0:0:0:
144,318,14568,2,0,P|61:305|5:273,1,127.500004863739,0|0,3:0|0:0,0:0:0:0:
48,200,15085,2,0,P|101:226|173:231,1,127.500004863739,0|0,3:0|0:0,0:0:0:0:
256,212,15602,1,0,3:0:0:0:
343,231,15775,2,0,P|406:227|464:200,1,127.500004863739,0|0,3:0|0:0,0:0:0:0:
485,113,16292,1,0,3:0:0:0:
485,113,16464,1,0,3:0:0:0:
417,55,16637,6,0,L|225:43,2,191.250007295609,0|0|0,3:0|3:0|3:0,0:0:0:0:
476,264,19395,6,0,B|408:284|408:284|344:272,1,127.500004863739,0|0,3:0|3:0,0:0:0:0:
256,189,19912,1,0,0:0:0:0:
159,273,20085,2,0,B|104:284|104:284|36:264,1,127.500004863739,0|0,3:0|3:0,0:0:0:0:
36,120,20602,2,0,B|104:100|104:100|159:110,1,127.500004863739,0|0,3:0|3:0,0:0:0:0:
256,189,21119,1,0,3:0:0:0:
360,264,21292,2,0,P|444:276|492:252,1,127.500004863739,0|0,3:0|3:0,0:0:0:0:
488,132,21809,1,0,3:0:0:0:
488,132,21981,1,0,3:0:0:0:
388,52,22154,6,0,P|328:40|264:60,1,127.500004863739,0|0,3:0|3:0,0:0:0:0:
125,192,22671,2,0,P|187:204|248:186,1,127.500004863739,0|0,3:0|3:0,0:0:0:0:
180,78,23188,1,0,3:0:0:0:
52,84,23361,1,0,3:0:0:0:
7,203,23533,2,0,L|-1:271,1,63.7500024318696,0|0,3:0|0:0,0:0:0:0:
114,367,23878,2,0,L|122:304,1,63.7500024318696,0|0,3:0|0:0,0:0:0:0:
137,177,24223,2,0,P|168:165|213:169,1,63.7500024318696,0|0,3:0|0:0,0:0:0:0:
369,220,24568,2,0,P|339:231|305:229,1,63.7500024318696,0|0,3:0|0:0,0:0:0:0:
323,131,24912,6,0,L|351:327,1,191.250007295609,0|0,3:0|3:0,0:0:0:0:
350,320,25602,2,0,P|292:348|224:336,1,127.500004863739,0|0,0:0|3:0,0:0:0:0:
156,291,26119,1,0,3:0:0:0:
90,230,26292,2,0,B|73:164|73:164|94:98,1,127.500004863739,0|0,0:0|3:0,0:0:0:0:
256,31,26981,1,0,0:0:0:0:
408,124,27326,1,0,3:0:0:0:
408,124,27499,1,0,3:0:0:0:
436,248,27671,6,0,B|360:256|360:256|320:292,1,127.500004863739,0|0,3:0|0:0,0:0:0:0:
74,338,28188,2,0,B|150:330|150:330|188:296,1,127.500004863739,0|0,3:0|0:0,0:0:0:0:
159,83,28706,1,0,3:0:0:0:
353,83,29395,1,0,3:0:0:0:
100,204,29740,1,8,3:0:0:0:
94,215,29912,1,8,3:0:0:0:
88,226,30085,1,8,3:0:0:0:
83,238,30257,1,8,3:0:0:0:
78,250,30430,6,0,L|-2:258,1,63.7500024318696,0|0,3:0|0:0,0:0:0:0:
172,340,30947,2,0,L|308:328,1,127.500004863739,0|0,3:0|0:0,0:0:0:0:
388,320,31464,1,0,3:0:0:0:
476,304,31637,6,0,P|508:212|480:124,1,191.250007295609
320,48,32499,2,0,L|184:44,1,127.500004863739,0|0,0:0|3:0,0:0:0:0:
76,97,33016,1,0,0:0:0:0:
31,216,33188,6,0,P|63:224|111:220,1,63.7500024318696,0|0,3:0|0:0,0:0:0:0:
220,199,33533,1,0,0:0:0:0:
320,280,33706,2,0,P|351:280|382:272,1,63.7500024318696,0|0,3:0|0:0,0:0:0:0:
408,148,34050,2,0,P|435:132|458:110,1,63.7500024318696,0|0,3:0|0:0,0:0:0:0:
360,28,34395,1,0,0:0:0:0:
360,28,34568,2,0,L|224:40,1,127.500004863739,0|0,3:0|3:0,0:0:0:0:
44,140,35085,2,0,L|172:152,1,127.500004863739,0|0,0:0|3:0,0:0:0:0:
300,160,35602,1,0,3:0:0:0:
300,160,35947,6,0,P|363:228|332:326,1,191.250007295609,2|2,0:0|0:0,0:0:0:0:
270,252,36637,2,0,L|134:260,1,127.500004863739,2|0,0:0|0:0,0:0:0:0:
68,84,37326,2,0,L|195:76,1,127.500004863739,2|0,0:0|0:0,0:0:0:0:
387,68,38016,1,0,0:0:0:0:
472,240,38361,1,0,0:0:0:0:
320,356,38706,2,0,L|124:364,2,191.250007295609,2|2|2,0:0|0:0|0:0,0:0:0:0:
320,356,40775,5,2,0:0:0:0:
320,356,41119,1,2,0:0:0:0:
456,220,41464,6,0,P|422:220|388:208,1,63.7500024318696,2|0,0:0|0:0,0:0:0:0:
228,116,41981,2,0,P|196:100|88:104,1,127.500004863739,2|2,0:0|0:0,0:0:0:0:
36,164,42499,1,0,0:0:0:0:
88,244,42671,2,0,P|120:260|228:256,1,127.500004863739,2|0,0:0|0:0,0:0:0:0:
283,200,43188,1,0,0:0:0:0:
283,200,43533,2,0,P|228:172|160:184,1,127.500004863739,2|0,0:0|0:0,0:0:0:0:
116,264,44050,6,0,L|120:336,1,63.7500024318696,2|0,0:0|0:0,0:0:0:0:
215,319,44395,2,0,L|219:391,1,63.7500024318696,2|0,0:0|0:0,0:0:0:0:
313,273,44740,2,0,L|317:337,1,63.7500024318696,2|0,0:0|0:0,0:0:0:0:
419,301,45085,2,0,L|422:364,2,63.7500024318696,2|2|2,0:0|0:0|0:0,0:0:0:0:
412,189,45602,2,0,P|407:127|362:85,1,127.500004863739,2|0,0:0|0:0,0:0:0:0:
200,175,46119,2,0,L|328:168,1,127.500004863739,2|0,0:0|0:0,0:0:0:0:
363,85,46637,1,2,0:0:0:0:
200,175,46981,5,4,0:0:0:0:
4,256,49740,6,0,P|68:212|160:224,1,170,8|8,0:0|0:0,0:0:0:0:
248,268,50257,1,0,0:0:0:0:
328,332,50430,2,0,P|368:348|416:352,1,85,8|0,0:0|0:0,0:0:0:0:
428,252,50775,2,0,P|470:245|514:225,1,85,8|0,0:0|0:0,0:0:0:0:
428,80,51119,6,0,B|352:100|352:100|260:92,1,170,8|8,0:0|0:0,0:0:0:0:
159,77,51637,1,0,0:0:0:0:
76,136,51809,2,0,L|72:228,1,85,8|0,0:0|0:0,0:0:0:0:
71,323,52154,1,8,0:0:0:0:
172,312,52326,1,8,0:0:0:0:
264,168,52499,6,0,L|436:152,1,170,8|8,0:0|0:0,0:0:0:0:
468,56,53016,1,0,0:0:0:0:
468,56,53188,2,0,L|384:64,1,85,8|0,0:0|0:0,0:0:0:0:
392,240,53533,2,0,L|476:232,1,85,8|0,0:0|0:0,0:0:0:0:
264,168,53878,6,0,B|208:136|208:136|100:148,1,170,8|8,0:0|0:0,0:0:0:0:
3,168,54395,1,0,0:0:0:0:
56,256,54568,1,8,0:0:0:0:
224,352,54740,1,0,0:0:0:0:
156,276,54912,1,8,0:0:0:0:
324,332,55084,1,8,0:0:0:0:
344,232,55257,6,0,L|512:184,1,170,12|8,0:0|0:0,0:0:0:0:
432,115,55775,1,0,0:0:0:0:
432,115,55947,2,0,L|336:143,1,85,8|0,0:0|0:0,0:0:0:0:
280,64,56292,2,0,L|361:40,1,85,8|8,0:0|0:0,0:0:0:0:
228,152,56637,6,0,L|52:140,1,170,12|8,0:0|0:0,0:0:0:0:
0,56,57154,1,0,0:0:0:0:
0,56,57326,2,0,L|86:61,1,85,8|0,0:0|0:0,0:0:0:0:
84,223,57671,2,0,L|0:218,1,85,8|8,0:0|0:0,0:0:0:0:
155,148,58016,5,12,3:0:0:0:
155,148,58188,1,8,3:0:0:0:
357,148,58361,1,8,3:0:0:0:
357,148,58533,1,8,3:0:0:0:
204,72,58706,1,12,3:0:0:0:
308,224,58878,1,8,3:0:0:0:
308,72,59050,1,8,3:0:0:0:
204,224,59222,1,8,3:0:0:0:
104,246,59395,5,12,3:0:0:0:
94,296,59481,1,8,3:0:0:0:
125,337,59568,1,8,3:0:0:0:
170,361,59654,1,8,3:0:0:0:
220,352,59740,1,12,3:0:0:0:
269,339,59826,1,8,3:0:0:0:
282,289,59912,1,8,3:0:0:0:
323,258,59999,1,8,3:0:0:0:
370,277,60085,6,0,L|362:310,7,21.25,4|0|0|0|0|0|0|0,3:0|3:0|0:0|0:0|0:0|0:0|0:0|0:0,0:0:0:0:
423,345,60430,2,0,L|419:365,7,21.25,4|0|0|0|0|0|0|0,3:0|3:0|0:0|0:0|0:0|0:0|0:0|0:0,0:0:0:0:
256,192,60775,12,0,61981,0:0:0:0:
96,216,62154,6,0,P|144:212|188:224,1,85,4|0,0:0|0:0,0:0:0:0:
355,268,62499,2,0,P|313:272|272:264,1,85,0|0,0:0|0:0,0:0:0:0:
380,180,62844,1,0,0:0:0:0:
448,256,63016,1,0,0:0:0:0:
468,156,63188,1,0,0:0:0:0:
400,80,63360,1,0,0:0:0:0:
400,80,63533,6,0,B|356:56|356:56|224:64,1,170
134,71,64050,1,0,0:0:0:0:
96,166,64223,2,0,L|180:162,1,85
99,268,64568,2,0,L|14:271,1,85
250,206,64912,6,0,P|264:166|253:126,1,85
196,293,65257,2,0,P|182:332|193:373,1,85
388,316,65602,1,0,0:0:0:0:
287,333,65775,1,0,0:0:0:0:
388,214,65947,1,0,0:0:0:0:
489,197,66120,1,0,0:0:0:0:
304,156,66292,6,0,L|135:175,1,170
33,187,66809,1,0,0:0:0:0:
33,187,66981,2,0,P|18:149|21:99,1,85
135,175,67326,1,0,0:0:0:0:
92,269,67499,1,0,0:0:0:0:
156,348,67671,6,0,L|248:340,1,85
376,244,68016,2,0,L|292:252,1,85,8|0,0:0|0:0,0:0:0:0:
420,152,68361,2,0,L|504:144,2,85,0|0|8,0:0|0:0|0:0,0:0:0:0:
340,88,68878,1,0,0:0:0:0:
340,88,69050,6,0,P|268:56|176:64,1,170,0|8,0:0|0:0,0:0:0:0:
96,124,69568,1,0,0:0:0:0:
153,208,69740,2,0,P|197:216|241:208,1,85
96,124,70085,1,8,0:0:0:0:
28,200,70257,1,0,0:0:0:0:
80,288,70430,6,0,P|114:316|156:332,1,85
316,273,70775,2,0,P|274:279|232:271,1,85,8|0,0:0|0:0,0:0:0:0:
153,208,71119,1,0,0:0:0:0:
232,359,71292,1,0,0:0:0:0:
173,182,71464,1,8,0:0:0:0:
316,273,71637,1,0,0:0:0:0:
476,216,71809,6,0,B|512:176|476:128|476:128|444:144|404:132,1,170,0|8,0:0|0:0,0:0:0:0:
36,216,72499,2,0,B|0:176|36:128|36:128|68:144|108:132,1,170,0|8,0:0|0:0,0:0:0:0:
256,69,73016,1,0,0:0:0:0:
384,180,73188,6,0,P|440:196|480:192,1,85,4|0,0:0|0:0,0:0:0:0:
330,296,73533,2,0,P|344:353|368:385,1,85,8|0,0:0|0:0,0:0:0:0:
204,304,73878,1,0,0:0:0:0:
104,324,74050,1,0,0:0:0:0:
4,202,74223,1,8,0:0:0:0:
104,222,74395,1,0,0:0:0:0:
188,164,74568,6,0,P|156:136|116:120,1,85,0|0,0:0|0:0,0:0:0:0:
207,263,74912,2,0,P|239:291|279:307,1,85,8|0,0:0|0:0,0:0:0:0:
374,268,75257,1,0,0:0:0:0:
473,242,75430,1,0,0:0:0:0:
401,170,75602,1,8,0:0:0:0:
452,342,75775,1,0,0:0:0:0:
401,170,75947,6,0,L|225:182,1,170,0|8,0:0|0:0,0:0:0:0:
129,190,76464,1,0,0:0:0:0:
179,101,76637,2,0,L|271:93,1,85
280,264,76981,2,0,L|195:271,1,85,8|0,0:0|0:0,0:0:0:0:
401,169,77326,6,0,P|457:108|448:27,1,170,0|8,0:0|0:0,0:0:0:0:
356,74,77844,1,0,0:0:0:0:
296,156,78016,2,0,P|300:197|328:248,1,85
426,372,78361,2,0,P|422:330|404:292,1,85,8|0,0:0|0:0,0:0:0:0:
240,361,78706,6,0,P|282:366|324:356,1,85
180,280,79050,2,0,P|137:275|96:285,1,85,8|0,0:0|0:0,0:0:0:0:
144,376,79395,1,0,0:0:0:0:
276,268,79568,1,0,0:0:0:0:
120,196,79740,1,8,0:0:0:0:
240,361,79912,1,0,0:0:0:0:
400,332,80085,6,0,P|436:316|472:280,1,85
350,175,80430,2,0,P|373:143|386:93,1,85,8|0,0:0|0:0,0:0:0:0:
224,89,80775,2,0,P|228:49|214:0,1,85,0|0,0:0|0:0,0:0:0:0:
68,66,81119,1,8,0:0:0:0:
9,217,81292,1,0,0:0:0:0:
84,360,81464,6,0,L|272:352,1,170,0|8,0:0|0:0,0:0:0:0:
356,352,81981,1,0,0:0:0:0:
420,272,82154,2,0,P|460:284|502:284,1,85
323,235,82499,2,0,P|283:223|241:223,1,85,8|0,0:0|0:0,0:0:0:0:
404,172,82844,6,0,P|440:112|416:20,1,170,0|8,0:0|0:0,0:0:0:0:
96,19,83533,2,0,P|70:98|108:172,1,170,0|8,0:0|0:0,0:0:0:0:
256,280,84050,1,8,3:0:0:0:
256,280,84137,1,8,3:0:0:0:
256,280,84223,6,0,L|444:288,2,170,4|0|0,0:0|0:0|0:0,0:0:0:0:
154,269,85085,1,0,0:0:0:0:
60,308,85257,1,8,0:0:0:0:
8,220,85430,1,8,0:0:0:0:
52,128,85602,6,0,P|84:112|136:108,1,85,4|0,0:0|0:0,0:0:0:0:
315,91,85947,2,0,P|277:109|235:111,1,85,8|0,0:0|0:0,0:0:0:0:
252,11,86292,2,0,L|292:187,1,170,0|8,0:0|0:0,0:0:0:0:
316,276,86809,1,0,0:0:0:0:
386,202,86981,6,0,L|366:118,1,85
197,166,87326,2,0,L|216:248,1,85,8|0,0:0|0:0,0:0:0:0:
192,348,87671,1,0,0:0:0:0:
92,376,87844,1,0,0:0:0:0:
216,248,88016,1,8,0:0:0:0:
316,276,88189,1,0,0:0:0:0:
408,232,88361,6,0,L|428:136,1,85,0|0,0:0|0:0,0:0:0:0:
357,8,88706,2,0,L|340:92,1,85,8|0,0:0|0:0,0:0:0:0:
230,219,89050,2,0,L|248:136,1,85,0|0,0:0|0:0,0:0:0:0:
184,56,89395,1,8,3:0:0:0:
139,32,89481,1,8,3:0:0:0:
88,40,89568,1,8,3:0:0:0:
58,81,89654,1,8,3:0:0:0:
72,130,89740,6,0,B|112:152|112:152|240:140,1,170,4|8,0:0|0:0,0:0:0:0:
338,135,90257,1,0,0:0:0:0:
436,164,90430,2,0,P|417:203|377:230,1,85,8|0,0:0|0:0,0:0:0:0:
240,335,90775,2,0,P|258:297|292:272,1,85,8|0,0:0|0:0,0:0:0:0:
340,362,91119,6,0,L|210:253,1,170,4|8,0:0|0:0,0:0:0:0:
132,185,91637,1,0,0:0:0:0:
228,152,91809,2,0,P|244:120|249:71,1,85
144,84,92154,1,8,0:0:0:0:
132,185,92326,1,0,0:0:0:0:
205,257,92499,6,0,L|297:253,1,85,4|0,3:0|0:0,0:0:0:0:
388,148,92844,2,0,L|304:152,1,85,8|0,0:0|0:0,0:0:0:0:
368,52,93188,1,8,3:0:0:0:
420,248,93361,1,8,3:0:0:0:
476,96,93533,1,8,3:0:0:0:
304,152,93706,1,8,3:0:0:0:
164,188,93878,5,12,3:0:0:0:
125,221,93964,1,8,3:0:0:0:
74,223,94050,1,8,3:0:0:0:
53,270,94137,1,8,3:0:0:0:
72,317,94223,1,12,3:0:0:0:
121,330,94309,1,8,3:0:0:0:
169,313,94395,1,8,3:0:0:0:
206,278,94481,1,8,3:0:0:0:
257,284,94568,5,12,3:0:0:0:
284,327,94654,1,8,3:0:0:0:
335,328,94740,1,8,3:0:0:0:
369,290,94826,1,8,3:0:0:0:
349,243,94912,1,12,3:0:0:0:
372,197,94999,1,8,3:0:0:0:
422,187,95085,1,8,3:0:0:0:
459,152,95171,1,8,3:0:0:0:
456,101,95257,6,0,L|388:96,1,63.7500024318696,6|0,0:0|0:0,0:0:0:0:
243,119,95602,2,0,L|307:124,1,63.7500024318696,2|0,0:0|0:0,0:0:0:0:
180,56,95947,2,0,P|124:32|48:48,1,127.500004863739,2|2,0:0|0:0,0:0:0:0:
100,216,96637,2,0,L|88:357,1,127.500004863739,2|2,0:0|0:0,0:0:0:0:
256,280,97326,1,2,0:0:0:0:
416,360,97671,2,0,P|446:362|484:348,1,63.7500024318696,0|0,3:0|3:0,0:0:0:0:
485,263,98016,6,0,L|472:132,1,127.500004863739,2|0,0:0|0:0,0:0:0:0:
316,52,98706,1,2,0:0:0:0:
164,148,99050,1,2,0:0:0:0:
79,305,99395,2,0,L|6:297,2,63.7500024318696,2|0|2,0:0|0:0|0:0,0:0:0:0:
256,336,100085,1,2,0:0:0:0:
424,276,100430,1,2,0:0:0:0:
368,204,100602,1,0,0:0:0:0:
408,124,100775,6,0,L|412:52,1,63.7500024318696,2|0,0:0|0:0,0:0:0:0:
256,148,101292,1,0,0:0:0:0:
256,148,101464,2,0,L|192:152,1,63.7500024318696,2|0,0:0|0:0,0:0:0:0:
40,60,101981,1,0,0:0:0:0:
40,60,102154,6,0,L|32:192,1,127.500004863739,2|0,0:0|0:0,0:0:0:0:
120,344,102844,1,2,0:0:0:0:
256,229,103188,1,2,0:0:0:0:
332,275,103361,6,0,P|327:307|336:337,1,63.7500024318696,2|0,0:0|0:0,0:0:0:0:
371,196,103706,2,0,P|376:164|367:134,1,63.7500024318696,2|0,0:0|0:0,0:0:0:0:
221,204,104050,2,0,P|252:208|283:200,1,63.7500024318696,2|0,0:0|0:0,0:0:0:0:
152,148,104395,2,0,P|121:139|90:143,1,63.7500024318696,2|0,0:0|0:0,0:0:0:0:
24,204,104740,1,2,0:0:0:0:
24,204,104912,2,0,P|4:144|28:80,2,127.500004863739,2|2|2,0:0|0:0|0:0,0:0:0:0:
164,316,105947,1,2,0:0:0:0:
236,264,106119,1,0,0:0:0:0:
236,264,106292,6,0,B|276:252|276:252|364:260,1,127.500004863739,4|0,0:0|3:0,0:0:0:0:
451,267,106809,1,0,3:0:0:0:
451,267,106981,2,0,B|480:212|480:212|464:136,1,127.500004863739,0|0,3:0|3:0,0:0:0:0:
437,63,107499,1,0,0:0:0:0:
437,63,107671,2,0,B|384:36|384:36|316:48,1,127.500004863739,0|0,3:0|3:0,0:0:0:0:
75,63,108361,2,0,B|128:36|128:36|196:48,1,127.500004863739,0|0,3:0|3:0,0:0:0:0:
256,113,108878,1,0,3:0:0:0:
312,182,109050,6,0,P|253:202|194:178,1,127.500004863739,8|0,3:0|0:0,0:0:0:0:
290,362,109740,2,0,P|255:368|226:362,2,63.7500024318696,0|0|8,0:0|3:0|3:0,0:0:0:0:
452,148,110602,2,0,L|448:80,1,63.7500024318696,8|0,3:0|0:0,0:0:0:0:
300,184,111119,2,0,L|303:247,1,63.7500024318696,8|0,3:0|0:0,0:0:0:0:
220,289,111464,2,0,L|217:226,1,63.7500024318696,8|0,3:0|0:0,0:0:0:0:
156,160,111809,5,8,3:0:0:0:
156,160,111981,2,0,P|128:168|88:164,1,63.7500024318696,0|0,0:0|3:0,0:0:0:0:
88,76,112326,1,0,0:0:0:0:
88,76,112499,2,0,P|59:68|27:45,2,63.7500024318696,8|0|0,3:0|3:0|3:0,0:0:0:0:
164,28,113016,2,0,B|256:44|256:44|352:28,1,191.250007295609,8|0,3:0|3:0,0:0:0:0:
320,204,113878,2,0,B|256:220|256:220|196:204,1,127.500004863739,0|0,0:0|3:0,0:0:0:0:
115,167,114395,1,0,3:0:0:0:
115,166,114568,6,0,P|106:208|115:249,1,85,12|0,3:0|0:0,0:0:0:0:
10,155,114912,2,0,P|24:115|52:84,1,85,8|0,3:0|0:0,0:0:0:0:
144,40,115257,1,12,3:0:0:0:
244,60,115430,1,8,3:0:0:0:
344,182,115602,1,8,3:0:0:0:
244,162,115775,1,8,3:0:0:0:
392,92,115947,5,12,3:0:0:0:
433,122,116033,1,8,3:0:0:0:
424,172,116119,1,8,3:0:0:0:
452,215,116206,1,8,3:0:0:0:
432,262,116292,5,12,3:0:0:0:
381,262,116378,1,8,3:0:0:0:
339,291,116464,1,8,3:0:0:0:
321,338,116550,1,8,3:0:0:0:
274,359,116637,5,12,3:0:0:0:
227,339,116723,1,8,3:0:0:0:
177,348,116809,1,8,3:0:0:0:
138,315,116895,1,8,3:0:0:0:
155,267,116981,6,0,L|168:232,7,21.25,4|0|0|0|0|0|0|0,3:0|3:0|0:0|0:0|0:0|0:0|0:0|0:0,0:0:0:0:
256,192,117326,12,0,118361,0:0:0:0:
160,192,118706,5,2,3:0:0:0:
160,192,119050,1,2,3:0:0:0:
296,344,119395,2,0,L|412:360,1,113.333333333333,8|2,3:0|3:0,0:0:0:0:
481,271,119740,2,0,L|368:255,1,113.333333333333,8|2,3:0|3:0,0:0:0:0:
436,187,120085,6,4,P|462:117|438:51,1,135.99999584961,4|0,0:0|0:0,0:0:0:0:
367,117,120430,2,0,P|302:154|230:135,1,152.999995330811,8|0,0:0|0:0,0:0:0:0:
20,104,120775,2,0,P|84:66|157:86,1,152.999995330811,0|0,0:0|0:0,0:0:0:0:
110,179,121119,1,8,0:0:0:0:
256,308,121349,1,0,0:0:0:0:
336,256,121464,6,0,L|352:112,1,135.99999584961
256,308,121809,2,0,P|320:352|384:336,1,135.99999584961,8|0,0:0|0:0,0:0:0:0:
336,256,122154,2,0,P|284:214|218:221,1,135.99999584961,0|0,0:0|0:0,0:0:0:0:
136,271,122499,1,8,0:0:0:0:
1,136,122729,1,0,0:0:0:0:
1,136,122844,6,0,L|137:152,1,135.99999584961
188,72,123188,2,0,P|256:62|329:74,1,135.99999584961,8|0,0:0|0:0,0:0:0:0:
375,152,123533,2,0,L|511:136,1,135.99999584961
432,64,123878,1,8,0:0:0:0:
252,312,124108,1,0,0:0:0:0:
252,312,124223,6,0,L|116:328,1,135.99999584961
44,257,124568,2,0,L|180:241,1,135.99999584961,8|0,0:0|0:0,0:0:0:0:
232,154,124912,2,0,L|96:170,1,135.99999584961
13,123,125257,1,8,0:0:0:0:
195,66,125487,1,0,0:0:0:0:
232,154,125602,6,0,L|368:176,1,135.99999584961
459,152,125947,2,0,P|468:85|432:29,1,135.99999584961,8|0,0:0|0:0,0:0:0:0:
429,243,126292,2,0,P|407:307|435:371,1,135.99999584961
503,303,126637,1,8,0:0:0:0:
429,243,126752,1,0,0:0:0:0:
335,253,126866,1,0,0:0:0:0:
265,318,126981,6,0,P|205:342|134:314,1,135.99999584961
199,120,127326,2,0,P|223:182|201:245,1,135.99999584961,8|0,0:0|0:0,0:0:0:0:
129,182,127671,2,0,L|345:194,1,203.999993774414,0|8,0:0|0:0,0:0:0:0:
484,100,128246,1,0,0:0:0:0:
484,100,128361,6,0,P|440:72|356:80,1,135.99999584961
336,172,128706,2,0,P|380:200|464:192,1,135.99999584961,8|0,0:0|0:0,0:0:0:0:
484,100,129050,1,0,0:0:0:0:
200,200,129280,1,0,0:0:0:0:
200,200,129395,1,8,0:0:0:0:
320,348,129625,1,0,0:0:0:0:
320,348,129740,6,0,P|391:357|448:332,1,135.99999584961
452,236,130085,2,0,P|390:209|323:219,1,135.99999584961,8|0,0:0|0:0,0:0:0:0:
249,280,130430,2,0,L|113:288,1,135.99999584961
28,244,130775,1,8,3:0:0:0:
8,152,130889,1,8,3:0:0:0:
88,100,131004,1,8,3:0:0:0:
168,152,131119,6,0,P|232:172|300:156,1,135.99999584961,4|0,0:0|0:0,0:0:0:0:
300,61,131464,2,0,P|236:41|168:57,1,135.99999584961,8|0,0:0|0:0,0:0:0:0:
164,248,131809,2,0,P|228:268|296:252,1,135.99999584961,0|0,0:0|0:0,0:0:0:0:
377,205,132154,1,8,0:0:0:0:
127,103,132384,1,0,0:0:0:0:
127,103,132499,6,0,P|70:70|2:70,1,135.99999584961
194,144,132844,2,0,P|252:177|320:177,1,135.99999584961,8|0,0:0|0:0,0:0:0:0:
338,94,133188,2,0,P|280:60|212:61,1,135.99999584961,0|0,0:0|0:0,0:0:0:0:
127,104,133533,1,8,0:0:0:0:
44,276,133763,1,0,0:0:0:0:
44,276,133878,6,0,B|108:292|108:292|184:264,1,135.99999584961
191,173,134223,2,0,B|256:157|256:157|324:173,1,135.99999584961,8|0,0:0|0:0,0:0:0:0:
339,267,134568,2,0,B|404:292|404:292|468:276,1,135.99999584961,0|0,0:0|0:0,0:0:0:0:
496,185,134912,1,8,0:0:0:0:
360,52,135142,1,0,0:0:0:0:
360,52,135257,6,0,L|220:64,1,135.99999584961
164,148,135602,2,0,L|300:136,1,135.99999584961,8|0,0:0|0:0,0:0:0:0:
372,209,135947,2,0,L|237:220,1,135.99999584961
164,148,136292,1,8,0:0:0:0:
256,362,136522,1,0,0:0:0:0:
328,300,136637,6,0,L|464:308,1,135.99999584961
256,362,136981,2,0,P|236:288|268:228,1,135.99999584961,8|0,0:0|0:0,0:0:0:0:
331,172,137326,2,0,L|467:164,1,135.99999584961
511,79,137671,1,8,0:0:0:0:
431,27,137786,1,0,0:0:0:0:
351,79,137901,1,0,0:0:0:0:
264,40,138016,6,0,L|236:176,1,135.99999584961
164,236,138361,2,0,P|98:229|38:259,1,135.99999584961,8|0,0:0|0:0,0:0:0:0:
256,264,138706,2,0,P|308:272|384:240,1,135.99999584961,0|0,0:0|0:0,0:0:0:0:
364,150,139050,2,0,P|313:141|236:174,1,135.99999584961,8|0,0:0|0:0,0:0:0:0:
164,236,139395,5,4,0:0:0:0:
40,92,139625,1,0,0:0:0:0:
40,92,139740,1,8,0:0:0:0:
219,26,139970,1,0,0:0:0:0:
219,26,140085,1,4,0:0:0:0:
364,150,140315,1,0,0:0:0:0:
364,150,140430,1,8,0:0:0:0:
288,324,140660,1,0,0:0:0:0:
236,244,140775,6,0,L|268:176,2,67.9999979248048,12|8|8,3:0|3:0|3:0,0:0:0:0:
156,296,141119,1,12,3:0:0:0:
64,272,141234,1,8,3:0:0:0:
28,184,141349,1,8,3:0:0:0:
80,104,141464,2,0,L|75:70,5,33.9999989624024,4|0|0|0|0|0,3:0|3:0|3:0|3:0|3:0|3:0,0:0:0:0:
151,135,141809,2,0,L|157:175,5,33.9999989624024,4|0|0|0|0|0,3:0|3:0|3:0|3:0|3:0|3:0,0:0:0:0:
210,224,142154,6,0,P|270:252|336:239,1,135.99999584961,12|0,0:0|0:0,0:0:0:0:
408,174,142499,2,0,P|348:145|282:157,1,135.99999584961,8|0,0:0|0:0,0:0:0:0:
336,240,142844,2,0,P|397:268|463:256,1,135.99999584961,8|0,0:0|0:0,0:0:0:0:
492,168,143188,1,8,0:0:0:0:
348,44,143418,1,8,0:0:0:0:
348,44,143533,6,0,L|204:52,1,135.99999584961,8|0,0:0|0:0,0:0:0:0:
149,134,143878,2,0,L|285:126,1,135.99999584961,8|0,0:0|0:0,0:0:0:0:
354,202,144223,2,0,L|219:209,1,135.99999584961,8|0,0:0|0:0,0:0:0:0:
149,134,144568,1,8,0:0:0:0:
272,331,144798,1,8,0:0:0:0:
272,331,144912,6,0,P|328:345|428:315,1,135.99999584961,8|0,0:0|0:0,0:0:0:0:
403,235,145257,2,0,P|348:220|248:250,1,135.99999584961,8|0,0:0|0:0,0:0:0:0:
183,273,145602,2,0,B|84:263|84:263|51:241,1,135.99999584961,8|0,0:0|0:0,0:0:0:0:
54,140,145947,2,0,B|84:120|84:120|183:111,1,135.99999584961,8|8,0:0|0:0,0:0:0:0:
246,192,146292,6,0,L|382:192,1,135.99999584961,8|0,0:0|0:0,0:0:0:0:
468,140,146637,2,0,P|416:96|336:108,1,135.99999584961,8|0,0:0|0:0,0:0:0:0:
352,284,146981,2,0,P|418:287|468:244,1,135.99999584961,8|0,0:0|0:0,0:0:0:0:
382,192,147326,1,8,0:0:0:0:
256,49,147556,1,8,0:0:0:0:
256,49,147671,6,0,P|184:24|120:40,1,135.99999584961,8|0,0:0|0:0,0:0:0:0:
124,132,148016,2,0,P|196:157|260:141,1,135.99999584961,8|0,0:0|0:0,0:0:0:0:
337,98,148361,2,0,P|404:86|466:110,1,135.99999584961,8|0,0:0|0:0,0:0:0:0:
488,204,148706,1,8,0:0:0:0:
452,292,148821,1,0,0:0:0:0:
360,272,148935,1,0,0:0:0:0:
280,324,149050,6,0,P|216:353|136:336,1,135.99999584961,8|0,0:0|0:0,0:0:0:0:
72,292,149395,2,0,L|56:148,1,135.99999584961,8|0,0:0|0:0,0:0:0:0:
120,84,149740,2,0,P|185:54|264:72,1,135.99999584961,8|0,0:0|0:0,0:0:0:0:
337,98,150085,2,0,P|402:112|465:77,1,135.99999584961,8|8,0:0|0:0,0:0:0:0:
389,18,150430,5,8,0:0:0:0:
72,292,150775,1,8,0:0:0:0:
466,193,151119,1,8,0:0:0:0:
75,73,151464,1,8,0:0:0:0:
256,192,151809,12,4,153188,0:0:0:0:
