osu file format v9

[General]
AudioFilename: Tequila.mp3
AudioLeadIn: 0
PreviewTime: 111746
Countdown: 0
SampleSet: Normal
StackLeniency: 0.5
Mode: 0
LetterboxInBreaks: 1

[Editor]
Bookmarks: 70906,81267,144590,154952
DistanceSpacing: 0.8
BeatDivisor: 4
GridSize: 4

[Metadata]
Title:Tequila
Artist:DJ Mendez
Creator:Krisom
Version:Normal
Source:
Tags:Larto lepidopodus

[Difficulty]
HPDrainRate:4
CircleSize:4
OverallDifficulty:3
ApproachRate:3
SliderMultiplier:1.4
SliderTickRate:2

[Events]
//Background and Video events
0,0,"BG.png"
//Break Periods
2,71152,80039
2,144644,153732
//Storyboard Layer 0 (Background)
//Storyboard Layer 1 (Fail)
//Storyboard Layer 2 (Pass)
//Storyboard Layer 3 (Foreground)
//Storyboard Sound Samples
//Background Colour Transformations
3,100,163,162,255

[TimingPoints]
2523,328.947368421053,4,1,0,70,1,0
49891,-100,4,1,0,70,0,1
70944,-100,4,1,0,70,0,0
113049,-100,4,1,0,70,0,1
134101,-100,4,1,0,70,0,0
155154,-100,4,1,0,70,0,1
165680,-100,4,1,0,70,0,0
174726,-100,4,1,0,70,0,1
174828,-100,4,1,0,70,0,0

[Colours]
Combo1 : 120,141,137
Combo2 : 89,217,28
Combo3 : 236,224,9
Combo4 : 0,189,244
Combo5 : 211,44,89
SliderBorder : 0,0,0
SliderTrackOverride : 189,185,110

[HitObjects]
102,167,18312,1,0
203,211,18641,1,8
308,172,18970,1,0
409,216,19299,1,8
472,124,19628,2,0,B|428:56|336:72,1,140,2|8
128,60,20615,5,8
164,168,20944,1,0
256,104,21273,1,8
348,40,21601,1,2
384,148,21930,1,8
489,111,22259,2,0,B|508:188|451:241,1,140,2|8
324,56,23246,6,2,B|256:84|188:56,1,140,2|0
136,156,23904,1,2
188,372,24562,2,2,B|256:344|324:372,1,140,2|0
376,272,25220,1,2
368,48,25878,5,2
256,60,26207,1,0
144,48,26536,1,2
188,268,27194,2,2,B|256:240|324:268,1,140,2|0
256,356,27851,1,0
412,196,28509,21,8
324,124,28838,1,0
256,36,29167,1,8
188,124,29496,1,0
100,196,29825,1,8
116,308,30154,2,2,B|400:308,1,280,2|0
424,200,31141,5,8
384,96,31470,2,0,B|256:197|128:96,1,280
88,200,32457,1,8
128,304,32786,2,2,B|256:203|384:304,1,280,2|0
440,208,33773,5,8
392,108,34101,2,0,B|304:68|256:108|208:148|120:108,1,280,0|0
72,208,35088,1,8
124,308,35417,2,0,B|212:388|328:344,2,210,0|2|8
212,240,36733,6,0,B|272:136|400:160,2,210,0|2|8
256,344,38049,1,0
256,344,38378,1,2
48,264,39036,21,8
20,156,39365,2,0,B|188:208|280:60,1,280,0|8
44,88,40680,2,0,B|148:128|224:20,1,210,0|2
384,68,41667,5,8
392,180,41996,2,0,B|304:220|256:180|208:140|120:180,1,280,0|2
128,348,43147,1,0
291,309,43641,38,8,B|219:309,1,70
256,144,44299,1,8
368,132,44628,38,0,B|285:-23|116:16,1,280,0|8
302,164,45944,2,0,B|256:62|126:84,1,210,0|2
72,244,46930,1,8
144,332,47259,5,8
256,348,47588,1,8
368,332,47917,1,8
256,208,48411,1,6
152,104,49891,22,0,B|256:128|360:104,2,210,4|2|8
152,216,51207,2,0,B|256:192|360:216,2,210,0|2|8
144,328,52522,5,0
368,328,53180,1,8
256,204,53674,1,2
144,80,54167,1,8
256,80,54496,1,0
368,80,54825,1,8
308,176,55154,6,0,B|356:224|356:224|387:255|373:308|319:323|299:303,2,210,0|2|8
203,207,56470,2,0,B|154:158|154:158|123:127|137:74|191:59|211:79,2,210,0|2|8
144,300,57786,5,0
368,300,58444,1,8
256,176,58937,1,2
144,300,59430,1,8
256,300,59759,1,0
368,300,60088,1,8
308,204,60417,22,0,B|404:120|504:168,2,210,4|2|8
204,180,61733,2,0,B|108:264|8:216,2,210,0|2|8
144,84,63049,5,0
368,84,63707,1,8
256,208,64200,1,2
144,332,64694,1,8
256,316,65022,1,0
368,332,65351,1,8
424,236,65680,5,0
256,216,66174,1,2
200,56,66667,1,8
312,56,66996,1,0
256,216,67490,1,2
88,236,67983,1,8
144,140,68312,5,0
368,140,68970,1,8
256,264,69463,1,2
256,192,69957,12,4,70944
120,192,81470,21,0
200,116,81799,1,8
312,116,82128,1,0
392,192,82457,1,8
348,296,82786,2,0,B|284:296|256:337|256:337|228:296|164:296,2,210,0|2|8
312,188,84101,6,0,B|260:68|384:16,2,210,0|2|8
200,188,85417,2,0,B|252:68|128:16,1,210,0|2
92,140,86404,5,8
120,248,86733,1,0
224,292,87062,1,2
420,180,87720,1,2
392,72,88049,1,0
288,28,88378,1,2
185,227,89036,6,2,B|341:227,1,140,2|0
256,316,89694,1,2
326,103,90351,2,2,B|170:103,1,140,2|0
255,14,91009,1,0
120,192,91667,21,8
144,300,91996,1,0
256,280,92325,1,8
368,300,92654,1,0
392,192,92983,1,8
392,80,93312,2,2,B|256:20|120:80,1,280,2|0
104,192,94299,5,8
120,304,94628,2,0,B|256:364|392:304,1,280,0|0
408,192,95615,1,8
388,80,95944,2,2,B|332:120|256:76|256:76|180:120|124:80,1,280,2|0
108,192,96930,5,8
32,276,97259,1,0
256,296,97917,1,2
480,276,98575,1,0
312,128,99233,1,2
200,128,99562,1,8
151,228,99891,6,0,B|371:228,1,210,0|2
256,360,100878,1,8
256,360,101207,1,0
256,136,101865,1,4
88,284,102523,21,0
200,284,102851,1,8
312,284,103180,1,0
424,284,103509,1,8
361,191,103838,2,0,B|149:191,1,210,0|2
56,52,104825,5,8
156,104,105154,2,0,B|244:144|292:104|340:64|428:104,1,280,0|2
396,268,106305,1,0
221,274,106799,38,8,B|293:274,1,70
256,109,107457,1,8
352,52,107786,37,0
424,136,108115,1,8
424,248,108444,1,0
352,332,108773,1,8
256,276,109101,2,0,B|232:212|232:212|284:160|284:160|256:92,1,210,0|2
400,188,110088,1,8
368,296,110417,5,8
256,312,110746,1,8
144,296,111075,1,8
256,172,111569,1,6
396,76,113049,22,0,B|88:76,1,280,4|2
186,228,114200,2,0,B|342:228,1,140,2|0
312,60,115023,1,0
200,60,115351,1,8
144,156,115680,5,0
368,160,116338,1,8
256,284,116832,1,2
144,156,117325,1,8
256,172,117654,1,0
368,160,117983,1,8
396,52,118312,6,0,B|88:52,1,280,0|2
186,204,119463,2,0,B|342:204,1,140,2|0
312,36,120286,1,0
200,36,120615,1,8
144,132,120944,5,0
368,132,121601,1,8
256,256,122095,1,2
188,100,122588,2,0,B|256:72|324:100,2,140,8|0|8
120,188,123575,22,0,B|256:248|392:188,1,280,0|2
324,344,124726,2,0,B|256:372|188:344,1,140,2|0
200,176,125549,1,0
312,176,125878,1,8
392,100,126207,6,0,B|256:41|120:100,1,280,0|2
256,200,127358,1,2
144,324,127851,1,8
256,324,128180,1,0
368,324,128509,1,8
376,212,128838,6,0,B|356:164|304:148|256:196|208:244|156:232|136:180,1,280,0|2
256,60,129990,1,2
256,60,130319,1,0
312,220,130812,1,0
200,220,131141,1,8
144,316,131470,5,0
368,316,132128,1,8
256,192,132621,1,2
144,68,133115,1,8
368,68,133773,1,8
368,184,134101,22,2,B|260:188|260:188|252:244|252:244|124:252,1,280
256,372,135253,1,0
396,280,135746,1,8
436,176,136075,1,0
476,72,136404,1,8
372,32,136733,6,2,C|280:28|232:96|128:92,1,280
256,208,137884,1,0
140,328,138378,1,8
64,116,139036,1,8
120,20,139365,6,2,B|208:60|256:20|304:-20|392:20,1,280,2|2
256,120,140516,1,0
368,248,141009,1,8
256,268,141338,1,0
144,248,141667,1,8
144,136,141996,5,8
256,120,142325,1,8
368,136,142654,1,8
256,268,143148,1,6
64,312,155154,21,4
160,108,155812,2,0,B|200:76|256:52|312:76|352:108,1,210,8|2
256,164,156634,2,0,B|256:244,1,70,0|8
200,332,157128,1,0
312,332,157457,1,8
392,256,157786,6,0,B|256:197|120:256,1,280,0|2
256,156,158937,1,2
144,36,159430,1,8
256,36,159759,1,0
368,36,160088,1,8
404,140,160417,5,0
256,220,160911,1,2
108,140,161404,1,8
108,252,161733,1,0
256,332,162226,1,2
404,252,162720,1,8
396,140,163049,6,0,B|116:140,1,280,0|2
256,236,164200,1,0
100,300,164694,1,8
72,192,165022,1,0
44,84,165351,1,8
144,32,165680,22,2,B|252:36|252:36|260:92|260:92|388:100,1,280
256,220,166832,1,0
368,348,167325,1,8
256,356,167654,1,0
144,348,167983,1,8
140,236,168312,6,2,C|232:240|280:172|384:176,1,280
256,64,169463,1,0
88,68,169957,1,8
48,172,170286,1,0
16,280,170615,1,8
120,320,170944,6,2,B|208:280|256:320|304:360|392:320,1,280,2|2
252,224,172095,1,0
368,104,172588,1,8
256,116,172917,1,0
144,104,173246,1,8
144,216,173575,5,8
256,200,173904,1,8
368,216,174233,1,8
256,348,174726,1,6
