osu file format v9

[General]
AudioFilename: Nightcore - Take Me Up To Heaven.mp3
AudioLeadIn: 0
PreviewTime: 80049
Countdown: 0
SampleSet: Soft
StackLeniency: 0.7
Mode: 0
LetterboxInBreaks: 0
EpilepsyWarning: 1

[Editor]
DistanceSpacing: 1.1
BeatDivisor: 4
GridSize: 8

[Metadata]
Title:Take Me Up To Heaven (Nightcore Mix)
Artist:DJ Melodie
Creator:ZGT_pro
Version:Insane
Source:
Tags:tenshi-nyan tenshi deadbeat OnosakiHito Onosaki Diana Fox

[Difficulty]
HPDrainRate:7
CircleSize:4
OverallDifficulty:7
ApproachRate:7
SliderMultiplier:1.8
SliderTickRate:1

[Events]
//Background and Video events
0,0,"background.jpg"
//Break Periods
//Storyboard Layer 0 (Background)
Sprite,Background,Centre,"background_dark.png",320,240 M,0,92318,,320,240 S,0,92318,,0.6253659 F,0,92318,92673,0,1 F,0,92673,113120,1 F,0,113120,115076,1,0
//Storyboard Layer 1 (Fail)
//Storyboard Layer 2 (Pass)
//Storyboard Layer 3 (Foreground)
Sprite,Foreground,Centre,"text1.png",320,240 M,0,92673,,240,55 S,0,92673,,0.45 F,0,92673,93029,0,1 F,0,93029,94095,1 F,0,94095,94451,1,0
Sprite,Foreground,Centre,"text2.png",320,240 M,0,94807,,240,55 S,0,94807,,0.45 F,0,94807,95162,0,1 F,0,95162,96940,1 F,0,96940,97296,1,0
Sprite,Foreground,Centre,"text3.png",320,240 M,0,97651,,240,55 S,0,97651,,0.45 F,0,97651,98007,0,1 F,0,98007,99785,1 F,0,99785,100141,1,0
Sprite,Foreground,Centre,"text4.png",320,240 M,0,100496,,240,55 S,0,100496,,0.45 F,0,100496,100852,0,1 F,0,100852,101385,1 F,0,101385,101741,1,0
Sprite,Foreground,Centre,"text5.png",320,240 M,0,101919,,240,55 S,0,101919,,0.45 F,0,101919,102274,0,1 F,0,102274,102630,1 F,0,102630,102985,1,0
Sprite,Foreground,Centre,"text6.png",320,240 M,0,103697,,240,55 S,0,103697,,0.45 F,0,103697,104052,0,1 F,0,104052,105475,1 F,0,105475,105830,1,0
Sprite,Foreground,Centre,"text7.png",320,240 M,0,106186,,240,55 S,0,106186,,0.45 F,0,106186,106541,0,1 F,0,106541,107964,1 F,0,107964,108319,1,0
Sprite,Foreground,Centre,"text8.png",320,240 M,0,109031,,240,55 S,0,109031,,0.45 F,0,109031,109386,0,0.9834146 F,0,109386,109742,0.9834146,1 F,0,109742,110097,1,0
Sprite,Foreground,Centre,"text9.png",320,240 M,0,110453,,240,55 S,0,110453,,0.45 F,0,110453,110809,0,1 F,0,110809,111164,1 F,0,111164,111520,1,0
Sprite,Foreground,Centre,"text10.png",320,240 M,0,111875,,240,55 S,0,111875,,0.45 F,0,111875,112231,0,1 F,0,112231,114009,1 F,0,114009,115609,1,0
Sprite,Foreground,Centre,"bykr.png",320,240 M,0,1462,,240,55 S,0,1462,,0.6 F,0,1462,2173,0,1 F,0,2173,5729,1 F,0,5729,6085,1,0.004877631
Sprite,Foreground,Centre,"eq2.png",320,240 L,35800,14 F,0,0,712,1,0 L,47178,14 F,0,0,712,1,0 L,58556,15 F,0,0,712,1,0 L,69934,15 F,0,0,712,1,0 L,81312,15 F,0,0,712,1,0 L,104067,14 F,0,0,712,0.3,0 L,116867,31 F,0,0,712,1,0 L,139623,15 F,0,0,712,1,0 L,151000,14 F,0,0,712,1,0 M,0,35800,,320,240 S,0,35800,,0.65
Sprite,Foreground,Centre,"eq1.png",320,240 L,92334,60 F,0,0,355,1,0 M,0,92334,,320,240 S,0,92334,,0.65
//Storyboard Sound Samples
//Background Colour Transformations
3,100,163,162,255

[TimingPoints]
1312,355.555555555556,4,2,0,70,1,0
34533,-100,4,1,0,60,0,0
115609,-100,4,2,0,70,0,0
126810,-100,4,1,0,60,0,0
161926,-100,4,2,0,5,0,0

[Colours]
Combo1 : 0,0,125
Combo2 : 0,150,220
Combo3 : 25,50,255

[HitObjects]
48,48,11978,1,0
136,88,12156,1,0
48,136,12334,1,0
136,184,12512,1,0
48,232,12689,2,0,B|64:288|112:304,1,90
400,192,13223,2,0,B|400:136|344:136,1,90
400,192,13578,2,0,B|400:248|456:248,1,90
256,224,14112,5,0
256,192,14378,1,0
256,160,14645,1,0
88,56,15000,5,0
152,128,15178,1,0
64,176,15356,2,0,B|24:224|104:312|40:352,1,180
144,320,15889,1,0
240,352,16067,2,0,B|183:317|263:229|223:181,1,180
152,128,16600,1,0
224,64,16778,2,0,B|280:128|352:0|408:104,1,180
136,232,17667,6,0,B|80:224|72:160,1,90
136,232,18023,2,0,B|192:240|200:304,1,90
296,288,18378,2,0,B|296:184,2,90
368,216,18912,2,0,B|368:152|432:144,1,90
320,128,19267,1,0
96,320,19800,5,0
96,288,20067,1,0
96,256,20334,1,0
352,48,20689,5,0
424,120,20867,1,0
352,184,21045,2,0,B|312:232|392:312|336:360,1,180
280,280,21578,1,0
216,360,21756,2,0,B|164:316|244:236|204:188,1,180
128,128,22289,1,0
88,216,22467,2,0,B|48:192|16:112|88:40,1,180
368,56,23356,6,0,B|304:120,1,90
368,56,23712,2,0,B|440:128,1,90
432,216,24067,2,0,B|376:288|216:144|136:232,1,270
104,136,24778,2,0,B|72:192|136:288|80:336,1,180
97,313,25312,1,0
464,192,26200,6,0,B|416:192|400:128,1,90
320,192,26556,2,0,B|272:192|256:256,1,90
184,312,26912,2,0,B|136:248|240:80|168:24,1,270
96,88,27623,2,0,B|96:184,1,90
96,280,27978,1,0
96,280,28156,1,0
424,192,29045,6,0,B|424:136|352:104,1,90
424,192,29400,2,0,B|424:248|352:280,1,90
312,192,29756,1,0
280,192,30023,1,0
248,192,30289,1,0
256,192,31000,12,0,32778
256,48,35445,6,0,B|168:48|128:128,1,135
72,192,35978,1,0
120,248,36156,1,0
160,248,36245,1,0
208,192,36423,1,0
312,192,36689,6,0,B|312:104,1,90
376,192,37134,1,0
448,272,37400,1,0
376,296,37578,1,0
376,336,37667,1,0
304,320,37845,1,0
192,320,38112,6,0,B|96:320,1,90
102,320,38556,1,0
104,208,38823,1,0
152,152,39000,1,0
152,112,39089,1,0
200,56,39267,1,0
312,56,39534,6,0,B|312:144,1,90
312,256,39978,2,0,B|360:304|360:304|440:304,1,135
312,256,40423,2,0,B|264:304|264:304|184:304,1,135
232,200,40956,5,0
232,200,41134,1,0
216,96,41400,2,0,B|168:96|120:152|120:208,1,135
48,184,41845,1,0
48,144,41934,1,0
48,72,42112,1,0
48,256,42378,6,0,B|64:304|64:304|112:328,1,90
99,321,42823,1,0
184,256,43089,1,0
256,256,43267,1,0
256,296,43356,1,0
328,296,43534,1,0
328,120,43800,5,0
328,120,43978,1,0
328,120,44245,1,0
256,40,44512,1,0
200,88,44689,1,0
200,128,44778,1,0
128,128,44956,1,0
48,200,45223,6,0,B|72:240|72:240|136:264,1,90
208,200,45667,1,0
208,312,45934,1,0
256,256,46112,2,0,B|304:216|384:296|432:240,1,180
427,245,46645,1,0
427,245,46823,1,0
256,144,47178,6,0,B|256:56,1,90
184,56,47534,1,0
144,56,47623,1,0
72,56,47800,1,0
72,288,48067,6,0,B|160:288,1,90
272,288,48512,1,0
272,288,48778,1,0
344,288,48956,1,0
344,248,49045,1,0
344,136,49312,6,0,B|328:88|328:88|280:48,2,90
248,184,49934,2,0,B|200:184|200:184|168:144|168:144|128:144,1,135
136,216,50378,1,0
136,256,50467,1,0
64,256,50645,1,0
132,53,50912,6,0,B|132:165,1,90
240,48,51356,1,0
240,48,51623,1,0
352,48,51800,2,0,B|352:144|352:144|392:192,1,135
376,173,52334,1,0
376,288,52512,6,0,B|328:288|328:288|288:256|288:256|232:256,1,135
144,256,53045,1,0
72,256,53223,1,0
72,216,53312,1,0
72,144,53489,1,0
240,144,53756,6,0,B|152:144,1,90
200,48,54200,1,0
200,48,54467,1,0
272,48,54645,1,0
312,48,54734,1,0
384,48,54912,1,0
384,304,55178,6,0,B|368:256|368:256|312:216,1,90
256,304,55623,2,0,B|120:304,1,135
80,248,56067,1,0
80,208,56156,1,0
80,136,56334,1,0
224,192,56600,5,0
256,192,56956,1,0
288,192,57312,1,0
488,192,57667,6,0,B|392:192,2,90
448,280,58200,2,0,B|440:336|384:344,1,90
392,342,58734,1,0
192,344,59089,2,0,B|96:320|72:216,2,180
256,160,60156,5,0
256,160,60334,1,0
256,160,60600,1,0
256,312,60867,6,0,B|256:264|256:264|208:264|160:232|160:160,1,180
120,272,61400,1,0
256,312,61578,2,0,B|256:264|256:264|304:264|352:232|352:160,1,180
392,272,62111,1,0
448,192,62289,2,0,B|448:120|376:56|312:56,1,180
144,56,63000,5,0
144,56,63178,1,0
144,56,63445,1,0
144,208,63712,5,0
216,272,63889,2,0,B|256:248|280:296|312:256,1,90
368,80,64423,2,0,B|368:168,1,90
464,168,64778,2,0,B|464:264,1,90
376,304,65134,2,0,B|360:232|288:184|216:184,1,180
96,312,65845,5,0
96,312,66023,1,0
96,312,66289,1,0
256,312,66556,6,0,B|248:248|192:248|192:248|192:160,1,180
192,168,67089,1,0
256,312,67267,2,0,B|264:248|320:248|320:248|320:160,1,180
320,168,67800,1,0
400,224,67978,2,0,B|424:168|416:120|376:80|328:80,1,180
144,80,68689,5,0
144,80,68867,1,0
144,80,69134,1,0
72,208,69400,5,0
120,296,69578,1,0
168,208,69756,1,0
368,208,70112,2,0,B|296:136,1,90
368,208,70467,2,0,B|296:280,1,90
376,336,70823,2,0,B|440:320|480:272|464:176,1,180
400,56,71534,5,0
400,56,71712,1,0
400,56,71978,1,0
256,176,72245,6,0,B|200:176|184:128|184:128|88:128,1,180
144,216,72778,1,0
256,176,72956,2,0,B|312:176|328:128|328:128|424:128,1,180
368,216,73489,1,0
256,176,73667,2,0,B|256:360,1,180
72,288,74378,5,0
72,288,74556,1,0
72,288,74823,1,0
256,128,75267,6,0,B|248:72|184:56,2,90
256,224,75800,2,0,B|184:296,1,90
256,224,76156,2,0,B|328:296,1,90
400,352,76512,2,0,B|432:320|432:216|384:168,1,180
256,40,77223,5,0
256,40,77400,1,0
256,40,77667,1,0
224,184,77934,6,0,B|160:184|160:184|160:272|232:272,1,180
296,336,78467,1,0
288,184,78645,2,0,B|352:184|352:184|352:272|280:272,1,180
216,336,79178,1,0
120,336,79356,2,0,B|64:312|40:248|64:176,1,180
