osu file format v9

[General]
AudioFilename: Watch Out Pt.2 _ DJ Mass MAD Izm vs DJ Yoshitaka.mp3
AudioLeadIn: 0
PreviewTime: 27763
Countdown: 0
SampleSet: Soft
StackLeniency: 0.7
Mode: 0
LetterboxInBreaks: 1

[Editor]
DistanceSpacing: 1.2
BeatDivisor: 4
GridSize: 8

[Metadata]
Title:Watch Out Pt.2
Artist:DJ Mass MAD Izm* vs. DJ YOSHITAKA
Creator:Crimmi
Version:Hyper
Source:Beatmania IIDX
Tags:konami Bemani dj scratch battle Tech-Breakbeats Xeno 18 Resort Anthem HeatKai

[Difficulty]
HPDrainRate:6
CircleSize:5
OverallDifficulty:6
ApproachRate:7
SliderMultiplier:1.10000000596046
SliderTickRate:2

[Events]
//Background and Video events
Video,0,"Watch Out Pt.2 _ DJ Mass MAD Izm vs DJ Yoshitaka.avi"
0,0,"Hyper.jpg"
//Break Periods
2,50683,55890
//Storyboard Layer 0 (Background)
//Storyboard Layer 1 (Fail)
//Storyboard Layer 2 (Pass)
//Storyboard Layer 3 (Foreground)
//Storyboard Sound Samples
//Background Colour Transformations
3,100,128,0,0

[TimingPoints]
1655,405.405405405405,4,2,0,100,1,0
89222,-100,4,2,0,100,0,1
108276,-100,4,2,0,100,0,0

[Colours]
Combo1 : 128,0,128
Combo2 : 255,0,0
Combo3 : 128,0,0
Combo4 : 128,0,255

[HitObjects]
256,104,8141,6,0,B|256:40,2,55.000000298023,4|2|8
256,168,8749,1,0
200,136,8952,2,0,B|168:136,2,27.5000001490115
200,200,9357,1,8
256,240,9560,1,0
312,200,9763,6,0,B|432:200,1,110.000000596046,0|8
488,200,10371,1,2
488,264,10573,2,0,B|424:264,1,55.000000298023,0|2
368,264,10979,2,0,B|368:336,1,55.000000298023,0|8
304,320,11384,6,0,B|240:320,1,55.000000298023
184,320,11790,1,0
152,320,11891,1,0
120,320,11992,1,2
56,320,12195,2,0,B|56:240,1,55.000000298023
56,200,12600,1,0
104,152,12803,1,0
104,152,13006,6,0,B|160:112|216:112,1,110.000000596046,0|2
204,112,13614,2,0,B|263:112|311:144,1,110.000000596046,0|8
360,184,14222,1,2
376,216,14323,1,0
384,248,14425,1,2
384,312,14627,6,0,B|344:344|280:336,1,110.000000596046,0|8
216,312,15236,1,0
216,248,15438,2,0,B|216:184,1,55.000000298023,0|2
216,128,15844,2,0,B|136:128,1,55.000000298023,0|2
96,128,16249,6,0,B|96:240,2,110.000000596046,0|10|0
96,64,17263,1,0
160,64,17465,1,0
224,64,17668,1,2
224,128,17871,6,0,B|224:208,1,55.000000298023,0|2
160,184,18276,2,0,B|160:256,1,55.000000298023,8|0
96,248,18682,2,0,B|96:328,1,55.000000298023,0|2
96,368,19087,2,0,B|224:368,1,110.000000596046,8|2
272,368,19695,5,0
304,368,19796,1,0
336,368,19898,1,0
400,368,20100,2,0,B|400:248,1,110.000000596046,2|0
336,256,20709,2,0,B|336:176,1,55.000000298023,8|8
400,200,21114,6,0,B|400:128,1,55.000000298023,4|0
336,144,21519,2,0,B|288:120,1,55.000000298023,8|0
224,120,21925,2,0,B|224:192,1,55.000000298023,2|0
160,176,22330,2,0,B|104:224,1,55.000000298023,8|0
64,248,22736,2,0,B|64:304|152:304,1,110.000000596046,0|2
143,303,23344,2,0,B|256:304,1,110.000000596046,8|0
320,304,23952,2,0,B|320:240,1,55.000000298023,2|0
320,184,24357,5,0
376,144,24560,1,0
376,80,24763,1,2
320,40,24965,1,0
320,112,25168,1,0
264,80,25371,1,0
264,144,25573,1,2
320,184,25776,1,0
256,192,25979,12,2,27195
256,48,27600,6,0,B|184:72,1,55.000000298023,2|0
144,88,28006,2,0,B|176:152,1,55.000000298023,8|0
200,192,28411,2,0,B|264:160,1,55.000000298023,2|0
304,128,28817,2,0,B|336:192,1,55.000000298023,8|0
352,240,29222,2,0,B|256:296,1,110.000000596046,4|0
258,294,29830,2,0,B|162:232,1,110.000000596046,4|0
96,232,30438,2,0,B|96:152,1,55.000000298023,2|2
96,112,30844,5,0
160,112,31046,1,0
128,56,31249,1,8
192,56,31452,1,0
224,112,31654,2,0,B|304:112,1,55.000000298023,2|0
248,56,32060,2,0,B|312:56,1,55.000000298023,8|0
256,192,32465,12,2,33682
256,192,34087,5,4
320,192,34290,1,0
288,136,34492,1,8
224,136,34695,1,0
192,192,34898,1,0
224,248,35100,1,0
256,192,35303,1,2
288,248,35506,1,0
256,304,35709,6,0,B|200:328|144:296,1,110.000000596046,0|8
149,299,36317,2,0,B|104:256|112:192,1,110.000000596046,0|2
112,136,36925,1,0
144,128,37026,1,0
176,120,37127,1,2
240,120,37330,6,0,B|304:104|352:168,1,110.000000596046,0|8
339,152,37938,2,0,B|368:208|328:264,1,110.000000596046,0|2
272,288,38546,1,0
240,296,38648,1,0
208,304,38749,1,2
144,304,38952,6,0,B|64:304,1,55.000000298023,0|2
89,305,39357,2,0,B|88:225,1,55.000000298023
88,184,39763,1,0
152,184,39965,1,2
104,136,40168,1,0
168,136,40371,1,2
128,88,40573,1,0
192,88,40776,5,0
152,40,40979,1,2
216,40,41182,2,0,B|288:40|320:104,1,110.000000596046,0|8
312,152,41790,1,0
312,184,41891,1,0
312,216,41992,1,2
312,280,42195,6,0,B|432:280,1,110.000000596046,0|2
488,280,42803,2,0,B|490:160,1,110.000000596046,0|8
424,160,43411,1,0
392,160,43513,1,0
360,160,43614,1,2
296,160,43817,5,4
232,160,44019,1,0
264,216,44222,1,8
200,216,44425,1,0
168,160,44627,1,4
136,216,44830,1,8
104,160,45033,1,0
72,216,45236,1,2
104,272,45438,6,0,B|104:320,14,27.5000001490115,2|2|2|2|2|2|2|2|2|2|2|2|2|2|2
104,208,47060,6,0,B|176:208,1,55.000000298023,4|0
192,208,47364,1,0
224,208,47465,1,8
288,208,47668,1,0
256,152,47871,2,0,B|256:96,2,55.000000298023,0|2|8
288,208,48479,1,0
256,192,48682,12,4,50303
144,192,56790,5,4
256,264,57195,1,2
368,192,57600,1,0
256,120,58006,1,2
144,192,58411,1,0
40,272,58817,1,0
144,336,59222,2,0,B|224:336,1,55.000000298023,0|2
200,272,59627,2,0,B|272:272,1,55.000000298023
256,336,60033,6,0,B|328:336,1,55.000000298023,4|0
320,272,60438,2,0,B|400:272,2,55.000000298023,4|0|4
256,272,61046,1,0
224,272,61148,1,0
192,272,61249,1,4
128,272,61452,1,0
256,192,61655,12,2,62871
424,192,63276,6,0,B|376:192|376:224,1,55.000000298023,4|0
376,280,63682,2,0,B|376:320|336:320,1,55.000000298023,8|0
280,320,64087,2,0,B|200:320,1,55.000000298023,0|2
160,320,64492,1,0
160,288,64594,1,0
160,256,64695,1,8
224,256,64898,6,0,B|224:192,1,55.000000298023,0|2
288,200,65303,2,0,B|336:168,1,55.000000298023,8|0
400,168,65709,2,0,B|400:96,1,55.000000298023,2|0
400,48,66114,2,0,B|320:48,1,55.000000298023,8|0
280,48,66519,5,0
216,48,66722,1,0
248,104,66925,1,8
312,104,67127,2,0,B|312:176|240:176,1,110.000000596046,0|2
184,184,67736,1,8
160,200,67837,1,0
136,216,67938,1,8
72,240,68141,6,0,B|72:304,1,55.000000298023
72,360,68546,2,0,B|152:360,1,55.000000298023,8|2
192,360,68952,1,0
256,360,69155,1,2
224,304,69357,1,0
256,304,69459,1,0
288,304,69560,1,8
344,304,69763,6,0,B|344:176,1,110.000000596046,4|2
344,193,70371,2,0,B|216:193,1,110.000000596046,0|2
168,192,70979,1,0
136,192,71080,1,0
104,192,71182,1,8
40,192,71384,6,0,B|40:304,1,110.000000596046,0|2
104,304,71992,2,0,B|224:306,1,110.000000596046,0|2
280,304,72600,1,0
312,304,72702,1,0
344,304,72803,1,8
344,240,73006,6,0,B|344:176,1,55.000000298023,4|2
344,120,73411,1,4
344,120,73614,1,0
280,144,73817,1,4
280,208,74019,1,0
224,176,74222,1,4
224,240,74425,1,2
256,192,74627,12,2,75844
256,32,76249,6,0,B|256:112,1,55.000000298023,4|0
256,152,76654,2,0,B|336:152,1,55.000000298023,8|0
376,152,77060,2,0,B|376:216|312:248,1,110.000000596046,0|8
256,240,77668,1,0
200,200,77871,6,0,B|120:200,1,55.000000298023
80,200,78276,2,0,B|80:280,1,55.000000298023,8|0
80,320,78682,2,0,B|192:320,1,110.000000596046
256,320,79290,1,8
256,256,79492,6,0,B|328:256,2,55.000000298023,0|2|0
192,256,80100,2,0,B|192:136,1,110.000000596046,0|8
192,80,80709,1,0
224,80,80810,1,0
256,80,80911,1,8
256,192,81114,12,4,82330
144,192,82736,5,0
208,192,82938,1,0
176,136,83141,1,8
240,136,83344,2,0,B|288:112|352:144,1,110.000000596046
400,184,83952,1,0
424,208,84053,1,0
448,232,84154,1,2
448,296,84357,6,0,B|384:296,1,55.000000298023,0|2
328,296,84763,1,8
264,296,84965,2,0,B|200:320|152:288,1,110.000000596046
112,240,85573,1,8
88,216,85675,1,0
64,192,85776,1,0
64,128,85979,6,0,B|128:128,1,55.000000298023,0|2
184,128,86384,1,8
184,64,86587,2,0,B|232:40|296:72,1,110.000000596046,0|2
320,128,87195,1,0
344,152,87296,1,0
368,176,87398,1,8
256,192,87600,12,2,88817
256,192,89222,5,4
256,128,89425,1,0
312,160,89627,1,8
312,96,89830,1,0
368,64,90033,1,0
368,128,90236,1,0
424,96,90438,1,8
424,32,90641,1,0
480,64,90844,6,2,B|480:176,1,110.000000596046,0|2
480,174,91452,2,2,B|352:176,1,110.000000596046,0|2
304,176,92060,1,8
272,176,92161,1,0
240,176,92263,1,0
176,176,92465,5,0
112,176,92668,1,2
176,176,92871,1,0
112,176,93073,2,0,B|112:256|192:256,1,110.000000596046,0|2
240,256,93682,1,0
264,280,93783,1,0
288,304,93884,1,8
360,304,94087,6,0,B|424:280|424:216,1,110.000000596046,0|2
423,223,94695,2,0,B|423:147|359:131,1,110.000000596046,0|2
304,136,95303,1,0
272,136,95404,1,0
240,136,95506,1,2
176,136,95709,5,4
208,80,95911,1,0
144,80,96114,1,8
112,136,96317,1,0
80,80,96519,1,0
40,136,96722,1,0
40,200,96925,2,0,B|40:256,1,55.000000298023,8|0
40,320,97330,6,0,B|120:320,1,55.000000298023,0|2
160,320,97736,2,0,B|160:248,2,55.000000298023,0|2|0
224,320,98344,2,0,B|288:320,1,55.000000298023,2|2
280,256,98749,2,0,B|216:256,2,55.000000298023,0|2|0
344,256,99357,2,0,B|344:176,1,55.000000298023,0|2
344,136,99763,1,0
312,136,99864,1,0
280,136,99965,1,0
248,136,100067,1,0
216,136,100168,1,0
152,136,100371,1,2
152,200,100573,5,0
184,200,100675,1,0
216,200,100776,1,0
248,200,100877,1,0
280,200,100979,1,0
344,200,101182,1,2
408,200,101384,1,0
376,256,101587,1,0
312,256,101790,1,4
184,296,102195,6,0,B|184:368,2,55.000000298023,4|0|0
184,232,102803,1,0
248,232,103006,2,0,B|360:232,1,110.000000596046,0|2
424,232,103614,1,0
392,288,103817,5,0
424,232,104019,2,0,B|424:160,1,55.000000298023,0|2
360,176,104425,1,0
360,112,104627,2,0,B|440:112,2,55.000000298023
296,112,105236,1,2
256,192,105438,12,4,108276
