osu file format v9

[General]
AudioFilename: Watch Out Pt.2 _ DJ Mass MAD Izm vs DJ Yoshitaka.mp3
AudioLeadIn: 0
PreviewTime: 27763
Countdown: 0
SampleSet: Soft
StackLeniency: 0.6
Mode: 0
LetterboxInBreaks: 1

[Editor]
DistanceSpacing: 1.2
BeatDivisor: 4
GridSize: 4

[Metadata]
Title:Watch Out Pt.2
Artist:DJ Mass MAD Izm* vs. DJ YOSHITAKA
Creator:Crimmi
Version:Another
Source:Beatmania IIDX
Tags:konami Bemani dj scratch battle Tech-Breakbeats Xeno 18 Resort Anthem HeatKai

[Difficulty]
HPDrainRate:7
CircleSize:5
OverallDifficulty:7
ApproachRate:8
SliderMultiplier:1.60000000596046
SliderTickRate:1

[Events]
//Background and Video events
Video,0,"Watch Out Pt.2 _ DJ Mass MAD Izm vs DJ Yoshitaka.avi"
0,0,"Another.jpg"
//Break Periods
2,76044,80364
//Storyboard Layer 0 (Background)
//Storyboard Layer 1 (Fail)
//Storyboard Layer 2 (Pass)
//Storyboard Layer 3 (Foreground)
//Storyboard Sound Samples
//Background Colour Transformations
3,100,128,0,0

[TimingPoints]
1655,405.405405405405,4,2,0,100,1,0
89222,-100,4,2,0,100,0,1
108276,-100,4,2,0,100,0,0

[Colours]
Combo1 : 128,0,128
Combo2 : 255,0,0
Combo3 : 128,0,0
Combo4 : 128,0,255

[HitObjects]
256,192,8141,6,0,B|320:160|352:160,1,80.000000298023,4|0
256,192,8546,2,0,B|192:160|160:160,1,80.000000298023,8|0
256,112,8952,1,2
344,152,9155,1,0
256,192,9357,1,8
168,152,9560,1,0
168,152,9661,1,0
168,152,9763,1,2
168,152,9965,6,0,B|168:232,2,80.000000298023,2|8|0
168,56,10573,2,0,B|80:56,2,80.000000298023,2|2|8
264,56,11182,1,0
368,56,11384,5,0
312,136,11587,1,0
368,56,11790,1,8
416,136,11992,1,0
368,224,12195,1,0
312,136,12398,1,0
264,224,12600,1,8
216,136,12803,6,0,B|168:136|136:192,2,80.000000298023,0|4|0
264,224,13411,1,0
312,136,13614,2,0,B|312:80|256:64,2,80.000000298023,4|0|0
216,144,14222,1,0
124,152,14425,1,4
80,72,14627,5,0
48,104,14729,1,2
32,152,14830,1,0
48,200,14932,1,0
88,224,15033,1,2
136,224,15134,1,0
176,200,15236,1,2
96,152,15438,2,0,B|168:104,2,80.000000298023,8|0|8
176,200,16046,1,2
256,152,16249,6,0,B|344:152,1,80.000000298023,2|2
256,152,16655,2,0,B|304:216,1,80.000000298023,4|4
256,152,17060,2,0,B|312:96,1,80.000000298023,0|2
256,152,17465,2,0,B|200:96,1,80.000000298023,0|4
128,32,17871,5,2
96,64,17972,1,0
64,96,18073,1,2
40,136,18175,1,2
64,176,18276,1,2
104,208,18377,1,0
144,240,18479,1,2
240,240,18682,2,0,B|224:280|184:296,2,80.000000298023,0|8|0
240,144,19290,1,2
240,240,19492,5,0
304,168,19695,1,2
240,240,19898,1,0
336,240,20100,1,2
240,240,20303,1,0
304,312,20506,1,2
240,240,20709,1,0
240,336,20911,1,2
240,240,21114,5,4
200,264,21215,1,0
152,256,21317,1,0
120,216,21418,1,0
136,168,21519,1,8
176,144,21621,1,0
224,152,21722,1,0
240,240,21925,2,0,B|296:256|328:240,1,80.000000298023,2|8
304,152,22330,2,0,B|256:136|208:160,1,80.000000298023,8|0
256,192,22736,12,2,23952
168,192,24357,5,2
192,152,24459,1,0
216,112,24560,1,2
256,88,24661,1,2
296,112,24763,1,2
320,152,24864,1,0
344,192,24965,1,2
256,232,25168,2,0,B|256:312,2,80.000000298023,2|8|0
256,136,25776,1,2
256,136,25979,6,0,B|208:136|184:168,1,80.000000298023,0|2
256,136,26384,2,0,B|304:136|328:168,1,80.000000298023,0|2
256,136,26790,2,0,B|256:56,2,80.000000298023,0|2|0
256,232,27398,1,2
336,184,27600,5,0
304,216,27702,1,2
256,232,27803,1,2
208,216,27904,1,2
168,184,28006,1,0
256,160,28209,1,0
168,120,28411,2,0,B|120:120|96:160,1,80.000000298023,2|8
40,232,28817,2,0,B|72:272|128:272,1,80.000000298023,8|0
112,176,29222,6,0,B|160:192|184:232,1,80.000000298023,0|2
200,312,29627,2,0,B|248:312|272:256,1,80.000000298023,0|2
320,192,30033,1,0
320,192,30134,1,0
320,192,30236,1,2
320,192,30438,2,0,B|432:192,1,80.000000298023,0|2
456,120,30844,6,0,B|488:160|464:208,1,80.000000298023,4|0
432,288,31249,1,8
392,312,31350,1,0
352,288,31452,1,0
392,200,31654,2,0,B|352:216|312:200,1,80.000000298023,2|2
312,104,32060,2,0,B|256:104|256:176,1,80.000000298023,8|2
256,192,32465,12,2,33682
256,24,34087,6,0,B|192:88,1,80.000000298023,4|8
256,160,34492,2,0,B|312:104,1,80.000000298023,8|0
368,24,34898,2,0,B|432:88,1,80.000000298023,0|8
488,152,35303,2,0,B|432:208,1,80.000000298023,8|0
344,256,35709,5,0
264,296,35911,1,8
264,200,36114,1,8
344,152,36317,1,0
344,56,36519,1,0
264,104,36722,1,8
344,56,36925,2,0,B|384:56,2,40.0000001490115,8|2|0
264,104,37330,6,0,B|216:104|192:152,1,80.000000298023,0|8
264,208,37736,2,0,B|240:248|184:240,1,80.000000298023,8|0
96,240,38141,1,0
144,160,38344,1,8
48,160,38546,1,8
96,240,38749,1,0
192,240,38952,5,8
256,312,39154,1,0
320,240,39357,1,8
256,168,39560,1,0
256,312,39763,5,0
192,240,39965,1,8
320,240,40168,1,8
384,168,40371,1,0
320,96,40573,6,0,B|280:80|240:96,1,80.000000298023,8|0
280,184,40979,2,0,B|240:208|192:184,1,80.000000298023,8|0
176,96,41384,2,0,B|104:160,1,80.000000298023,0|8
32,200,41790,1,10
32,248,41891,1,0
72,272,41992,1,2
168,272,42195,6,0,B|216:288|256:264,1,80.000000298023,4|0
328,320,42600,2,0,B|360:280|344:240,1,80.000000298023,8|0
344,152,43006,2,0,B|296:176|288:208,2,80.000000298023,0|8|8
440,152,43614,1,0
440,248,43817,5,4
392,328,44019,1,2
344,248,44222,1,0
288,328,44425,1,2
240,248,44627,1,4
192,328,44830,1,2
136,248,45033,1,0
80,328,45236,1,2
136,248,45438,6,0,B|168:224,6,40.0000001490115,2|2|2|2|2|2|2
48,224,46249,1,2
24,184,46350,1,0
32,136,46452,1,2
64,104,46553,1,0
112,104,46655,1,2
152,128,46756,1,0
152,176,46857,1,2
152,272,47060,5,4
256,112,47465,1,4
256,112,47668,1,0
352,272,47871,1,4
152,272,48276,1,4
256,192,48682,12,2,49898
256,81,50303,5,4
256,81,50506,1,2
143,193,50709,1,0
143,193,50911,1,2
256,303,51114,1,0
256,303,51317,1,2
360,192,51519,1,0
360,192,51722,1,2
256,81,51925,6,0,B|256:185,1,80.000000298023,8|0
256,303,52330,2,0,B|256:217,1,80.000000298023,8|0
360,192,52736,2,0,B|272:192,1,80.000000298023,8|8
143,193,53141,2,0,B|232:192,1,80.000000298023,8|0
256,104,53546,5,4
176,56,53749,1,0
96,104,53952,1,2
96,200,54155,1,0
176,256,54357,1,0
256,200,54560,1,0
96,200,54763,6,0,B|96:288,1,80.000000298023,2|0
256,200,55168,2,0,B|256:88,1,80.000000298023,8|0
176,64,55573,2,0,B|176:144,2,80.000000298023,8|0|8
272,64,56182,1,0
272,64,56283,1,0
272,64,56384,1,8
328,144,56587,1,2
384,64,56790,6,0,B|416:96|416:136,1,80.000000298023,4|0
416,232,57195,2,0,B|376:248|328:248,1,80.000000298023,8|0
240,232,57600,2,0,B|208:256|208:304,1,80.000000298023
112,304,58006,1,8
208,304,58209,1,0
160,224,58411,1,8
64,224,58614,5,0
112,144,58817,1,8
208,144,59019,1,0
256,224,59222,1,8
160,224,59425,1,0
208,304,59627,1,8
112,304,59830,1,8
160,224,60033,5,4
208,144,60236,1,0
112,144,60438,1,0
160,64,60641,1,4
256,64,60844,1,0
304,144,61046,1,0
352,64,61249,1,4
400,144,61452,1,0
456,64,61655,6,0,B|480:112,3,40.0000001490115,2|0|2|0
480,144,62060,2,0,B|480:184,3,40.0000001490115,2|0|2|0
464,232,62465,1,2
440,272,62567,1,0
400,296,62668,1,2
352,280,62769,1,0
320,240,62871,1,2
328,200,62972,1,0
360,168,63073,1,2
360,72,63276,6,0,B|304:72|272:128,1,80.000000298023,4|0
208,160,63682,1,8
128,104,63884,1,0
208,160,64087,1,2
128,208,64290,1,0
208,264,64492,1,8
288,208,64695,1,0
208,160,64898,6,0,B|248:128|288:128,1,80.000000298023,0|8
376,128,65303,2,0,B|376:184|344:200,1,80.000000298023,0|8
256,224,65709,2,0,B|256:280|304:304,1,80.000000298023,0|8
384,272,66114,1,2
424,248,66215,1,0
440,200,66317,1,2
440,104,66519,6,0,B|352:160,1,80.000000298023,0|2
400,56,66925,2,0,B|320:104,1,80.000000298023,8|0
360,8,67330,2,0,B|280:56,1,80.000000298023,0|2
208,104,67736,1,0
288,144,67938,1,2
208,104,68141,6,0,B|160:104|128:144,1,80.000000298023,0|8
48,176,68546,2,0,B|56:224|120:232,1,80.000000298023,8|0
176,296,68952,2,0,B|216:272|208:216,1,80.000000298023,0|8
160,144,69357,2,0,B|200:120|272:152,1,80.000000298023,8|0
328,176,69763,5,4
408,128,69965,1,0
368,216,70168,1,8
448,168,70371,1,0
408,256,70573,1,0
488,208,70776,5,8
448,296,70979,1,8
488,208,71182,1,0
408,256,71384,5,0
344,328,71587,1,2
280,256,71790,1,0
216,328,71992,1,2
152,256,72195,1,0
88,328,72398,1,2
24,256,72600,1,0
88,184,72803,1,2
152,256,73006,6,0,B|192:232,3,40.0000001490115,2|2|2|2
224,208,73411,2,0,B|272:176,3,40.0000001490115,2|2|2|2
296,160,73817,1,2
336,128,73918,1,0
384,128,74019,1,2
416,168,74121,1,0
400,216,74222,1,2
360,240,74323,1,2
312,232,74425,1,0
256,192,74627,12,4,75844
256,192,81114,12,2,82330
256,32,82736,5,4
304,112,82938,1,2
208,112,83141,1,0
208,112,83344,2,0,B|152:136|152:176,2,80.000000298023,8|0|8
304,112,83952,2,0,B|352:136|360:168,1,80.000000298023,8|0
360,264,84357,5,8
320,288,84459,1,0
272,296,84560,1,8
224,288,84661,1,0
184,264,84763,1,8
224,176,84965,2,0,B|304:176,2,80.000000298023,8|0|8
184,264,85573,1,4
144,176,85776,1,0
112,264,85979,6,0,B|112:304,3,40.0000001490115,2|0|2|0
88,264,86384,2,0,B|32:264,3,40.0000001490115,2|0|2|0
16,264,86790,2,0,B|16:176,1,80.000000298023,0|2
16,88,87195,1,4
112,88,87398,1,0
208,88,87600,6,2,B|248:128,3,40.0000001490115
272,144,88006,2,2,B|304:176,3,40.0000001490115
344,200,88411,1,2
368,240,88513,1,0
368,288,88614,1,2
320,304,88715,1,0
272,296,88817,1,2
224,208,89019,1,0
184,296,89222,6,0,B|136:312|96:288,1,80.000000298023,4|0
104,200,89627,2,0,B|144:184|192:208,1,80.000000298023,8|0
264,256,90033,2,0,B|296:224|288:176,2,80.000000298023,8|2|8
184,304,90641,1,0
104,256,90844,1,2
184,304,91046,5,0
264,256,91249,1,2
104,256,91452,1,0
184,200,91654,2,0,B|216:176|264:176,2,80.000000298023,2|8|2
104,152,92263,1,2
104,56,92465,6,0,B|152:32|192:32,1,80.000000298023,0|2
184,128,92871,2,0,B|224:128|264:112,1,80.000000298023,8|0
336,56,93276,2,0,B|360:96|352:144,1,80.000000298023,2|8
352,232,93682,1,8
256,256,93884,1,0
160,232,94087,6,0,B|128:264|128:304,2,80.000000298023,2|0|2
216,152,94695,1,2
160,72,94898,2,0,B|112:80|96:128,2,80.000000298023,8|8|8
216,152,95506,1,0
264,72,95709,5,4
312,152,95911,1,0
360,72,96114,1,2
408,152,96317,1,0
360,232,96519,2,0,B|312:248|280:232,1,80.000000298023,0|2
200,184,96925,2,0,B|168:208|168:256,1,80.000000298023,0|2
120,336,97330,6,0,B|160:360|224:336,1,80.000000298023
296,344,97736,2,0,B|320:312|296:264,1,80.000000298023,2|0
256,184,98141,1,2
192,256,98344,1,2
128,184,98546,1,0
192,112,98749,1,2
256,40,98952,5,4
320,112,99154,1,0
192,112,99357,1,4
256,184,99560,1,0
320,256,99763,1,4
256,328,99965,1,0
192,256,100168,1,4
320,256,100371,1,0
256,184,100573,5,2
304,184,100675,1,0
344,152,100776,1,2
336,104,100877,1,2
312,64,100979,1,0
264,64,101080,1,2
224,88,101182,1,0
200,128,101283,1,2
176,168,101384,2,0,B|152:200,3,40.0000001490115,2|2|2|2
120,240,101790,1,4
312,240,102195,6,0,B|312:296|264:312,1,80.000000298023,4|0
184,304,102600,2,0,B|184:224,1,80.000000298023,2|0
256,160,103006,2,0,B|256:120,2,40.0000001490115,2|0|2
256,160,103310,2,0,B|296:160,3,40.0000001490115,0|2|0|2
392,160,103817,1,2
392,256,104019,5,2
352,288,104121,1,0
304,288,104222,1,2
264,256,104323,1,0
264,208,104425,1,2
296,168,104526,1,0
344,160,104627,1,2
432,192,104830,1,2
432,96,105033,1,0
344,160,105236,1,2
344,64,105438,6,0,B|312:96|248:80,1,80.000000298023,4|0
176,64,105844,1,2
88,112,106046,1,2
88,208,106249,1,4
176,248,106452,1,0
264,208,106654,1,2
264,112,106857,1,2
352,64,107060,5,2
392,80,107161,1,0
416,120,107263,1,2
400,168,107364,1,0
352,176,107465,1,2
312,152,107567,1,0
296,104,107668,1,2
256,88,107769,1,0
208,104,107871,1,2
192,152,107972,1,0
152,176,108073,1,2
104,168,108175,1,0
88,120,108276,1,4
