osu file format v9

[General]
AudioFilename: Shakunetsu Beach Side Bunny.mp3
AudioLeadIn: 0
PreviewTime: 56830
Countdown: 1
SampleSet: Normal
StackLeniency: 1
Mode: 0
LetterboxInBreaks: 1
CountdownOffset: 1

[Editor]
DistanceSpacing: 0.8
BeatDivisor: 4
GridSize: 8

[Metadata]
Title:Shakunetsu Beach Side Bunny
Artist:DJ Mass MAD Izm*
Creator:Cosmic-M
Version:Normal
Source:beatmania IIDX
Tags:beatmania IIDX DJ Mass MAD Izm REFLEC BEAT limelight Cosmic-M

[Difficulty]
HPDrainRate:3
CircleSize:4
OverallDifficulty:5
ApproachRate:5
SliderMultiplier:1.50000000596047
SliderTickRate:1

[Events]
//Background and Video events
0,0,"BG.jpg"
//Break Periods
//Storyboard Layer 0 (Background)
//Storyboard Layer 1 (Fail)
//Storyboard Layer 2 (Pass)
//Storyboard Layer 3 (Foreground)
//Storyboard Sound Samples
//Background Colour Transformations
3,100,163,162,255

[TimingPoints]
360,392.156862745098,4,1,0,100,1,0
56830,-100,4,1,0,100,0,1
69379,-100,4,1,0,100,0,0
107026,-100,4,1,0,100,0,1
119183,-100,4,1,0,100,0,0

[Colours]
Combo1 : 255,255,128
Combo2 : 255,128,0
Combo3 : 255,0,0
Combo4 : 255,255,0
Combo5 : 255,168,125
Combo6 : 242,102,102
Combo7 : 255,100,26

[HitObjects]
63,142,6634,6,0,B|134:75|202:79,1,150.000000596047
448,136,8203,2,0,B|399:72|314:75|313:75,1,150.000000596047
56,214,9771,6,0,B|127:147|195:151,1,150.000000596047,0|0
439,209,11340,2,0,B|390:145|305:148|304:148,1,150.000000596047
40,304,12909,6,0,B|111:237|179:241,1,150.000000596047,0|0
444,310,14477,2,0,B|395:246|310:249|309:249,1,150.000000596047
52,195,16046,6,0,B|118:196,3,50.0000001986823
221,195,16830,2,0,B|304:195|304:191,3,50.0000001986823
256,192,17614,12,0,18791
472,72,19183,5,0
352,72,19575,1,0
232,73,19966,1,0
141,76,20261,1,0
48,72,20556,1,0
24,136,20752,1,0
136,136,21144,1,0
256,136,21536,1,0
344,136,21830,1,0
432,160,22124,1,0
464,232,22320,5,0
344,232,22712,1,0
224,232,23105,1,0
136,232,23399,1,0
48,232,23693,1,0
96,152,24085,5,0
152,152,24281,1,0
208,152,24477,1,0
264,152,24673,2,0,B|392:136,2,112.500000447035,0|0|0
352,208,25458,5,0
288,312,25850,1,0
192,240,26242,1,0
152,320,26536,1,0
88,256,26830,1,0
88,176,27026,5,0
112,120,27222,1,0
160,80,27418,1,0
240,0,27810,1,0
320,56,28105,1,0
384,128,28399,1,0
424,176,28595,2,0,B|464:256|360:288|352:296,1,150.000000596047
248,248,29379,5,0
208,336,29673,1,0
120,344,29967,1,0
80,304,30163,2,0,B|168:240,3,75.0000002980235
184,216,30948,1,0
256,168,31242,1,0
184,136,31536,1,0
136,104,31732,1,0
224,16,32124,1,0
328,0,32516,5,0
408,48,32810,1,0
456,120,33105,1,0
456,176,33301,2,0,B|352:176,2,75.0000002980235
368,256,34085,1,0
368,256,34379,1,0
368,256,34673,1,0
336,200,34869,6,0,B|272:272,1,75.0000002980235
240,216,35261,2,0,B|184:280,1,75.0000002980235
168,208,35654,1,0
88,248,35948,1,0
40,168,36242,1,0
80,128,36438,5,0
112,72,36634,1,0
136,128,36830,1,0
168,72,37026,1,0
224,96,37222,1,0
312,112,37516,1,0
400,136,37810,1,0
480,248,38007,5,6
360,256,38399,1,2
240,256,38791,1,2
152,256,39085,1,2
64,256,39379,1,2
104,304,39575,1,0
160,304,39771,1,0
216,304,39967,1,0
336,304,40360,2,0,B|416:272|392:200,1,112.500000447035
448,152,40948,1,0
448,208,41144,5,0
328,208,41536,2,0,B|280:192|280:144,1,75.0000002980235
240,112,41928,1,0
152,112,42222,1,0
96,176,42516,1,0
56,224,42712,2,0,B|104:280,3,75.0000002980235
136,232,43497,1,0
184,160,43791,1,0
240,88,44085,1,0
288,56,44281,5,0
344,72,44477,2,0,B|344:120,2,37.5000001490117
392,32,44869,1,0
448,16,45065,1,0
480,64,45261,1,0
432,104,45458,1,0
512,208,45850,1,0
448,240,46046,2,0,B|448:288,2,37.5000001490117
432,176,46438,1,0
360,176,46634,2,0,B|360:272,2,75.0000002980235
472,304,47418,5,0
408,304,47614,2,0,B|352:336,4,37.5000001490117
376,256,48203,1,0
336,208,48399,1,0
304,160,48595,1,0
184,160,48987,1,0
144,208,49183,2,0,B|184:264,2,37.5000001490117
200,224,49575,2,0,B|224:264,2,37.5000001490117
256,240,49967,1,0
280,296,50163,1,0
304,40,50556,5,0
376,40,50752,2,0,B|376:80,2,37.5000001490117
440,0,51144,1,0
488,32,51340,1,0
456,80,51536,1,0
408,120,51733,1,0
512,200,52125,1,0
440,200,52321,2,0,B|440:248,2,37.5000001490117
392,152,52713,1,0
352,200,52909,2,0,B|352:296,2,75.0000002980235
248,144,53693,5,0
200,184,53889,2,0,B|168:128,4,37.5000001490117
240,232,54478,1,0
192,264,54674,1,0
144,296,54870,1,0
32,248,55261,5,0
64,200,55458,2,0,B|32:152,2,37.5000001490117
112,168,55850,1,0
160,128,56046,2,4,B|224:48|280:8|344:48|392:144,1,300.000001192094
448,248,57222,5,0
328,248,57614,1,0
240,248,57909,1,0
152,248,58203,1,0
48,184,58595,5,0
104,184,58791,1,0
216,144,59183,2,0,B|248:208|248:200,2,37.5000001490117
328,144,59771,1,0
384,144,59967,1,0
416,192,60163,2,0,B|432:224,2,37.5000001490117
368,232,60556,2,0,B|392:280,2,37.5000001490117
328,280,60948,1,0
216,320,61340,1,0
96,288,61732,5,0
120,232,61928,2,0,B|184:184,1,75.0000002980235
232,160,62320,1,0
176,88,62614,2,0,B|152:136,1,37.5000001490117
104,88,62909,1,0
48,88,63105,5,0
16,144,63301,5,0
40,200,63497,5,0
48,256,63693,5,0
64,312,63889,5,0
152,312,64183,1,0
240,312,64477,1,0
296,312,64673,6,0,B|312:256|344:256,2,75.0000002980235
416,312,65458,1,0
480,248,65752,1,0
416,184,66046,1,0
464,144,66242,5,0
480,88,66438,2,0,B|432:48,2,37.5000001490117
464,144,66830,1,0
408,144,67026,2,0,B|376:208,4,37.5000001490117
352,136,67614,1,0
360,80,67810,6,0,B|240:8|112:16|0:136|0:208|0:304,1,525.000002086165
64,296,69379,5,0
120,296,69575,2,0,B|120:248,2,37.5000001490117
176,296,69967,2,0,B|176:208,2,75.0000002980235
296,296,70752,5,0
352,296,70948,2,0,B|352:248,4,37.5000001490117
408,296,71536,2,0,B|408:192,2,75.0000002980235
408,112,72516,5,0
352,112,72712,2,0,B|352:160,2,37.5000001490117
296,112,73105,2,0,B|296:200,2,75.0000002980235,0|0|0
176,120,73889,5,0
120,120,74085,1,0
64,120,74281,2,0,B|64:168,4,37.5000001490117
8,120,74869,1,0
8,176,75065,1,0
8,296,75458,1,0
64,296,75654,6,0,B|104:240,6,37.5000001490117
120,304,76438,2,0,B|144:264,6,37.5000001490117
176,304,77222,6,0,B|216:248,6,37.5000001490117
232,304,78006,2,0,B|256:264,6,37.5000001490117
296,304,78791,6,0,B|336:248,6,37.5000001490117
352,304,79575,2,0,B|376:264,6,37.5000001490117
408,304,80359,6,0,B|448:248,6,37.5000001490117
464,312,81143,2,0,B|488:272,4,37.5000001490117
464,192,81928,5,4
344,192,82320,1,0
224,192,82712,1,0
136,192,83007,1,0
48,192,83301,1,0
16,144,83497,5,0
136,136,83889,1,0
256,136,84281,1,0
344,136,84575,1,0
432,136,84869,1,0
456,80,85065,5,4
344,80,85458,1,0
224,80,85850,1,0
136,80,86144,1,0
48,88,86438,1,0
48,144,86634,5,4
96,256,87026,1,0
136,144,87418,1,0
176,224,87712,1,0
232,152,88007,1,0
272,104,88203,5,0
384,64,88595,1,0
336,176,88987,1,0
408,120,89281,1,0
384,208,89575,1,0
440,216,89771,5,0
472,328,90163,1,0
352,336,90556,1,0
264,336,90850,1,0
176,336,91144,1,0
120,336,91340,5,0
0,312,91732,1,0
120,280,92124,1,0
32,280,92418,1,0
112,232,92712,1,0
56,208,92909,5,0
104,96,93301,1,0
216,56,93693,1,0
304,80,93987,1,0
376,136,94281,1,0
472,200,94673,5,0
416,200,94869,1,0
456,280,95163,2,0,B|400:312,2,37.5000001490117
400,304,95556,2,0,B|360:328,1,37.5000001490117
312,344,95850,1,0
192,336,96242,5,0
176,280,96438,1,0
88,304,96732,2,0,B|56:248,2,37.5000001490117
112,248,97125,2,0,B|88:208,1,37.5000001490117
48,176,97419,1,0
64,72,97614,5,0
112,40,97810,2,0,B|152:80,2,37.5000001490117
168,24,98203,2,0,B|200:64,2,37.5000001490117
256,48,98693,2,0,B|280:88,1,37.5000001490117
232,128,98987,1,0
176,136,99183,5,0
128,168,99379,1,0
176,280,99771,1,0
232,304,99967,2,0,B|248:240,2,37.5000001490117
320,312,100458,2,0,B|368:312,3,37.5000001490117
368,192,101144,5,0
304,96,101536,1,0
368,32,101830,1,0
456,56,102124,1,0
488,104,102320,1,0
488,224,102712,1,0
416,320,103105,1,0
328,320,103399,1,0
264,256,103693,1,0
208,248,103889,5,0
112,312,104281,1,0
24,232,104673,1,0
40,144,104967,1,0
96,72,105261,1,0
256,192,105458,12,0,107026
360,64,107418,1,0
464,192,107810,1,0
384,288,108105,1,0
296,216,108399,1,0
208,352,108791,1,0
136,320,108987,1,0
16,320,109281,2,0,B|48:280,3,37.5000001490117
8,128,109967,1,0
56,160,110163,5,0
80,104,110359,2,0,B|136:128,2,37.5000001490117
120,56,110752,2,0,B|176:96,2,37.5000001490117
184,112,111242,1,0
256,160,111536,1,0
304,48,111928,5,0
360,48,112124,1,0
416,48,112320,1,0
472,48,112516,1,0
496,104,112712,2,0,B|456:152,2,37.5000001490117
496,168,113105,1,0
488,224,113301,5,10
400,304,113693,1,10
280,304,114085,1,10
192,304,114379,1,10
104,304,114673,1,10
48,280,114869,5,8
16,160,115261,1,8
96,64,115654,1,8
184,64,115948,1,8
272,64,116242,1,8
328,64,116438,5,10
424,136,116830,1,10
488,240,117222,1,10
424,296,117516,1,10
336,312,117810,1,10
288,320,118007,6,0,B|80:320|64:264|56:120|152:112|224:120,1,412.500001639129
232,200,119183,5,12
