osu file format v10

[General]
AudioFilename: Shakunetsu Beach Side Bunny.mp3
AudioLeadIn: 0
PreviewTime: 56830
Countdown: 0
SampleSet: Normal
StackLeniency: 1
Mode: 0
LetterboxInBreaks: 1
CountdownOffset: 1

[Editor]
DistanceSpacing: 2
BeatDivisor: 4
GridSize: 8

[Metadata]
Title:Shakunetsu Beach Side Bunny
TitleUnicode:
Artist:DJ Mass MAD Izm*
ArtistUnicode:
Creator:Cosmic-M
Version:Hyper
Source:beatmania IIDX
Tags:beatmania IIDX DJ Mass MAD Izm REFLEC BEAT limelight Cosmic-M
BeatmapID:166636
BeatmapSetID:54842

[Difficulty]
HPDrainRate:6
CircleSize:4
OverallDifficulty:6
ApproachRate:6
SliderMultiplier:2.00000000596047
SliderTickRate:2

[Events]
//Background and Video events
0,0,"BG.jpg"
//Break Periods
//Storyboard Layer 0 (Background)
//Storyboard Layer 1 (Fail)
//Storyboard Layer 2 (Pass)
//Storyboard Layer 3 (Foreground)
//Storyboard Sound Samples
//Background Colour Transformations
3,100,163,162,255

[TimingPoints]
360,392.156862745098,4,1,0,100,1,0
56830,-100,4,1,0,100,0,1
69379,-100,4,1,0,100,0,0
107026,-100,4,1,0,100,0,1
119183,-100,4,1,0,100,0,0

[Colours]
Combo1 : 255,255,128
Combo2 : 255,128,0
Combo3 : 255,0,0
Combo4 : 255,255,0
Combo5 : 255,168,125
Combo6 : 242,102,102
Combo7 : 255,100,26

[HitObjects]
64,152,6634,2,0,B|144:72|256:72,1,200.000000596047
400,72,7418,1,0,0:0:0
472,168,7712,1,0,0:0:0
408,272,8007,1,0,0:0:0
328,272,8203,6,0,B|216:272|128:216,1,200.000000596047
8,128,8987,1,0,0:0:0
96,48,9281,1,0,0:0:0
216,40,9575,1,0,0:0:0
296,40,9771,6,0,B|400:40|472:136,1,200.000000596047
448,288,10556,1,0,0:0:0
328,288,10850,1,0,0:0:0
208,296,11144,1,0,0:0:0
128,296,11340,6,0,B|16:288|16:144,1,200.000000596047
144,64,12124,1,0,0:0:0
264,64,12418,1,0,0:0:0
384,64,12712,1,0,0:0:0
440,120,12909,5,0,0:0:0
384,176,13105,1,0,0:0:0
448,216,13301,1,0,0:0:0
384,264,13497,1,0,0:0:0
304,288,13693,1,0,0:0:0
224,264,13889,2,0,B|280:224,1,50.0000001490118
192,208,14183,2,0,B|264:160,1,50.0000001490118
304,144,14477,6,0,B|232:64,1,100.000000298024
184,128,14869,2,0,B|104:56,1,100.000000298024
48,112,15261,1,0,0:0:0
8,184,15458,2,0,B|56:224,1,50.0000001490118
8,288,15752,2,0,B|48:320,1,50.0000001490118
96,264,16046,5,2,0:0:0
96,264,16176,1,0,0:0:0
96,264,16307,1,0,0:0:0
96,264,16438,1,0,0:0:0
232,264,16830,5,2,0:0:0
232,264,16961,1,0,0:0:0
232,264,17092,1,0,0:0:0
232,264,17222,1,0,0:0:0
368,264,17614,6,0,B|312:208,2,66.666666865349,2|0|0,0:0|0:0|0:0,0:0:0
416,264,18007,2,0,B|360:200,2,66.666666865349,2|0|0,0:0|0:0|0:0,0:0:0
464,264,18399,2,0,B|408:200,2,66.666666865349,2|0|0,0:0|0:0|0:0,0:0:0
504,232,18791,1,2,0:0:0
456,56,19183,5,2,0:0:0
320,56,19575,1,2,0:0:0
184,56,19967,1,2,0:0:0
112,56,20163,2,0,B|152:128,1,50.0000001490117,0|2,0:0|0:0,0:0:0
64,88,20458,2,0,B|96:160,1,50.0000001490117,0|2,0:0|0:0,0:0:0
24,176,20752,5,2,0:0:0
56,312,21144,1,0,0:0:0
208,352,21536,1,0,0:0:0
240,280,21732,1,0,0:0:0
240,280,21830,1,0,0:0:0
280,352,22026,1,0,0:0:0
280,352,22124,1,0,0:0:0
360,344,22320,2,0,B|304:256,1,100.000000298023,2|0,0:0|0:0,0:0:0
384,272,22712,2,0,B|320:176,1,100.000000298023,2|0,0:0|0:0,0:0:0
288,120,23105,1,2,0:0:0
232,176,23301,2,0,B|184:208,1,50.0000001490117,0|2,0:0|0:0,0:0:0
120,160,23595,2,0,B|56:208,1,50.0000001490117,0|2,0:0|0:0,0:0:0
24,136,23889,5,0,0:0:0
80,80,24085,1,0,0:0:0
160,72,24281,1,0,0:0:0
240,72,24477,1,0,0:0:0
320,56,24673,2,0,B|368:120,6,50.0000001490117
400,48,25458,5,2,0:0:0
400,128,25654,2,0,B|400:200,2,50.0000001490117,0|0|2,0:0|0:0|0:0,0:0:0
328,168,26046,2,0,B|328:224,2,50.0000001490117,0|0|2,0:0|0:0|0:0,0:0:0
320,48,26536,1,2,0:0:0
208,88,26830,1,2,0:0:0
136,48,27026,5,0,0:0:0
72,88,27222,1,0,0:0:0
16,144,27418,1,0,0:0:0
16,224,27614,1,0,0:0:0
88,192,27810,2,0,B|128:248,6,50.0000001490117
160,152,28595,5,2,0:0:0
192,224,28791,1,0,0:0:0
240,160,28987,1,2,0:0:0
264,240,29183,2,0,B|304:296,2,50.0000001490117,0|0|2,0:0|0:0|0:0,0:0:0
208,296,29575,2,0,B|240:352|248:352,1,50.0000001490117,0|2,0:0|0:0,0:0:0
160,312,29869,2,0,B|184:360,1,50.0000001490117,0|2,0:0|0:0,0:0:0
104,344,30163,5,0,0:0:0
56,280,30359,1,0,0:0:0
48,200,30556,2,0,B|104:144|152:144,1,100.000000298023
112,72,30948,1,0,0:0:0
192,56,31144,2,0,B|224:112,4,50.0000001490117
272,48,31732,5,4,0:0:0
368,48,32124,1,0,0:0:0
464,48,32516,1,0,0:0:0
464,96,32712,2,0,B|408:144|408:152,1,50.0000001490117
448,176,33007,2,0,B|416:216,1,50.0000001490117
488,256,33301,1,0,0:0:0
416,296,33497,1,0,0:0:0
336,320,33693,2,0,B|272:232|160:312|136:320,1,200.000000596047
80,320,34281,2,0,B|80:264,1,50.0000001490117
16,320,34575,2,0,B|16:256,1,50.0000001490117
16,192,34869,6,0,B|88:112,1,100.000000298023
128,48,35261,2,0,B|184:152,1,100.000000298023
208,64,35654,1,0,0:0:0
240,136,35850,2,0,B|264:184,1,50.0000001490117
184,208,36144,2,0,B|208:272,1,50.0000001490117
128,288,36438,2,0,B|176:344|224:344,1,100.000000298023
288,336,36830,2,0,B|336:280|384:280,1,100.000000298023
440,328,37222,1,0,0:0:0
408,216,37516,1,0,0:0:0
464,112,37810,1,0,0:0:0
416,48,38007,5,4,0:0:0
256,48,38399,1,0,0:0:0
96,56,38791,1,0,0:0:0
0,128,39085,1,0,0:0:0
120,128,39379,1,0,0:0:0
200,112,39575,2,0,B|224:160|152:208,2,100.000000298023
320,112,40360,1,0,0:0:0
264,184,40654,1,0,0:0:0
192,240,40948,1,0,0:0:0
152,312,41144,6,0,B|272:312|272:304,1,100.000000298023
312,256,41536,1,0,0:0:0
328,336,41732,1,0,0:0:0
392,288,41928,1,0,0:0:0
472,272,42124,2,0,B|448:208|448:208|456:216,1,50.0000001490117
488,152,42418,2,0,B|400:184,1,50.0000001490117
424,88,42712,5,0,0:0:0
368,144,42909,1,0,0:0:0
312,88,43105,1,0,0:0:0
256,144,43301,1,0,0:0:0
200,88,43497,1,0,0:0:0
144,144,43693,2,0,B|184:208,4,50.0000001490117
72,112,44281,5,8,0:0:0
88,192,44477,2,0,B|110:236,2,50.0000001490117
8,208,44869,1,0,0:0:0
48,280,45065,2,0,B|112:264|176:224,2,100.000000298023
200,336,45850,5,8,0:0:0
280,336,46046,2,0,B|280:280,2,50.0000001490117
360,336,46438,1,0,0:0:0
440,336,46634,2,0,B|408:248|352:232,1,100.000000298023
344,184,47026,1,0,0:0:0
184,184,47418,5,8,0:0:0
104,184,47614,2,0,B|152:128,4,50.0000001490117
48,120,48203,1,0,0:0:0
112,72,48399,1,0,0:0:0
192,80,48595,1,0,0:0:0
352,64,48987,5,8,0:0:0
432,72,49183,1,0,0:0:0
456,104,49281,1,0,0:0:0
424,136,49379,1,0,0:0:0
360,184,49575,1,0,0:0:0
288,152,49771,2,0,B|224:192|208:240|208:280|232:320,1,200.000000596047
392,320,50556,5,8,0:0:0
472,320,50752,1,0,0:0:0
472,280,50850,1,0,0:0:0
472,240,50948,1,0,0:0:0
464,160,51144,1,0,0:0:0
424,88,51340,2,0,B|336:160,2,100.000000298023
272,48,52124,6,0,B|240:112,4,50.0000001490117,8|0|0|0|0,0:0|0:0|0:0|0:0|0:0,0:0:0
192,48,52712,1,0,0:0:0
136,104,52909,1,0,0:0:0
192,160,53105,1,0,0:0:0
136,216,53301,1,0,0:0:0
8,272,53693,5,8,0:0:0
80,296,53889,1,0,0:0:0
120,296,53987,1,0,0:0:0
160,296,54085,1,0,0:0:0
240,296,54281,1,0,0:0:0
320,288,54477,2,0,B|352:224|408:240,2,100.000000298023
480,288,55261,5,0,0:0:0
448,216,55458,1,0,0:0:0
488,144,55654,1,0,0:0:0
416,112,55850,1,0,0:0:0
376,40,56046,2,0,B|320:80,7,50.0000001490117
296,56,56830,5,4,0:0:0
120,56,57222,1,2,0:0:0
8,192,57614,1,2,0:0:0
40,272,57810,2,0,B|88:296,1,50.0000001490117,0|2,0:0|0:0,0:0:0
136,232,58105,2,0,B|192:264,1,50.0000001490117,0|2,0:0|0:0,0:0:0
208,336,58399,1,0,0:0:0
280,296,58595,5,0,0:0:0
360,296,58791,2,0,B|448:232,1,100.000000298023
504,184,59183,2,0,B|448:160,2,50.0000001490117
496,104,59575,1,0,0:0:0
432,56,59771,1,0,0:0:0
360,32,59967,1,2,0:0:0
280,48,60163,6,0,B|288:104,2,50.0000001490117,0|0|2,0:0|0:0|0:0,0:0:0
200,48,60556,2,0,B|184:96,2,50.0000001490117,0|0|2,0:0|0:0|0:0,0:0:0
80,64,60948,2,0,B|104:112,1,50.0000001490117,0|2,0:0|0:0,0:0:0
32,136,61242,2,0,B|32:192,1,50.0000001490117,0|2,0:0|0:0,0:0:0
32,264,61536,1,0,0:0:0
96,312,61732,5,0,0:0:0
96,232,61928,1,0,0:0:0
136,160,62124,1,0,0:0:0
184,224,62320,1,0,0:0:0
200,304,62516,2,0,B|248:296,4,50.0000001490117
288,256,63105,5,8,0:0:0
384,256,63301,5,8,0:0:0
336,168,63497,5,8,0:0:0
432,168,63693,5,8,0:0:0
480,80,63889,5,8,0:0:0
360,48,64183,1,0,0:0:0
240,80,64477,1,0,0:0:0
160,72,64673,2,0,B|112:168,1,100.000000298023,0|0,0:0|0:0,0:0:0
40,176,65065,1,0,0:0:0
120,312,65458,1,0,0:0:0
192,216,65752,1,0,0:0:0
256,320,66046,1,0,0:0:0
336,320,66242,5,0,0:0:0
416,320,66438,2,0,B|384:272,2,50.0000001490117
456,256,66830,1,0,0:0:0
496,184,67026,2,0,B|440:184,4,50.0000001490117
480,104,67614,1,0,0:0:0
256,192,67810,12,0,69183,0:0:0
136,240,69379,5,4,0:0:0
160,168,69575,2,0,B|224:200,4,50.0000001490117
216,112,70163,1,0,0:0:0
288,152,70359,1,0,0:0:0
264,312,70752,5,0,0:0:0
344,312,70948,2,0,B|360:264,4,50.0000001490117
424,312,71536,1,0,0:0:0
480,256,71732,1,0,0:0:0
416,208,71928,1,0,0:0:0
392,56,72516,5,0,0:0:0
352,56,72614,1,0,0:0:0
312,56,72712,1,0,0:0:0
272,56,72810,1,0,0:0:0
232,56,72909,1,0,0:0:0
168,104,73105,1,0,0:0:0
96,64,73301,2,0,B|24:96|16:144,1,100.000000298023
24,288,73889,1,0,0:0:0
104,312,74085,5,0,0:0:0
184,304,74281,2,0,B|168:256,4,50.0000001490117
240,248,74869,1,0,0:0:0
288,312,75065,1,0,0:0:0
440,272,75458,1,0,0:0:0
496,216,75654,6,0,B|432:184,7,50.0000001490117
472,136,76438,2,0,B|424:112,7,50.0000001490117
472,72,77222,2,0,B|416:48,7,50.0000001490117
432,112,78007,2,0,B|392:160,7,50.0000001490117
344,152,78791,6,0,B|344:208,7,50.0000001490117
296,160,79575,2,0,B|296:216,7,50.0000001490117
296,272,80359,2,0,B|216:256,7,50.0000001490117
192,248,81144,2,0,B|224:168,7,50.0000001490117
192,144,81928,5,4,0:0:0
72,144,82320,1,0,0:0:0
32,296,82712,1,0,0:0:0
152,296,83007,1,0,0:0:0
272,296,83301,1,0,0:0:0
216,216,83497,1,0,0:0:0
376,216,83889,1,0,0:0:0
240,136,84281,1,0,0:0:0
360,136,84575,1,0,0:0:0
480,136,84869,1,0,0:0:0
416,64,85065,5,0,0:0:0
256,64,85458,1,0,0:0:0
96,72,85850,1,0,0:0:0
24,168,86144,1,0,0:0:0
56,288,86438,1,0,0:0:0
152,296,86634,1,0,0:0:0
312,296,87026,1,0,0:0:0
264,232,87222,1,0,0:0:0
344,232,87418,1,0,0:0:0
456,280,87712,1,0,0:0:0
464,160,88007,1,0,0:0:0
424,72,88203,5,0,0:0:0
264,72,88595,1,0,0:0:0
104,80,88987,1,0,0:0:0
48,184,89281,1,0,0:0:0
160,144,89575,1,0,0:0:0
128,240,89771,1,0,0:0:0
64,336,90163,1,0,0:0:0
224,344,90556,1,0,0:0:0
320,272,90850,1,0,0:0:0
424,328,91144,2,0,B|464:248|400:216,1,100.000000298023
344,96,91732,5,0,0:0:0
232,208,92124,1,0,0:0:0
152,112,92418,1,0,0:0:0
96,216,92712,1,0,0:0:0
48,128,92909,1,0,0:0:0
32,288,93301,1,0,0:0:0
96,336,93497,1,0,0:0:0
176,320,93693,1,0,0:0:0
256,328,93889,2,0,B|232:264,1,50.0000001490117
304,240,94183,2,0,B|368:272,1,50.0000001490117
464,152,94673,5,2,0:0:0
400,104,94869,1,2,0:0:0
280,80,95163,2,0,B|256:144,2,50.0000001490117,0|0|0,0:0|0:0|0:0,0:0:0
262,126,95556,1,0,0:0:0
224,128,95654,1,0,0:0:0
144,128,95850,1,0,0:0:0
48,96,96242,5,2,0:0:0
48,176,96438,1,2,0:0:0
32,296,96732,2,0,B|96:272,2,50.0000001490117
78,278,97124,1,0,0:0:0
96,312,97222,1,0,0:0:0
176,336,97418,1,0,0:0:0
248,296,97614,5,2,0:0:0
176,264,97810,1,0,0:0:0
176,264,97909,1,0,0:0:0
176,264,98007,1,2,0:0:0
248,224,98203,1,0,0:0:0
248,224,98301,1,0,0:0:0
248,224,98399,1,2,0:0:0
352,168,98693,2,0,B|376:224,1,50.0000001490117
344,288,98987,1,8,0:0:0
424,288,99183,5,2,0:0:0
472,224,99379,2,0,B|488:160|448:128,1,100.000000298023,2|0,0:0|0:0,0:0:0
392,80,99771,1,0,0:0:0
312,72,99967,2,0,B|296:128,6,50.0000001490117
232,72,100752,6,0,B|136:136,1,100.000000298023
72,104,101144,2,0,B|24:224,1,100.000000298023
72,264,101536,1,0,0:0:0
168,336,101830,1,0,0:0:0
288,344,102124,5,0,0:0:0
248,280,102320,2,0,B|160:216,1,100.000000298023
240,200,102712,2,0,B|336:264,1,100.000000298023
376,320,103105,1,0,0:0:0
480,264,103399,1,0,0:0:0
440,152,103693,1,0,0:0:0
408,80,103889,6,0,B|328:144,1,100.000000298023
328,64,104281,2,0,B|240:144,1,100.000000298023
208,64,104673,1,0,0:0:0
96,112,104967,1,0,0:0:0
48,224,105261,1,0,0:0:0
256,192,105458,12,6,107026,0:0:0
400,56,107418,5,2,0:0:0
448,208,107810,1,2,0:0:0
384,304,108105,1,2,0:0:0
264,312,108399,1,2,0:0:0
224,240,108595,1,0,0:0:0
144,264,108791,2,0,B|48:328,1,100.000000298023
40,200,109281,2,0,B|80:160,2,50.0000001490117
40,120,109673,2,0,B|40:48|48:56,1,50.0000001490117
120,96,109967,1,0,0:0:0
192,56,110163,5,2,0:0:0
272,56,110359,1,0,0:0:0
272,56,110458,1,0,0:0:0
272,56,110556,1,2,0:0:0
224,120,110752,1,0,0:0:0
224,120,110850,1,0,0:0:0
224,120,110948,1,2,0:0:0
136,200,111242,2,0,B|192:200,1,50.0000001490117,2|0,0:0|0:0,0:0:0
264,200,111536,1,2,0:0:0
336,160,111732,1,0,0:0:0
352,80,111928,5,0,0:0:0
424,48,112124,1,0,0:0:0
480,112,112320,1,0,0:0:0
424,176,112516,1,0,0:0:0
392,248,112712,2,0,B|448:288,5,50.0000001490117
416,312,113301,6,0,B|344:272|288:336,1,100.000000298023,4|0,0:0|0:0,0:0:0
240,320,113693,2,0,B|160:296|112:256,1,100.000000298023
80,240,114085,1,0,0:0:0
32,176,114281,2,0,B|96:128,1,50.0000001490117
144,184,114575,2,0,B|192:144,1,50.0000001490117
248,200,114869,5,4,0:0:0
320,224,115065,1,0,0:0:0
400,224,115261,1,0,0:0:0
408,144,115458,1,0,0:0:0
336,112,115654,1,0,0:0:0
280,56,115850,2,0,B|240:120|240:112,1,50.0000001490117
200,40,116144,2,0,B|160:112,1,50.0000001490117
96,72,116438,6,0,B|120:176,1,100.000000298023,4|0,0:0|0:0,0:0:0
40,168,116830,2,0,B|64:280,1,100.000000298023
128,312,117222,1,0,0:0:0
160,240,117418,2,0,B|208:208,1,50.0000001490117
216,288,117712,2,0,B|264:264,1,50.0000001490117
216,200,118007,6,0,B|64:136|200:-8|344:8|272:328|392:224|496:40,1,550.000001639129
512,144,119183,5,8,0:0:0
