osu file format v9

[General]
AudioFilename: Shakunetsu Beach Side Bunny.mp3
AudioLeadIn: 0
PreviewTime: 56830
Countdown: 2
SampleSet: Normal
StackLeniency: 0.9
Mode: 0
LetterboxInBreaks: 1
CountdownOffset: 1

[Editor]
DistanceSpacing: 0.7
BeatDivisor: 4
GridSize: 8

[Metadata]
Title:Shakunetsu Beach Side Bunny
Artist:DJ Mass MAD Izm*
Creator:Cosmic-M
Version:Beginner
Source:beatmania IIDX
Tags:beatmania IIDX DJ Mass MAD Izm REFLEC BEAT limelight Cosmic-M

[Difficulty]
HPDrainRate:1
CircleSize:3
OverallDifficulty:1
ApproachRate:2
SliderMultiplier:1.00000000596047
SliderTickRate:1

[Events]
//Background and Video events
0,0,"BG.jpg"
//Break Periods
//Storyboard Layer 0 (Background)
//Storyboard Layer 1 (Fail)
//Storyboard Layer 2 (Pass)
//Storyboard Layer 3 (Foreground)
//Storyboard Sound Samples
//Background Colour Transformations
3,100,163,162,255

[TimingPoints]
360,392.156862745098,4,1,0,100,1,0
56830,-100,4,1,0,100,0,1
69379,-100,4,1,0,100,0,0
107026,-100,4,1,0,100,0,1
119183,-100,4,1,0,100,0,0

[Colours]
Combo1 : 255,255,128
Combo2 : 255,128,0
Combo3 : 255,0,0
Combo4 : 255,255,0
Combo5 : 255,168,125
Combo6 : 242,102,102
Combo7 : 255,100,26

[HitObjects]
104,96,6634,1,0
248,88,8203,1,0
440,88,9771,1,0
440,224,11340,1,0
256,216,12909,1,0
64,224,14477,1,0
136,80,16046,5,2
376,80,16830,1,2
168,200,17614,1,2
288,192,18007,1,2
408,192,18399,1,2
192,80,19183,5,6
384,72,20752,1,6
128,152,22320,5,6
392,168,23889,1,0
128,72,25458,5,2
400,64,27026,1,0
120,168,28595,5,2
376,168,30163,1,0
120,192,31732,5,4
392,184,33301,1,0
112,240,34869,1,0
400,240,36438,1,0
48,192,38007,5,4
256,192,38791,1,0
464,184,39575,1,0
104,56,41144,5,0
256,56,41928,1,0
432,56,42712,1,0
432,128,44281,5,8
256,128,45065,1,0
80,128,45850,1,0
80,240,46634,1,0
256,232,47418,1,0
424,232,48203,1,0
272,304,48987,1,0
120,304,49771,1,0
16,184,50556,1,8
232,176,52124,6,8,B|424:112|432:112,1,200.000001192094
240,240,53693,2,8,B|440:184,1,200.000001192094
396,72,55261,6,8,B|96:72,1,300.000001788141
48,192,56830,5,2
256,192,58399,1,2
448,192,59967,1,2
72,248,61536,5,0
240,264,63105,2,6,B|352:96,1,200.000001192094
464,88,64673,1,0
440,192,66242,5,2
296,192,67026,1,2
160,208,67810,2,2,B|16:208|16:56|176:56,1,300.000001788141
320,72,69379,5,0
320,216,70948,1,0
104,216,72516,1,0
112,64,74085,1,0
344,72,75654,5,4
360,200,76438,1,0
192,208,77222,1,0
192,80,78007,1,0
48,88,78791,5,0
40,240,79575,1,0
192,240,80359,1,0
192,88,81144,1,0
368,80,81928,5,4
352,192,83497,1,0
376,312,85065,1,0
208,312,86634,1,0
160,184,88203,1,0
112,64,89771,1,0
24,184,91340,5,0
152,184,92909,1,0
272,184,94477,5,8
400,184,95261,1,8
512,184,96046,1,8
464,304,96830,1,8
344,304,97614,5,2
224,304,98399,1,2
104,312,99183,1,8
64,264,99575,1,8
32,216,99967,1,8
32,96,100752,5,2
168,96,101536,1,2
304,96,102320,1,2
440,88,103105,1,2
392,208,103889,1,0
344,208,104281,1,0
288,208,104673,1,0
256,192,105458,12,2,107026
64,72,107810,5,6
184,72,108595,1,8
304,72,109379,1,8
424,72,110163,5,6
424,192,110948,1,0
304,200,111732,1,4
184,192,112516,1,0
64,192,113301,5,6
64,72,114085,1,2
184,72,114869,1,12
240,72,115261,1,8
304,72,115654,1,8
424,72,116438,1,14
424,128,116830,1,8
424,184,117222,1,8
424,304,118007,6,8,B|304:232|232:304|136:192,1,300.000001788141
