osu file format v10

[General]
AudioFilename: Shakunetsu Beach Side Bunny.mp3
AudioLeadIn: 1776
PreviewTime: 56830
Countdown: 0
SampleSet: Normal
StackLeniency: 1
Mode: 0
LetterboxInBreaks: 1
CountdownOffset: 1

[Editor]
DistanceSpacing: 2
BeatDivisor: 4
GridSize: 8

[Metadata]
Title:Shakunetsu Beach Side Bunny
TitleUnicode:
Artist:DJ Mass MAD Izm*
ArtistUnicode:
Creator:Cosmic-M
Version:Another
Source:beatmania IIDX
Tags:beatmania IIDX DJ Mass MAD Izm REFLEC BEAT limelight Cosmic-M
BeatmapID:167215
BeatmapSetID:54842

[Difficulty]
HPDrainRate:6
CircleSize:4
OverallDifficulty:7
ApproachRate:7
SliderMultiplier:2.00000000596047
SliderTickRate:2

[Events]
//Background and Video events
0,0,"BG.jpg"
//Break Periods
//Storyboard Layer 0 (Background)
//Storyboard Layer 1 (Fail)
//Storyboard Layer 2 (Pass)
//Storyboard Layer 3 (Foreground)
//Storyboard Sound Samples
//Background Colour Transformations
3,100,163,162,255

[TimingPoints]
360,392.156862745098,4,1,0,100,1,0
56830,-100,4,1,0,100,0,1
69379,-100,4,1,0,100,0,0
107026,-100,4,1,0,100,0,1
119183,-100,4,1,0,100,0,0

[Colours]
Combo1 : 255,255,128
Combo2 : 255,128,0
Combo3 : 255,0,0
Combo4 : 255,255,0
Combo5 : 255,168,125
Combo6 : 242,102,102
Combo7 : 255,100,26

[HitObjects]
24,136,360,1,0,0:0:0
88,64,556,1,0,0:0:0
184,32,752,1,0,0:0:0
232,48,850,1,0,0:0:0
384,32,1144,1,0,0:0:0
448,168,1438,1,0,0:0:0
392,304,1732,1,0,0:0:0
296,320,1928,1,0,0:0:0
208,232,2320,1,0,0:0:0
112,320,2712,1,0,0:0:0
24,248,3007,1,0,0:0:0
56,128,3301,1,0,0:0:0
104,40,3497,5,0,0:0:0
200,32,3693,1,0,0:0:0
296,32,3889,1,0,0:0:0
328,72,3987,1,0,0:0:0
472,32,4281,1,0,0:0:0
448,128,4477,2,0,B|408:176,1,50.0000001490117
456,256,4771,2,0,B|424:296,1,50.0000001490117
256,192,5065,12,0,6438,0:0:0
136,224,6634,5,0,0:0:0
96,128,6830,1,0,0:0:0
144,40,7026,1,0,0:0:0
240,80,7222,1,0,0:0:0
336,40,7418,1,0,0:0:0
432,32,7614,2,0,B|472:88,1,50.0000001490117
376,128,7909,2,0,B|416:184,1,50.0000001490117
480,232,8203,2,0,B|440:280|360:336|304:328,1,200.000000596047
112,320,8987,1,0,0:0:0
16,200,9281,1,0,0:0:0
64,56,9575,1,0,0:0:0
120,136,9771,5,0,0:0:0
168,48,9967,1,0,0:0:0
240,112,10163,1,0,0:0:0
280,80,10261,1,0,0:0:0
424,32,10556,1,0,0:0:0
480,120,10752,2,0,B|400:176,1,50.0000001490117
488,240,11046,2,0,B|432:280,1,50.0000001490117
352,288,11340,1,0,0:0:0
272,232,11536,1,0,0:0:0
232,320,11732,1,0,0:0:0
136,312,11928,1,0,0:0:0
64,240,12124,1,0,0:0:0
32,96,12418,1,0,0:0:0
168,24,12712,5,0,0:0:0
168,24,12810,1,0,0:0:0
168,24,12909,2,8,B|264:32|256:96|240:160|192:176,1,200.000000596047,8|8,0:0|0:0,0:0:0
40,272,13693,1,8,0:0:0
128,312,13889,1,0,0:0:0
128,312,13987,1,8,0:0:0
168,216,14183,1,0,0:0:0
168,216,14281,1,8,0:0:0
240,288,14477,1,8,0:0:0
272,216,14673,1,0,0:0:0
328,288,14869,1,8,0:0:0
408,328,15065,1,0,0:0:0
480,272,15261,1,8,0:0:0
488,184,15458,2,8,B|400:168,1,50.0000001490117,0|8,0:0|0:0,0:0:0
480,96,15752,2,0,B|392:80,1,50.0000001490117,0|8,0:0|0:0,0:0:0
344,32,16046,5,2,0:0:0
312,72,16176,1,2,0:0:0
344,112,16307,1,2,0:0:0
304,144,16438,1,2,0:0:0
200,24,16830,1,2,0:0:0
176,72,16961,1,2,0:0:0
208,112,17092,1,2,0:0:0
176,152,17222,1,2,0:0:0
136,248,17614,5,2,0:0:0
168,288,17745,1,2,0:0:0
192,240,17876,1,2,0:0:0
216,288,18007,1,2,0:0:0
240,240,18137,1,2,0:0:0
264,288,18268,1,2,0:0:0
288,240,18399,1,2,0:0:0
312,288,18529,1,2,0:0:0
336,240,18660,1,2,0:0:0
368,280,18791,2,2,B|480:248|472:128|440:96,1,200.000000596047,2|2,0:0|0:0,0:0:0
328,48,19575,6,0,B|256:144,1,100.000000298023,2|0,0:0|0:0,0:0:0
216,72,19967,1,2,0:0:0
192,152,20163,2,0,B|136:192,1,50.0000001490117,0|2,0:0|0:0,0:0:0
120,88,20458,2,0,B|72:120,1,50.0000001490117,0|0,0:0|0:0,0:0:0
40,208,20752,2,0,B|64:288|104:304,1,100.000000298023
160,224,21144,2,0,B|184:312|248:336,1,100.000000298023
256,224,21536,1,0,0:0:0
288,320,21732,1,0,0:0:0
288,320,21830,1,0,0:0:0
344,240,22026,1,0,0:0:0
344,240,22124,1,0,0:0:0
408,320,22320,2,0,B|512:216,1,100.000000298023,2|0,0:0|0:0,0:0:0
424,168,22712,2,0,B|520:80,1,100.000000298023,2|0,0:0|0:0,0:0:0
440,16,23105,1,2,0:0:0
344,48,23301,2,0,B|304:112,1,50.0000001490117,0|2,0:0|0:0,0:0:0
224,64,23595,2,0,B|192:112,1,50.0000001490117,0|2,0:0|0:0,0:0:0
112,56,23889,5,0,0:0:0
48,136,24085,1,0,0:0:0
128,192,24281,1,0,0:0:0
64,264,24477,1,0,0:0:0
152,304,24673,2,0,B|208:336,6,50.0000001490117
240,256,25458,1,6,0:0:0
320,192,25654,1,0,0:0:0
320,192,25752,1,0,0:0:0
320,192,25850,1,6,0:0:0
336,288,26046,1,0,0:0:0
336,288,26144,1,0,0:0:0
336,288,26242,2,2,B|416:256|464:192,1,150.000000447035,4|0,0:0|0:0,0:0:0
472,104,26634,2,0,B|456:48,2,50.0000001490117,0|0|0,0:0|0:0|0:0,0:0:0
280,56,27026,5,0,0:0:0
248,88,27222,1,0,0:0:0
160,40,27418,1,0,0:0:0
72,80,27614,2,0,B|40:136|32:192,1,100.000000298023
72,264,28007,2,0,B|104:312,4,50.0000001490117
152,200,28595,5,2,0:0:0
240,160,28791,1,0,0:0:0
264,200,28889,1,0,0:0:0
288,248,28987,1,0,0:0:0
352,168,29183,1,0,0:0:0
368,216,29281,1,0,0:0:0
384,264,29379,1,0,0:0:0
472,312,29575,2,0,B|488:256,1,50.0000001490117
448,168,29869,2,0,B|480:120,1,50.0000001490117
416,48,30163,5,0,0:0:0
320,48,30359,2,0,B|304:128|256:160,1,100.000000298023
216,56,30752,1,0,0:0:0
120,56,30948,1,0,0:0:0
72,144,31144,2,0,B|48:208,6,50.0000001490117
168,144,31928,1,0,0:0:0
120,232,32124,2,0,B|152:296|192:320,1,100.000000298023
248,224,32516,1,0,0:0:0
328,168,32712,1,0,0:0:0
328,168,32810,1,0,0:0:0
344,264,33007,1,0,0:0:0
344,264,33105,1,0,0:0:0
440,248,33301,5,0,0:0:0
496,160,33497,1,0,0:0:0
464,64,33693,1,0,0:0:0
376,16,33889,2,0,B|320:48|272:112,1,100.000000298023
208,48,34281,2,0,B|184:120,1,50.0000001490117
104,56,34575,2,0,B|80:136,1,50.0000001490117
32,184,34869,2,0,B|48:296,1,100.000000298023
120,216,35261,2,0,B|144:352,1,100.000000298023
240,320,35654,1,0,0:0:0
232,224,35850,1,0,0:0:0
280,248,35948,1,0,0:0:0
376,264,36144,1,0,0:0:0
408,224,36242,1,0,0:0:0
480,152,36438,5,0,0:0:0
480,56,36634,1,0,0:0:0
400,120,36830,1,0,0:0:0
384,24,37026,1,0,0:0:0
304,80,37222,1,0,0:0:0
208,48,37418,1,0,0:0:0
208,48,37516,1,0,0:0:0
208,48,37614,1,0,0:0:0
208,48,37712,1,0,0:0:0
208,48,37810,1,0,0:0:0
208,48,37909,1,0,0:0:0
208,48,38007,6,4,B|88:112,1,100.000000298023,4|4,0:0|0:0,0:0:0
176,176,38399,2,0,B|72:232,1,100.000000298023,0|0,0:0|0:0,0:0:0
80,320,38791,1,0,0:0:0
232,304,39085,1,0,0:0:0
336,200,39379,1,0,0:0:0
272,120,39575,1,0,0:0:0
208,192,39771,1,0,0:0:0
120,232,39967,2,0,B|48:144|88:64|152:56,1,200.000000596047
224,16,40556,2,0,B|288:48,1,50.0000001490117
368,32,40850,2,0,B|416:56,1,50.0000001490117
496,112,41144,6,0,B|496:176|456:208,1,100.000000298023
376,152,41536,1,0,0:0:0
408,248,41732,1,0,0:0:0
312,224,41928,1,0,0:0:0
232,160,42124,1,0,0:0:0
232,160,42222,1,0,0:0:0
216,256,42418,1,0,0:0:0
216,256,42516,1,0,0:0:0
152,176,42712,5,0,0:0:0
96,256,42909,1,0,0:0:0
80,160,43105,1,0,0:0:0
24,80,43301,1,0,0:0:0
112,32,43497,1,0,0:0:0
208,32,43693,1,0,0:0:0
208,32,43791,1,0,0:0:0
240,128,43987,2,0,B|288:160,3,50.0000001490117,0|0|0|4,0:0|0:0|0:0|0:0,0:0:0
336,72,44477,2,0,B|408:128,2,50.0000001490117
432,40,44869,2,0,B|480:64,2,50.0000001490117
488,120,45261,1,0,0:0:0
424,200,45458,1,0,0:0:0
336,240,45654,5,0,0:0:0
336,240,45752,1,0,0:0:0
336,240,45850,2,0,B|264:280,4,50.0000001490117,4|0|0|0|0,0:0|0:0|0:0|0:0|0:0,0:0:0
400,320,46438,1,0,0:0:0
304,336,46634,2,0,B|208:336|176:336,2,100.000000298023
264,248,47222,5,0,0:0:0
232,208,47320,1,0,0:0:0
208,160,47418,1,4,0:0:0
168,72,47614,1,0,0:0:0
168,72,47712,1,0,0:0:0
168,72,47810,1,0,0:0:0
168,72,47909,1,0,0:0:0
168,72,48007,1,0,0:0:0
72,40,48203,1,0,0:0:0
24,128,48399,1,0,0:0:0
120,168,48595,1,0,0:0:0
64,248,48791,5,0,0:0:0
64,248,48889,1,0,0:0:0
64,248,48987,2,0,B|176:296,1,100.000000298023,4|0,0:0|0:0,0:0:0
200,304,49281,1,0,0:0:0
192,256,49379,1,0,0:0:0
232,168,49575,1,0,0:0:0
328,168,49771,2,0,B|360:232|416:160,1,100.000000298023
480,104,50163,1,0,0:0:0
408,32,50360,5,0,0:0:0
408,32,50458,1,0,0:0:0
408,32,50556,1,4,0:0:0
312,56,50752,2,0,B|272:88,2,50.0000001490117
216,24,51144,1,0,0:0:0
120,48,51340,2,0,B|184:112|80:152,2,100.000000298023
56,240,52124,5,4,0:0:0
128,304,52320,1,0,0:0:0
176,312,52418,1,0,0:0:0
224,304,52516,1,0,0:0:0
176,216,52712,1,0,0:0:0
272,176,52909,2,0,B|320:272,1,100.000000298023
360,176,53301,1,0,0:0:0
456,168,53497,5,0,0:0:0
456,168,53595,1,0,0:0:0
456,168,53693,1,4,0:0:0
448,72,53889,1,0,0:0:0
448,72,53987,1,0,0:0:0
448,72,54085,1,0,0:0:0
352,40,54281,1,0,0:0:0
256,32,54477,1,0,0:0:0
176,88,54673,1,0,0:0:0
88,48,54869,1,0,0:0:0
32,240,55261,5,4,0:0:0
72,336,55458,1,0,0:0:0
120,248,55654,1,0,0:0:0
168,336,55850,1,0,0:0:0
232,256,56046,1,0,0:0:0
256,296,56144,1,0,0:0:0
280,336,56242,1,0,0:0:0
320,360,56340,1,0,0:0:0
368,352,56438,1,0,0:0:0
400,312,56536,1,0,0:0:0
408,264,56634,1,0,0:0:0
416,216,56732,1,0,0:0:0
416,168,56830,6,0,B|512:112,1,100.000000298023,2|0,0:0|0:0,0:0:0
432,48,57222,2,0,B|320:112,1,100.000000298023,2|0,0:0|0:0,0:0:0
280,24,57614,1,2,0:0:0
192,72,57810,1,0,0:0:0
144,96,57909,1,2,0:0:0
96,112,58007,1,0,0:0:0
48,200,58203,1,2,0:0:0
48,296,58399,2,0,B|152:312,1,100.000000298023,0|0,0:0|0:0,0:0:0
146,311,58791,1,0,0:0:0
248,328,58987,1,0,0:0:0
208,240,59183,1,0,0:0:0
280,168,59379,2,0,B|320:240,1,50.0000001490117
360,128,59673,2,0,B|392:192,1,50.0000001490117
464,232,59967,5,2,0:0:0
480,136,60163,1,0,0:0:0
480,136,60261,1,0,0:0:0
480,136,60359,2,0,B|424:48,1,100.000000298023,2|0,0:0|0:0,0:0:0
376,32,60654,1,0,0:0:0
328,32,60752,1,2,0:0:0
240,88,60948,1,0,0:0:0
240,88,61046,1,2,0:0:0
152,40,61242,1,0,0:0:0
152,40,61340,1,2,0:0:0
64,80,61536,5,0,0:0:0
24,168,61732,1,0,0:0:0
120,144,61928,1,0,0:0:0
80,232,62124,1,0,0:0:0
176,240,62320,1,0,0:0:0
176,240,62418,1,0,0:0:0
176,240,62516,1,0,0:0:0
176,240,62614,1,0,0:0:0
176,240,62712,1,0,0:0:0
176,240,62810,1,0,0:0:0
176,240,62909,1,0,0:0:0
176,240,63007,1,0,0:0:0
224,240,63105,5,8,0:0:0
288,304,63301,5,8,0:0:0
288,160,63497,5,8,0:0:0
352,232,63693,5,8,0:0:0
288,232,63889,5,8,0:0:0
360,152,64085,1,0,0:0:0
360,152,64183,1,0,0:0:0
432,88,64379,1,0,0:0:0
432,88,64477,1,0,0:0:0
392,16,64673,6,0,B|280:72,1,100.000000298023
216,16,65065,2,0,B|104:80,1,100.000000298023
56,128,65458,1,0,0:0:0
64,224,65654,2,0,B|96:288,1,50.0000001490117
176,232,65948,2,0,B|200:288,1,50.0000001490117
272,336,66242,5,0,0:0:0
336,256,66438,2,0,B|288:232,2,50.0000001490117
400,328,66830,1,0,0:0:0
480,272,67026,2,0,B|432:224,4,50.0000001490117
496,176,67614,1,0,0:0:0
256,192,67810,12,0,69379,0:0:0
152,72,69575,6,0,B|80:120,2,50.0000001490117
240,24,69967,1,0,0:0:0
336,32,70163,1,0,0:0:0
432,64,70359,1,0,0:0:0
488,256,70752,1,0,0:0:0
416,192,70948,1,0,0:0:0
376,224,71046,1,0,0:0:0
336,256,71144,1,0,0:0:0
296,280,71242,1,0,0:0:0
256,304,71340,1,0,0:0:0
224,208,71536,2,0,B|168:248|136:320,2,100.000000298023
152,24,72320,5,0,0:0:0
152,24,72418,1,0,0:0:0
152,24,72516,2,0,B|208:56,4,50.0000001490117
168,120,73105,1,0,0:0:0
256,72,73301,1,0,0:0:0
352,40,73497,1,0,0:0:0
448,216,73889,1,0,0:0:0
360,160,74085,5,0,0:0:0
272,216,74281,2,0,B|320:264,4,50.0000001490117
176,200,74869,1,0,0:0:0
104,272,75065,1,0,0:0:0
32,88,75458,1,0,0:0:0
128,80,75654,6,0,B|192:56,3,50.0000001490117,4|0|0|0,0:0|0:0|0:0|0:0,0:0:0
224,56,76046,2,0,B|296:80,3,50.0000001490117
312,104,76438,2,0,B|336:176,3,50.0000001490117
344,200,76830,2,0,B|320:288,3,50.0000001490117
304,288,77222,6,0,B|256:336,3,50.0000001490117,4|0|0|0,0:0|0:0|0:0|0:0,0:0:0
216,328,77614,2,0,B|144:304,3,50.0000001490117
128,280,78007,2,0,B|72:232,3,50.0000001490117
64,200,78399,2,0,B|96:136,3,50.0000001490117
120,120,78791,6,0,B|176:72,3,50.0000001490117,4|0|0|0,0:0|0:0|0:0|0:0,0:0:0
200,64,79183,2,0,B|272:40,3,50.0000001490117
296,56,79575,2,0,B|360:80,3,50.0000001490117
384,96,79967,2,0,B|416:160,3,50.0000001490117
408,192,80359,5,4,0:0:0
384,232,80458,1,0,0:0:0
344,264,80556,1,0,0:0:0
304,288,80654,1,0,0:0:0
256,304,80752,1,0,0:0:0
216,280,80850,1,0,0:0:0
176,248,80948,1,0,0:0:0
152,208,81046,1,0,0:0:0
152,160,81144,1,0,0:0:0
184,120,81242,1,0,0:0:0
232,96,81340,1,0,0:0:0
280,112,81438,1,0,0:0:0
312,152,81536,1,0,0:0:0
312,200,81634,1,0,0:0:0
272,232,81732,1,0,0:0:0
224,208,81830,1,0,0:0:0
240,160,81928,5,12,0:0:0
48,232,82320,1,8,0:0:0
64,32,82712,1,8,0:0:0
120,168,83007,1,8,0:0:0
184,32,83301,1,8,0:0:0
256,104,83497,5,8,0:0:0
400,40,83889,1,8,0:0:0
496,168,84281,1,8,0:0:0
360,184,84575,1,8,0:0:0
464,248,84869,1,8,0:0:0
408,304,85065,5,8,0:0:0
272,224,85458,1,8,0:0:0
184,360,85850,1,8,0:0:0
160,240,86144,1,8,0:0:0
72,304,86438,1,8,0:0:0
40,208,86634,5,8,0:0:0
80,72,87026,1,8,0:0:0
168,24,87222,1,8,0:0:0
256,80,87418,1,8,0:0:0
400,32,87712,1,8,0:0:0
488,160,88007,1,8,0:0:0
472,256,88203,5,0,0:0:0
328,320,88595,1,0,0:0:0
168,352,88987,1,0,0:0:0
72,280,89281,1,0,0:0:0
32,168,89575,1,0,0:0:0
56,88,89771,5,0,0:0:0
208,48,90163,1,0,0:0:0
368,24,90556,1,0,0:0:0
480,72,90850,1,0,0:0:0
424,176,91144,1,0,0:0:0
464,240,91340,5,0,0:0:0
352,352,91732,1,0,0:0:0
192,344,92124,1,0,0:0:0
88,288,92418,1,0,0:0:0
40,176,92712,1,0,0:0:0
80,104,92909,5,0,0:0:0
224,40,93301,2,0,B|248:104|224:168,2,100.000000298023
344,32,93987,1,0,0:0:0
448,88,94281,1,0,0:0:0
464,288,94673,5,2,0:0:0
376,328,94869,1,0,0:0:0
304,256,95065,2,0,B|232:304,2,50.0000001490117
208,224,95556,2,0,B|256:192,3,50.0000001490117
312,120,96046,1,2,0:0:0
256,40,96242,1,0,0:0:0
160,32,96438,1,0,0:0:0
80,88,96634,1,0,0:0:0
80,88,96732,1,0,0:0:0
80,88,96830,1,0,0:0:0
40,232,97124,1,0,0:0:0
40,232,97222,1,0,0:0:0
40,232,97320,1,0,0:0:0
40,232,97418,1,0,0:0:0
96,312,97614,6,2,B|144:256|184:272,1,100.000000298023,2|0,0:0|0:0,0:0:0
180,270,97909,1,0,0:0:0
184,320,98007,2,0,B|232:264|272:280,1,100.000000298023,0|0,0:0|0:0,0:0:0
268,278,98301,1,0,0:0:0
272,328,98399,2,0,B|320:272|360:288,1,100.000000298023
356,286,98693,1,0,0:0:0
376,336,98791,2,0,B|448:304|464:232,1,100.000000298023
488,184,99183,5,2,0:0:0
488,88,99379,2,0,B|408:40|368:56,1,100.000000298023
296,32,99771,1,2,0:0:0
200,40,99967,1,0,0:0:0
120,96,100163,1,0,0:0:0
120,96,100261,1,0,0:0:0
120,96,100359,1,0,0:0:0
120,96,100458,1,0,0:0:0
120,96,100556,1,0,0:0:0
120,96,100654,1,0,0:0:0
120,96,100752,1,8,0:0:0
24,72,100948,5,0,0:0:0
72,160,101144,1,8,0:0:0
24,248,101340,1,0,0:0:0
88,320,101536,1,8,0:0:0
216,312,101732,2,0,B|248:272,1,50.0000001490117,0|0,0:0|0:0,0:0:0
336,320,102026,2,0,B|368:280,1,50.0000001490117,0|0,0:0|0:0,0:0:0
464,304,102320,5,8,0:0:0
408,216,102516,1,0,0:0:0
488,152,102712,1,8,0:0:0
504,56,102909,1,0,0:0:0
416,0,103105,1,8,0:0:0
320,32,103301,2,0,B|288:72,1,50.0000001490117
200,24,103595,2,0,B|168:72,1,50.0000001490117
80,40,103889,5,8,0:0:0
32,128,104085,1,0,0:0:0
120,168,104281,1,8,0:0:0
56,240,104477,1,0,0:0:0
128,312,104673,1,8,0:0:0
208,248,104869,2,0,B|240:304,1,50.0000001490117
328,256,105163,2,0,B|368:336,1,50.0000001490117
256,192,105458,12,0,106830,0:0:0
48,104,107026,6,0,B|136:192,1,100.000000298023,2|4,0:0|0:0,0:0:0
168,88,107418,2,0,B|256:192,1,100.000000298023,2|0,0:0|0:0,0:0:0
232,264,107810,1,2,0:0:0
312,200,108007,1,0,0:0:0
312,200,108105,1,2,0:0:0
352,296,108301,1,0,0:0:0
352,296,108399,1,2,0:0:0
448,280,108595,6,0,B|488:224|424:176,1,100.000000298023,0|0,0:0|0:0,0:0:0
400,96,108987,2,0,B|480:64|384:0,1,100.000000298023,0|0,0:0|0:0,0:0:0
312,24,109379,1,0,0:0:0
216,56,109575,2,0,B|256:112,1,50.0000001490117
144,104,109869,2,0,B|192:176,1,50.0000001490117
72,144,110163,6,8,B|16:240,1,100.000000298023,10|8,0:0|0:0,0:0:0
56,264,110458,1,8,0:0:0
96,288,110556,2,8,B|168:168,1,100.000000298023,10|8,0:0|0:0,0:0:0
192,184,110850,1,8,0:0:0
232,216,110948,2,8,B|176:336,1,100.000000298023,10|8,0:0|0:0,0:0:0
232,328,111242,2,8,B|312:312|320:240|352:224,1,150.000000447035,10|10,0:0|0:0,0:0:0
400,312,111732,5,8,0:0:0
456,232,111928,1,0,0:0:0
504,144,112124,2,8,B|448:48,1,100.000000298023,8|0,0:0|0:0,0:0:0
352,40,112516,1,8,0:0:0
256,40,112712,1,0,0:0:0
208,32,112810,1,8,0:0:0
160,24,112909,1,0,0:0:0
112,40,113007,1,0,0:0:0
72,64,113105,1,8,0:0:0
32,88,113203,1,0,0:0:0
16,136,113301,6,8,B|104:200,1,100.000000298023,8|0,0:0|0:0,0:0:0
24,264,113693,2,8,B|144:344,1,100.000000298023,8|0,0:0|0:0,0:0:0
208,312,114085,1,8,0:0:0
216,216,114281,1,0,0:0:0
216,216,114379,2,0,B|320:184,1,100.000000298023
311,186,114673,1,0,0:0:0
360,272,114869,6,8,B|456:336,1,100.000000298023,8|0,0:0|0:0,0:0:0
480,232,115261,2,8,B|360:160,1,100.000000298023,8|0,0:0|0:0,0:0:0
456,104,115654,1,8,0:0:0
392,24,115850,1,0,0:0:0
360,64,115948,1,0,0:0:0
264,40,116144,1,0,0:0:0
232,72,116242,1,0,0:0:0
136,40,116438,1,8,0:0:0
136,136,116634,2,8,B|208:184,2,50.0000001490117,0|0|8,0:0|0:0|0:0,0:0:0
40,120,117026,1,8,0:0:0
40,216,117222,1,8,0:0:0
24,264,117320,1,0,0:0:0
72,256,117418,1,0,0:0:0
64,304,117516,1,8,0:0:0
112,296,117614,1,0,0:0:0
184,232,117810,1,8,0:0:0
224,320,118007,6,0,B|288:352|368:304|448:320|504:240|320:192|280:160|488:104|504:48|232:32,1,550.000001639129
80,40,119183,5,12,0:0:0
