osu file format v14

[General]
AudioFilename: Prismatic Lollipops.mp3
AudioLeadIn: 0
PreviewTime: 43431
Countdown: 0
SampleSet: Soft
StackLeniency: 0.7
Mode: 0
LetterboxInBreaks: 0
EpilepsyWarning: 1
WidescreenStoryboard: 1

[Editor]
Bookmarks: 13145,25026,31104
DistanceSpacing: 0.9
BeatDivisor: 4
GridSize: 4
TimelineZoom: 1

[Metadata]
Title:Prismatic Lollipops
TitleUnicode:Prismatic Lollipops
Artist:DJ Mashiro
ArtistUnicode:DJ Mashiro
Creator:ZLOdeuka-
Version:Hard
Source:Cytus
Tags:AlexaBM dance pop color eat sweet candy
BeatmapID:434216
BeatmapSetID:179288

[Difficulty]
HPDrainRate:6
CircleSize:4
OverallDifficulty:6
ApproachRate:7.5
SliderMultiplier:1.5
SliderTickRate:2

[Events]
//Background and Video events
0,0,"BG.jpg",0,0
//Break Periods
//Storyboard Layer 0 (Background)
//Storyboard Layer 1 (Fail)
//Storyboard Layer 2 (Pass)
//Storyboard Layer 3 (Foreground)
//Storyboard Sound Samples

[TimingPoints]
65,297.029702970297,4,2,1,50,1,0
3629,-100,4,2,1,80,0,1
3703,-100,4,2,1,60,0,0
17589,-100,4,2,1,30,0,0
17664,-100,4,2,1,40,0,0
17738,-100,4,2,1,50,0,0
17812,-100,4,2,1,60,0,0
17886,-100,4,2,1,60,0,0
20263,-100,4,2,1,30,0,0
20857,-100,4,2,1,30,0,0
21005,-100,4,2,1,40,0,0
21154,-100,4,2,1,50,0,0
21302,-100,4,2,1,60,0,0
21451,-100,4,2,1,70,0,0
24718,-100,4,2,1,30,0,0
24792,-100,4,2,1,40,0,0
24866,-100,4,2,1,50,0,0
24941,-100,4,2,1,60,0,0
25015,-133.333333333333,4,2,1,60,0,0
34817,-100,4,2,1,60,0,1
34891,-100,4,2,1,50,0,0
39272,-133.333333333333,4,2,1,60,0,0
44025,-100,4,2,1,60,0,1
47589,-100,4,2,1,60,0,0
48777,-100,4,2,1,60,0,1
52342,-100,4,2,1,60,0,0
53530,-100,4,2,1,60,0,1
57094,-100,4,2,1,60,0,0
58282,-100,4,2,1,60,0,1
61847,-100,4,2,1,60,0,0
64223,-100,4,2,1,60,0,1
64297,-100,4,2,1,60,0,0
71352,-133.333333333333,4,2,1,60,0,0
73728,-100,4,2,1,60,0,1
80857,-100,4,2,1,60,0,0
86797,-100,4,2,1,5,0,0

[Colours]
Combo1 : 255,128,64
Combo2 : 63,186,192
Combo3 : 255,21,21
Combo4 : 1,248,217
Combo5 : 255,28,255
Combo6 : 50,160,241

[HitObjects]
409,134,1253,6,0,P|347:97|286:135,1,150,2|0,1:0|1:0,0:0:0:0:
228,256,1847,2,0,P|166:292|105:255,1,150,2|0,1:0|1:0,0:0:0:0:
60,128,2441,6,0,P|84:104|124:100,1,75,2|0,1:0|1:0,0:0:0:0:
176,144,2738,2,0,P|184:176|168:213,1,75,2|0,1:0|1:0,0:0:0:0:
120,264,3035,1,6,1:0:0:0:
256,276,3332,2,0,L|292:264,4,37.5,0|0|0|0|4,0:0|0:0|0:0|0:0|0:0,0:0:0:0:
128,312,3926,5,0,1:0:0:0:
264,320,4223,2,0,B|296:348|336:348|336:348|364:324|400:316,1,150,2|0,0:0|1:0,0:0:0:0:
500,228,4817,2,0,P|524:160|500:88,1,150,2|0,0:0|1:0,0:0:0:0:
380,32,5411,1,2,0:0:0:0:
256,84,5708,1,0,1:0:0:0:
200,124,5857,1,0,1:0:0:0:
144,164,6005,5,2,1:0:0:0:
256,236,6302,1,0,1:0:0:0:
368,164,6599,2,0,B|408:152|444:164|444:164|472:136|460:96,1,150,2|0,0:0|1:0,0:0:0:0:
328,68,7193,2,0,B|288:84|256:88|256:88|224:84|184:68,1,150,2|0,0:0|1:0,0:0:0:0:
52,44,7787,2,0,P|32:80|36:112,1,75,2|0,0:0|1:0,0:0:0:0:
64,176,8084,2,0,P|95:201|128:203,1,75,0|0,1:0|1:0,0:0:0:0:
192,176,8381,5,2,0:0:0:0:
328,176,8678,1,0,1:0:0:0:
212,248,8975,2,0,P|140:232|119:164,1,150,2|0,0:0|1:0,0:0:0:0:
188,52,9569,2,0,P|256:28|328:52,1,150,2|0,0:0|1:0,0:0:0:0:
404,164,10164,1,2,0:0:0:0:
300,252,10461,1,0,1:0:0:0:
352,292,10609,1,0,1:0:0:0:
404,336,10758,5,2,1:0:0:0:
476,224,11055,1,0,0:0:0:0:
476,88,11352,1,2,0:0:0:0:
420,48,11500,2,0,L|388:28,2,37.5,0|0|0,1:0|0:0|1:0,0:0:0:0:
380,104,11797,2,0,L|340:100,2,37.5,0|0|0,1:0|1:0|1:0,0:0:0:0:
412,164,12094,1,0,1:0:0:0:
404,232,12243,1,0,1:0:0:0:
416,300,12391,1,0,1:0:0:0:
348,312,12540,2,0,L|320:344,2,37.5,0|0|0,1:0|1:0|1:0,1:0:0:0:
336,244,12837,1,0,1:0:0:0:
288,192,12985,1,0,1:0:0:0:
224,216,13134,5,6,0:0:0:0:
92,240,13431,1,0,1:0:0:0:
188,148,13728,2,0,P|236:96|224:16,1,150,2|0,0:0|1:0,0:0:0:0:
364,16,14322,2,0,P|385:83|460:113,1,150,2|0,0:0|1:0,0:0:0:0:
396,236,14916,2,0,P|326:220|263:270,1,150,2|0,0:0|1:0,0:0:0:0:
240,328,15362,1,0,1:0:0:0:
296,368,15510,5,2,1:0:0:0:
416,308,15807,1,0,1:0:0:0:
484,192,16104,2,0,P|476:120|408:92,1,150,2|0,0:0|1:0,0:0:0:0:
276,104,16698,2,0,P|217:146|227:219,1,150,2|0,0:0|1:0,0:0:0:0:
328,304,17292,1,2,1:0:0:0:
364,244,17441,1,0,1:0:0:0:
388,180,17589,1,0,1:0:0:0:
396,112,17738,1,0,1:0:0:0:
384,44,17886,5,6,0:0:0:0:
256,88,18183,1,0,1:0:0:0:
128,44,18480,2,0,B|80:64|80:108|80:108|96:136|84:172,1,150,2|0,0:0|1:0,0:0:0:0:
32,216,18926,2,0,P|16:180|20:144,1,75,0|6,0:0|0:0,0:0:0:0:
68,20,19371,1,0,1:0:0:0:
196,64,19668,2,0,P|212:100|208:136,1,75,2|0,0:0|0:0,0:0:0:0:
172,192,19965,2,0,P|156:228|160:264,1,75,0|0,1:0|0:0,0:0:0:0:
196,320,20263,6,0,L|228:340,7,37.5,6|0|0|0|0|0|0|0,0:0|1:0|1:0|1:0|1:0|1:0|1:0|1:0,1:0:0:0:
260,348,20857,2,0,L|300:348,7,37.5,6|0|0|0|0|0|0|0,0:0|1:0|1:0|1:0|1:0|1:0|1:0|1:0,1:0:0:0:
332,348,21451,6,0,P|392:352|448:344,2,112.5,2|0|0,1:0|1:0|1:0,0:0:0:0:
308,284,22045,2,0,P|272:280|232:284,1,75,2|0,1:0|1:0,0:0:0:0:
204,344,22342,2,0,P|166:347|129:343,1,75,0|0,1:0|1:0,0:0:0:0:
172,224,22639,5,2,1:0:0:0:
128,96,22936,1,0,1:0:0:0:
256,52,23233,1,2,1:0:0:0:
384,96,23530,1,2,1:0:0:0:
340,224,23827,5,2,1:0:0:0:
316,288,23975,1,0,1:0:0:0:
256,320,24124,1,0,1:0:0:0:
196,288,24272,1,0,1:0:0:0:
172,224,24421,1,2,1:0:0:0:
256,120,24718,2,0,L|256:76,3,37.5,0|0|0|0,1:0|1:0|1:0|1:0,1:0:0:0:
256,56,25015,6,0,P|204:40|144:36,1,112.500004291535,6|0,0:0|0:0,0:0:0:0:
84,60,25461,2,0,P|48:101|21:155,1,112.500004291535,0|0,0:0|1:0,0:0:0:0:
28,220,25906,1,2,0:0:0:0:
48,284,26055,1,0,0:0:0:0:
88,340,26203,2,0,P|144:352|200:340,1,112.500004291535,2|0,1:0|0:0,0:0:0:0:
312,272,26797,2,0,P|328:256|344:224,1,56.2500021457673,2|0,0:0|1:0,0:0:0:0:
356,160,27094,1,0,0:0:0:0:
352,92,27243,1,0,0:0:0:0:
312,36,27391,6,0,P|256:28|200:36,1,112.500004291535,2|0,1:0|0:0,0:0:0:0:
144,76,27837,1,0,0:0:0:0:
96,124,27985,2,0,P|88:152|88:180,1,56.2500021457673,2|0,0:0|1:0,0:0:0:0:
92,248,28282,2,0,P|103:274|121:296,1,56.2500021457673
176,336,28579,2,0,P|232:344|288:336,1,112.500004291535,2|0,1:0|0:0,0:0:0:0:
332,208,29173,2,0,P|276:200|220:208,1,112.500004291535,2|0,1:0|1:0,0:0:0:0:
92,248,29767,5,2,1:0:0:0:
204,80,30213,2,0,P|256:64|312:80,1,112.500004291535,0|0,0:0|1:0,0:0:0:0:
404,176,30807,1,0,0:0:0:0:
468,200,30956,2,0,P|492:152|468:96,1,112.500004291535,2|0,1:0|0:0,0:0:0:0:
344,56,31550,2,0,P|316:60|288:72,1,56.2500021457673,2|0,0:0|1:0,0:0:0:0:
228,100,31847,2,0,P|203:113|180:134,1,56.2500021457673
140,184,32144,6,0,P|116:236|136:288,1,112.500004291535,2|0,1:0|0:0,0:0:0:0:
196,316,32589,2,0,P|253:310|288:267,1,112.500004291535,0|0,1:0|0:0,0:0:0:0:
284,204,33035,2,0,P|250:157|195:148,2,112.500004291535,0|6|0,1:0|0:0|0:0,0:0:0:0:
304,336,33926,1,2,1:0:0:0:
368,216,34223,1,0,1:0:0:0:
244,272,34520,5,2,0:0:0:0:
376,296,34817,2,0,P|440:268|444:192,1,150,4|2,0:0|0:0,0:0:0:0:
380,76,35411,1,0,1:0:0:0:
256,128,35708,1,2,0:0:0:0:
132,76,36005,1,0,1:0:0:0:
28,164,36302,2,0,P|16:204|24:236,1,75,2|0,0:0|0:0,0:0:0:0:
48,300,36599,2,0,P|64:338|91:357,1,75,0|0,1:0|0:0,0:0:0:0:
160,352,36896,6,0,P|232:336|308:352,1,150,2|0,0:0|1:0,0:0:0:0:
440,368,37490,2,0,P|484:316|468:240,1,150,2|0,0:0|1:0,0:0:0:0:
424,188,37936,1,0,0:0:0:0:
364,156,38084,2,0,P|296:143|239:195,1,150,2|0,0:0|1:0,0:0:0:0:
244,328,38678,1,2,0:0:0:0:
164,220,38975,1,0,1:0:0:0:
292,260,39272,6,0,P|348:280|400:272,1,112.500004291535,6|0,0:0|0:0,0:0:0:0:
448,224,39718,2,0,P|455:165|437:115,1,112.500004291535
256,28,40461,1,2,0:0:0:0:
128,68,40758,1,0,0:0:0:0:
72,192,41055,1,2,0:0:0:0:
128,316,41352,1,0,0:0:0:0:
256,356,41649,6,0,L|288:352,7,28.1250010728836,6|0|0|0|0|0|0|0,0:0|0:0|0:0|0:0|0:0|0:0|0:0|0:0,0:0:0:0:
316,340,42243,2,0,L|340:324,7,28.1250010728836,6|0|0|0|0|0|0|0,0:0|0:0|0:0|0:0|0:0|0:0|0:0|0:0,0:0:0:0:
368,304,42837,6,0,P|404:264|412:208,2,112.500004291535,2|0|2,0:0|0:0|0:0,0:0:0:0:
304,320,43579,1,0,0:0:0:0:
236,320,43728,1,2,0:0:0:0:
176,292,43876,1,0,0:0:0:0:
164,224,44025,5,4,1:0:0:0:
48,144,44322,1,0,1:0:0:0:
144,44,44619,1,2,0:0:0:0:
256,124,44916,1,0,1:0:0:0:
372,44,45213,6,0,P|412:60|428:88,1,75,2|0,0:0|0:0,0:0:0:0:
428,156,45510,2,0,P|394:182|361:182,1,75,0|0,1:0|0:0,0:0:0:0:
296,184,45807,1,2,0:0:0:0:
228,184,45956,2,0,L|164:184,2,37.5,0|0|0,1:0|1:0|1:0,0:0:0:0:
296,184,46253,1,0,0:0:0:0:
328,244,46401,5,6,0:0:0:0:
256,356,46698,1,0,1:0:0:0:
184,244,46995,1,2,0:0:0:0:
256,128,47292,2,0,L|256:52,1,75,0|0,1:0|0:0,0:0:0:0:
256,44,47589,5,2,1:0:0:0:
256,36,47886,1,0,1:0:0:0:
256,28,48183,1,2,1:0:0:0:
256,20,48480,1,0,1:0:0:0:
120,40,48777,5,6,0:0:0:0:
160,168,49074,1,0,1:0:0:0:
76,276,49371,1,2,0:0:0:0:
36,148,49668,2,0,P|68:128|108:116,1,75,0|0,1:0|0:0,0:0:0:0:
168,96,49965,6,0,P|204:88|246:90,1,75,2|0,0:0|0:0,0:0:0:0:
308,96,50263,2,0,P|345:101|383:117,1,75,0|0,1:0|0:0,0:0:0:0:
436,156,50560,1,2,0:0:0:0:
468,216,50708,2,0,L|488:252,2,37.5,0|0|0,1:0|1:0|1:0,0:0:0:0:
436,156,51005,1,0,0:0:0:0:
372,184,51154,5,6,0:0:0:0:
256,248,51451,1,0,1:0:0:0:
136,184,51748,1,2,0:0:0:0:
196,64,52045,1,0,1:0:0:0:
256,36,52193,1,0,0:0:0:0:
316,64,52342,5,2,1:0:0:0:
256,184,52639,1,0,1:0:0:0:
372,116,52936,1,2,1:0:0:0:
312,236,53233,2,0,L|296:272,3,37.5,0|0|0|0,1:0|1:0|1:0|1:0,0:0:0:0:
280,300,53530,6,0,P|216:336|144:316,1,150,6|0,0:0|1:0,0:0:0:0:
116,184,54124,2,0,P|180:148|252:168,1,150,2|0,1:0|1:0,0:0:0:0:
352,256,54718,6,0,P|392:260|432:256,1,75,2|0,1:0|0:0,0:0:0:0:
432,188,55015,2,0,P|460:159|483:126,1,75,0|0,1:0|0:0,0:0:0:0:
428,88,55312,2,0,P|418:49|400:12,1,75,2|0,1:0|1:0,0:0:0:0:
336,28,55609,1,0,1:0:0:0:
280,68,55758,1,0,0:0:0:0:
256,132,55906,6,0,P|200:180|132:160,1,150,6|0,0:0|1:0,0:0:0:0:
4,124,56500,2,0,P|-8:196|40:256,1,150,2|0,1:0|1:0,0:0:0:0:
100,280,56946,1,0,0:0:0:0:
168,288,57094,5,2,0:0:0:0:
172,288,57391,1,2,0:0:0:0:
176,288,57688,1,2,0:0:0:0:
180,288,57985,1,2,0:0:0:0:
300,252,58282,6,0,L|444:208,1,150,6|0,0:0|1:0,0:0:0:0:
468,76,58876,2,0,L|324:120,1,150,2|0,1:0|1:0,0:0:0:0:
260,100,59322,1,0,1:0:0:0:
192,92,59470,6,0,P|154:89|119:100,1,75,0|2,1:0|0:0,0:0:0:0:
70,149,59767,2,0,P|50:180|46:217,1,75,0|0,1:0|0:0,0:0:0:0:
114,235,60064,2,0,P|109:271|120:307,1,75,0|2,1:0|1:0,0:0:0:0:
184,328,60362,1,0,1:0:0:0:
248,340,60510,1,0,1:0:0:0:
392,348,60659,6,0,P|448:300|448:228,1,150,6|0,0:0|1:0,0:0:0:0:
328,136,61253,2,0,P|256:116|184:136,1,150,6|0,0:0|1:0,0:0:0:0:
80,248,61847,5,2,1:0:0:0:
152,360,62144,1,2,1:0:0:0:
284,324,62441,1,0,1:0:0:0:
288,188,62738,1,2,1:0:0:0:
160,140,63035,1,0,1:0:0:0:
80,248,63332,1,0,1:0:0:0:
44,188,63480,2,0,P|144:56|164:156,1,375,0|6,1:0|0:0,0:0:0:0:
148,284,64520,5,0,1:0:0:0:
280,316,64817,2,0,B|328:332|360:312|360:312|392:296|432:308,1,150,2|0,0:0|1:0,0:0:0:0:
376,132,65411,2,0,B|328:116|296:136|296:136|264:152|224:140,1,150,2|0,0:0|1:0,0:0:0:0:
144,136,66005,1,2,0:0:0:0:
256,68,66302,1,0,1:0:0:0:
316,100,66451,1,0,1:0:0:0:
376,132,66599,5,2,1:0:0:0:
412,256,66896,1,0,1:0:0:0:
296,328,67193,2,0,P|224:344|148:328,1,150,2|0,0:0|1:0,0:0:0:0:
88,300,67639,1,0,0:0:0:0:
36,256,67787,2,0,P|4:192|36:124,1,150,2|0,0:0|1:0,0:0:0:0:
152,192,68381,2,0,P|192:204|224:200,1,75,2|0,1:0|1:0,0:0:0:0:
288,172,68678,2,0,P|319:144|333:115,1,75,0|0,1:0|1:0,0:0:0:0:
328,48,68975,5,2,0:0:0:0:
196,64,69272,1,0,1:0:0:0:
152,192,69569,2,0,L|104:340,1,150,2|0,0:0|1:0,0:0:0:0:
176,352,70089,1,0,0:0:0:0:
240,316,70164,2,0,L|288:172,1,150,2|0,0:0|1:0,0:0:0:0:
360,60,70758,1,2,0:0:0:0:
408,108,70906,1,0,0:0:0:0:
452,160,71055,1,0,1:0:0:0:
408,212,71203,1,0,0:0:0:0:
360,260,71352,6,0,P|312:288|252:280,2,112.500004291535,2|0|2,0:0|0:0|0:0,0:0:0:0:
340,192,72094,1,0,0:0:0:0:
360,124,72243,1,0,1:0:0:0:
256,212,72540,1,2,1:0:0:0:
296,84,72837,1,0,1:0:0:0:
192,172,73134,2,0,P|144:180|112:176,1,56.2500021457673,2|0,1:0|1:0,0:0:0:0:
92,128,73431,2,0,P|109:82|128:56,1,56.2500021457673,0|0,1:0|1:0,0:0:0:0:
172,40,73728,5,6,0:0:0:0:
308,32,74025,1,0,1:0:0:0:
408,124,74322,2,0,P|396:196|328:220,1,150,2|0,0:0|1:0,0:0:0:0:
264,208,74767,1,0,0:0:0:0:
196,196,74916,2,0,P|129:221|118:292,1,150,2|0,1:0|1:0,0:0:0:0:
252,320,75510,1,2,1:0:0:0:
380,280,75807,1,0,1:0:0:0:
420,224,75956,1,0,0:0:0:0:
460,168,76104,5,2,1:0:0:0:
344,96,76401,2,0,P|264:88|192:96,1,150,0|2,1:0|1:0,0:0:0:0:
136,216,76995,2,0,P|216:224|288:216,1,150,0|2,1:0|1:0,0:0:0:0:
412,168,77589,1,0,1:0:0:0:
348,48,77886,2,0,P|304:40|272:44,1,75,6|0,0:0|0:0,0:0:0:0:
208,60,78183,2,0,P|168:80|144:102,1,75,4|0,0:0|0:0,0:0:0:0:
120,164,78480,5,6,0:0:0:0:
160,292,78777,2,0,P|216:328|296:312,1,150,0|2,1:0|1:0,0:0:0:0:
372,204,79371,2,0,P|375:137|321:76,1,150,0|6,1:0|0:0,0:0:0:0:
192,48,79965,1,0,1:0:0:0:
88,132,80263,1,2,1:0:0:0:
56,192,80411,1,0,0:0:0:0:
56,260,80560,1,0,1:0:0:0:
96,316,80708,1,0,0:0:0:0:
164,316,80857,6,0,L|208:316,7,37.5,6|0|0|0|0|0|0|0,0:0|0:0|0:0|0:0|0:0|0:0|0:0|0:0,0:0:0:0:
236,312,81451,2,0,L|272:300,7,37.5,6|0|0|0|0|0|0|0,0:0|0:0|0:0|0:0|0:0|0:0|0:0|0:0,0:0:0:0:
304,288,82045,6,0,P|356:252|368:204,1,112.5,2|0,0:0|1:0,0:0:0:0:
348,108,82490,1,0,1:0:0:0:
284,88,82639,2,0,L|244:80,2,37.5,2|0|0,1:0|1:0|1:0,0:0:0:0:
348,108,82936,2,0,L|424:108,1,75,0|0,1:0|1:0,0:0:0:0:
496,80,83233,5,2,1:0:0:0:
364,4,83530,1,0,1:0:0:0:
288,136,83827,1,2,1:0:0:0:
420,212,84124,1,0,1:0:0:0:
420,212,84421,5,2,1:0:0:0:
472,148,84569,1,0,1:0:0:0:
424,80,84718,1,0,1:0:0:0:
344,100,84866,1,0,1:0:0:0:
344,184,85015,1,4,0:0:0:0:
256,192,85164,12,0,87094,0:0:0:0:
