osu file format v14

[General]
AudioFilename: Prismatic Lollipops.mp3
AudioLeadIn: 0
PreviewTime: 63890
Countdown: 0
SampleSet: Soft
StackLeniency: 0.7
Mode: 3
LetterboxInBreaks: 0
SpecialStyle: 0
WidescreenStoryboard: 0

[Editor]
DistanceSpacing: 1
BeatDivisor: 4
GridSize: 4
TimelineZoom: 1.750001

[Metadata]
Title:Prismatic Lollipops
TitleUnicode:Prismatic Lollipops
Artist:DJ Mashiro
ArtistUnicode:DJ Mashiro
Creator:Shinzo-
Version:Lv.15
Source:Cytus
Tags:Rayark chapter III Happy Hardcore Eon-
BeatmapID:706834
BeatmapSetID:317255

[Difficulty]
HPDrainRate:7
CircleSize:9
OverallDifficulty:8
ApproachRate:5
SliderMultiplier:1.4
SliderTickRate:1

[Events]
//Background and Video events
0,0,"BG (3).png",0,0
//Break Periods
//Storyboard Layer 0 (Background)
//Storyboard Layer 1 (Fail)
//Storyboard Layer 2 (Pass)
//Storyboard Layer 3 (Foreground)
//Storyboard Sound Samples

[TimingPoints]
29,297.029702970297,4,2,1,40,1,0
3593,-100,4,2,1,40,0,1
10722,-100,4,2,1,40,0,0
13098,-100,4,2,1,40,0,1
20227,-100,4,2,1,40,0,0
64187,-100,4,2,1,40,0,1
71316,-100,4,2,1,40,0,0
73692,-100,4,2,1,40,0,1
80821,-100,4,2,1,40,0,0

[HitObjects]
312,192,1068,5,2,0:0:0:0:
369,192,1142,1,2,0:0:0:0:
426,192,1217,1,8,0:0:0:0:
85,192,1217,1,0,0:0:0:0:
85,192,1514,1,8,0:0:0:0:
426,192,1514,1,0,0:0:0:0:
256,192,1662,1,2,0:0:0:0:
199,192,1736,1,2,0:0:0:0:
142,192,1811,1,8,0:0:0:0:
369,192,1811,1,0,0:0:0:0:
142,192,2108,1,8,0:0:0:0:
369,192,2108,1,0,0:0:0:0:
256,192,2256,1,2,0:0:0:0:
312,192,2330,1,2,0:0:0:0:
369,192,2405,1,8,0:0:0:0:
142,192,2405,1,0,0:0:0:0:
199,192,2553,1,8,0:0:0:0:
312,192,2553,1,0,0:0:0:0:
142,192,2702,1,2,0:0:0:0:
369,192,2702,1,0,0:0:0:0:
85,192,2850,1,2,0:0:0:0:
426,192,2850,1,0,0:0:0:0:
28,192,2999,1,8,0:0:0:0:
483,192,2999,1,0,0:0:0:0:
85,192,3296,1,0,0:0:0:0:
142,192,3370,1,0,0:0:0:0:
199,192,3444,1,0,0:0:0:0:
256,192,3519,1,0,0:0:0:0:
312,192,3593,1,2,0:0:0:0:
426,192,3593,1,4,0:0:0:0:
85,192,3593,1,0,0:0:0:0:
199,192,3741,1,0,0:0:0:0:
85,192,3890,1,8,0:0:0:0:
426,192,3890,1,0,0:0:0:0:
312,192,4038,1,0,0:0:0:0:
142,192,4187,1,2,0:0:0:0:
369,192,4187,1,0,0:0:0:0:
85,192,4335,1,0,0:0:0:0:
426,192,4335,1,0,0:0:0:0:
28,192,4484,1,8,0:0:0:0:
483,192,4484,1,0,0:0:0:0:
85,192,4632,1,0,0:0:0:0:
426,192,4632,1,0,0:0:0:0:
199,192,4781,1,2,0:0:0:0:
312,192,4781,1,0,0:0:0:0:
28,192,4929,1,0,0:0:0:0:
142,192,4929,1,0,0:0:0:0:
256,192,5078,1,8,0:0:0:0:
426,192,5078,1,0,0:0:0:0:
483,192,5227,1,0,0:0:0:0:
312,192,5227,1,0,0:0:0:0:
28,192,5375,1,2,0:0:0:0:
199,192,5375,1,0,0:0:0:0:
85,192,5524,1,0,0:0:0:0:
256,192,5524,1,0,0:0:0:0:
312,192,5672,1,8,0:0:0:0:
483,192,5672,1,0,0:0:0:0:
256,192,5821,1,2,0:0:0:0:
426,192,5821,1,0,0:0:0:0:
199,192,5969,1,2,0:0:0:0:
312,192,5969,1,0,0:0:0:0:
142,192,6118,1,0,0:0:0:0:
85,192,6266,1,8,0:0:0:0:
426,192,6266,1,0,0:0:0:0:
369,192,6415,1,0,0:0:0:0:
199,192,6563,1,2,0:0:0:0:
312,192,6563,1,0,0:0:0:0:
256,192,6712,1,0,0:0:0:0:
142,192,6860,1,8,0:0:0:0:
369,192,6860,1,0,0:0:0:0:
199,192,7009,1,0,0:0:0:0:
312,192,7009,1,0,0:0:0:0:
142,192,7157,1,2,0:0:0:0:
369,192,7157,1,0,0:0:0:0:
28,192,7306,1,0,0:0:0:0:
483,192,7306,1,0,0:0:0:0:
85,192,7454,1,8,0:0:0:0:
256,192,7454,1,0,0:0:0:0:
199,192,7603,1,0,0:0:0:0:
369,192,7603,1,0,0:0:0:0:
312,192,7751,1,2,0:0:0:0:
483,192,7751,1,0,0:0:0:0:
28,192,7900,1,2,0:0:0:0:
199,192,7900,1,0,0:0:0:0:
483,192,8048,1,8,0:0:0:0:
312,192,8048,1,0,0:0:0:0:
142,192,8197,1,2,0:0:0:0:
369,192,8197,1,0,0:0:0:0:
85,192,8345,1,2,0:0:0:0:
426,192,8345,1,0,0:0:0:0:
369,192,8494,1,0,0:0:0:0:
199,192,8642,1,8,0:0:0:0:
312,192,8642,1,0,0:0:0:0:
142,192,8791,1,0,0:0:0:0:
85,192,8939,1,2,0:0:0:0:
369,192,8939,1,0,0:0:0:0:
426,192,9088,1,0,0:0:0:0:
28,192,9236,1,8,0:0:0:0:
483,192,9236,1,0,0:0:0:0:
85,192,9385,1,0,0:0:0:0:
426,192,9385,1,0,0:0:0:0:
199,192,9533,1,2,0:0:0:0:
312,192,9533,1,0,0:0:0:0:
28,192,9682,1,0,0:0:0:0:
256,192,9682,1,0,0:0:0:0:
142,192,9830,1,8,0:0:0:0:
369,192,9830,1,0,0:0:0:0:
256,192,9979,1,0,0:0:0:0:
483,192,9979,1,0,0:0:0:0:
199,192,10128,1,2,0:0:0:0:
426,192,10128,1,0,0:0:0:0:
85,192,10276,1,2,0:0:0:0:
312,192,10276,1,0,0:0:0:0:
142,192,10425,1,8,0:0:0:0:
369,192,10425,1,0,0:0:0:0:
28,192,10573,1,2,0:0:0:0:
483,192,10573,1,0,0:0:0:0:
199,192,10722,1,2,0:0:0:0:
312,192,10722,1,0,0:0:0:0:
142,192,11019,1,8,0:0:0:0:
369,192,11019,1,0,0:0:0:0:
142,192,11316,1,8,0:0:0:0:
369,192,11316,1,0,0:0:0:0:
85,192,11464,1,8,0:0:0:0:
142,192,11538,1,8,0:0:0:0:
199,192,11613,1,8,0:0:0:0:
312,192,11613,1,0,0:0:0:0:
426,192,11761,1,8,0:0:0:0:
369,192,11835,1,8,0:0:0:0:
312,192,11910,1,8,0:0:0:0:
199,192,11910,1,0,0:0:0:0:
85,192,12058,1,2,0:0:0:0:
426,192,12058,1,0,0:0:0:0:
85,192,12207,1,2,0:0:0:0:
426,192,12207,1,0,0:0:0:0:
199,192,12355,1,2,0:0:0:0:
312,192,12355,1,0,0:0:0:0:
369,192,12504,1,8,0:0:0:0:
312,192,12578,1,8,0:0:0:0:
256,192,12652,1,8,0:0:0:0:
142,192,12652,1,0,0:0:0:0:
28,192,12801,1,2,0:0:0:0:
369,192,12801,1,0,0:0:0:0:
85,192,12949,1,2,0:0:0:0:
426,192,12949,1,0,0:0:0:0:
483,192,13098,1,4,0:0:0:0:
142,192,13098,1,2,0:0:0:0:
312,192,13098,1,0,0:0:0:0:
199,192,13246,1,0,0:0:0:0:
312,192,13395,1,8,0:0:0:0:
483,192,13395,1,0,0:0:0:0:
142,192,13543,1,0,0:0:0:0:
28,192,13692,1,2,0:0:0:0:
199,192,13692,1,0,0:0:0:0:
256,192,13840,1,0,0:0:0:0:
426,192,13840,1,0,0:0:0:0:
312,192,13989,1,8,0:0:0:0:
483,192,13989,1,0,0:0:0:0:
28,192,14137,1,0,0:0:0:0:
199,192,14137,1,0,0:0:0:0:
369,192,14286,1,2,0:0:0:0:
142,192,14286,1,0,0:0:0:0:
28,192,14434,1,0,0:0:0:0:
483,192,14434,1,0,0:0:0:0:
199,192,14583,1,8,0:0:0:0:
312,192,14583,1,0,0:0:0:0:
85,192,14731,1,0,0:0:0:0:
426,192,14731,1,0,0:0:0:0:
199,192,14880,1,2,0:0:0:0:
312,192,14880,1,0,0:0:0:0:
28,192,15028,1,0,0:0:0:0:
483,192,15028,1,0,0:0:0:0:
426,192,15177,1,8,0:0:0:0:
85,192,15177,1,0,0:0:0:0:
369,192,15326,1,2,0:0:0:0:
142,192,15326,1,0,0:0:0:0:
312,192,15474,1,2,0:0:0:0:
199,192,15474,1,0,0:0:0:0:
85,192,15623,1,0,0:0:0:0:
199,192,15771,1,8,0:0:0:0:
426,192,15771,1,0,0:0:0:0:
85,192,15920,1,0,0:0:0:0:
369,192,15920,1,0,0:0:0:0:
142,192,16068,1,2,0:0:0:0:
312,192,16068,1,0,0:0:0:0:
28,192,16217,1,0,0:0:0:0:
426,192,16217,1,0,0:0:0:0:
142,192,16365,1,8,0:0:0:0:
369,192,16365,1,0,0:0:0:0:
199,192,16514,1,0,0:0:0:0:
426,192,16514,1,0,0:0:0:0:
28,192,16662,1,2,0:0:0:0:
483,192,16662,1,0,0:0:0:0:
312,192,16811,1,0,0:0:0:0:
199,192,16811,1,0,0:0:0:0:
426,192,16959,1,8,0:0:0:0:
85,192,16959,1,0,0:0:0:0:
369,192,17108,1,0,0:0:0:0:
142,192,17108,1,0,0:0:0:0:
256,192,17256,1,2,0:0:0:0:
85,192,17256,1,4,0:0:0:0:
426,192,17256,1,0,0:0:0:0:
28,192,17405,1,2,0:0:0:0:
483,192,17405,1,4,0:0:0:0:
85,192,17553,1,8,0:0:0:0:
256,192,17553,1,4,0:0:0:0:
426,192,17553,1,0,0:0:0:0:
199,192,17702,1,2,0:0:0:0:
312,192,17702,1,4,0:0:0:0:
256,192,17850,1,4,0:0:0:0:
369,192,17850,1,2,0:0:0:0:
142,192,17850,1,0,0:0:0:0:
199,192,17999,1,0,0:0:0:0:
85,192,18147,1,8,0:0:0:0:
369,192,18147,1,0,0:0:0:0:
142,192,18296,1,0,0:0:0:0:
28,192,18444,1,2,0:0:0:0:
312,192,18444,1,0,0:0:0:0:
256,192,18593,1,0,0:0:0:0:
199,192,18741,1,8,0:0:0:0:
426,192,18741,1,0,0:0:0:0:
85,192,18890,1,0,0:0:0:0:
312,192,18890,1,0,0:0:0:0:
142,192,19038,1,4,0:0:0:0:
369,192,19038,1,2,0:0:0:0:
28,192,19187,1,0,0:0:0:0:
483,192,19187,1,0,0:0:0:0:
142,192,19335,1,8,0:0:0:0:
369,192,19335,1,0,0:0:0:0:
199,192,19484,1,0,0:0:0:0:
312,192,19484,1,0,0:0:0:0:
85,192,19632,1,2,0:0:0:0:
426,192,19632,1,0,0:0:0:0:
142,192,19781,1,0,0:0:0:0:
369,192,19781,1,0,0:0:0:0:
28,192,19929,1,8,0:0:0:0:
483,192,19929,1,0,0:0:0:0:
85,192,20078,1,2,0:0:0:0:
426,192,20078,1,0,0:0:0:0:
199,192,20227,1,8,0:0:0:0:
312,192,20227,1,4,0:0:0:0:
142,192,20301,1,8,0:0:0:0:
85,192,20375,1,8,0:0:0:0:
256,192,20449,1,8,0:0:0:0:
199,192,20524,1,8,0:0:0:0:
142,192,20598,1,8,0:0:0:0:
312,192,20672,1,8,0:0:0:0:
256,192,20746,1,8,0:0:0:0:
199,192,20821,1,8,0:0:0:0:
369,192,20821,1,4,0:0:0:0:
426,192,20895,1,8,0:0:0:0:
483,192,20969,1,8,0:0:0:0:
256,192,21043,1,8,0:0:0:0:
312,192,21118,1,8,0:0:0:0:
369,192,21192,1,8,0:0:0:0:
142,192,21266,1,8,0:0:0:0:
199,192,21340,1,8,0:0:0:0:
256,192,21415,1,8,0:0:0:0:
28,192,21415,1,0,0:0:0:0:
483,192,21415,1,0,0:0:0:0:
142,192,21637,1,8,0:0:0:0:
369,192,21637,1,0,0:0:0:0:
483,192,21860,1,8,0:0:0:0:
28,192,21860,1,0,0:0:0:0:
199,192,22009,1,8,0:0:0:0:
142,192,22083,1,8,0:0:0:0:
85,192,22157,1,8,0:0:0:0:
28,192,22306,1,2,0:0:0:0:
312,192,22306,1,0,0:0:0:0:
142,192,22454,1,2,0:0:0:0:
426,192,22454,1,0,0:0:0:0:
199,192,22603,1,8,0:0:0:0:
483,192,22603,1,0,0:0:0:0:
199,192,22900,1,8,0:0:0:0:
483,192,22900,1,0,0:0:0:0:
142,192,23048,1,2,0:0:0:0:
85,192,23123,1,2,0:0:0:0:
28,192,23197,1,8,0:0:0:0:
312,192,23197,1,0,0:0:0:0:
28,192,23494,1,8,0:0:0:0:
312,192,23494,1,0,0:0:0:0:
369,192,23642,1,2,0:0:0:0:
426,192,23717,1,2,0:0:0:0:
483,192,23791,1,8,0:0:0:0:
199,192,23791,1,0,0:0:0:0:
199,192,23939,1,8,0:0:0:0:
483,192,23939,1,0,0:0:0:0:
312,192,24088,1,2,0:0:0:0:
28,192,24088,1,0,0:0:0:0:
28,192,24236,1,2,0:0:0:0:
312,192,24236,1,0,0:0:0:0:
142,192,24385,1,8,0:0:0:0:
369,192,24385,1,0,0:0:0:0:
426,192,24682,1,8,0:0:0:0:
85,192,24756,1,8,0:0:0:0:
426,192,24830,1,8,0:0:0:0:
85,192,24905,1,8,0:0:0:0:
199,192,24979,1,4,0:0:0:0:
312,192,24979,1,2,0:0:0:0:
426,192,24979,1,0,0:0:0:0:
369,192,25276,1,0,0:0:0:0:
142,192,25425,1,0,0:0:0:0:
199,192,25722,1,2,0:0:0:0:
312,192,25722,1,0,0:0:0:0:
85,192,25870,1,0,0:0:0:0:
142,192,25944,1,0,0:0:0:0:
199,192,26019,1,0,0:0:0:0:
256,192,26093,1,0,0:0:0:0:
312,192,26167,1,2,0:0:0:0:
483,192,26167,1,0,0:0:0:0:
312,192,26464,1,0,0:0:0:0:
426,192,26761,1,0,0:0:0:0:
199,192,26910,1,2,0:0:0:0:
85,192,26910,1,0,0:0:0:0:
312,192,27058,1,0,0:0:0:0:
426,192,27207,1,0,0:0:0:0:
199,192,27355,1,2,0:0:0:0:
28,192,27355,1,0,0:0:0:0:
483,192,27504,1,0,0:0:0:0:
312,192,27652,1,0,0:0:0:0:
142,192,27801,1,0,0:0:0:0:
369,192,27949,1,0,0:0:0:0:
28,192,28098,1,2,0:0:0:0:
256,192,28098,1,0,0:0:0:0:
426,192,28246,1,0,0:0:0:0:
142,192,28395,1,0,0:0:0:0:
369,192,28543,1,0,0:0:0:0:
199,192,28543,1,2,0:0:0:0:
483,192,28692,1,0,0:0:0:0:
256,192,28840,1,0,0:0:0:0:
199,192,28989,1,2,0:0:0:0:
312,192,28989,1,0,0:0:0:0:
142,192,29137,1,2,0:0:0:0:
369,192,29137,1,0,0:0:0:0:
312,192,29286,1,0,0:0:0:0:
256,192,29360,1,0,0:0:0:0:
199,192,29434,1,2,0:0:0:0:
85,192,29434,1,0,0:0:0:0:
312,192,29583,1,0,0:0:0:0:
369,192,29657,1,0,0:0:0:0:
426,192,29731,1,2,0:0:0:0:
85,192,29731,1,0,0:0:0:0:
199,192,29880,1,0,0:0:0:0:
312,192,30029,1,0,0:0:0:0:
256,192,30177,1,0,0:0:0:0:
256,192,30326,1,0,0:0:0:0:
28,192,30474,1,2,0:0:0:0:
426,192,30474,1,0,0:0:0:0:
142,192,30623,1,0,0:0:0:0:
256,192,30771,1,0,0:0:0:0:
369,192,30920,1,2,0:0:0:0:
142,192,30920,1,0,0:0:0:0:
312,192,31068,1,0,0:0:0:0:
256,192,31217,1,0,0:0:0:0:
85,192,31365,1,0,0:0:0:0:
256,192,31514,1,0,0:0:0:0:
142,192,31662,1,2,0:0:0:0:
426,192,31662,1,0,0:0:0:0:
256,192,31811,1,0,0:0:0:0:
312,192,31959,1,0,0:0:0:0:
369,192,32108,1,2,0:0:0:0:
142,192,32108,1,0,0:0:0:0:
426,192,32405,1,0,0:0:0:0:
256,192,32553,1,2,0:0:0:0:
142,192,32553,1,0,0:0:0:0:
28,192,32702,1,0,0:0:0:0:
483,192,32850,1,0,0:0:0:0:
369,192,32999,1,2,0:0:0:0:
199,192,32999,1,0,0:0:0:0:
142,192,33147,1,0,0:0:0:0:
85,192,33296,1,4,0:0:0:0:
256,192,33296,1,2,0:0:0:0:
483,192,33296,1,0,0:0:0:0:
369,192,33444,1,0,0:0:0:0:
426,192,33593,1,0,0:0:0:0:
256,192,33741,1,2,0:0:0:0:
199,192,33816,1,2,0:0:0:0:
142,192,33890,1,2,0:0:0:0:
369,192,33890,1,0,0:0:0:0:
369,192,34038,1,2,0:0:0:0:
142,192,34038,1,0,0:0:0:0:
28,192,34187,1,2,0:0:0:0:
142,192,34261,1,2,0:0:0:0:
256,192,34335,1,2,0:0:0:0:
369,192,34410,1,2,0:0:0:0:
483,192,34484,1,0,0:0:0:0:
85,192,34781,1,2,0:0:0:0:
256,192,34781,1,4,0:0:0:0:
426,192,34781,1,0,0:0:0:0:
142,192,34929,1,0,0:0:0:0:
369,192,34929,1,0,0:0:0:0:
199,192,35078,1,2,0:0:0:0:
312,192,35078,1,0,0:0:0:0:
28,192,35227,1,0,0:0:0:0:
483,192,35227,1,0,0:0:0:0:
142,192,35375,1,8,0:0:0:0:
199,192,35449,1,0,0:0:0:0:
256,192,35524,1,0,0:0:0:0:
312,192,35598,1,0,0:0:0:0:
369,192,35672,1,2,0:0:0:0:
142,192,35672,1,0,0:0:0:0:
256,192,35821,1,0,0:0:0:0:
85,192,35969,1,8,0:0:0:0:
369,192,35969,1,0,0:0:0:0:
312,192,36118,1,0,0:0:0:0:
426,192,36266,1,2,0:0:0:0:
199,192,36266,1,0,0:0:0:0:
142,192,36415,1,0,0:0:0:0:
369,192,36415,1,0,0:0:0:0:
85,192,36563,1,8,0:0:0:0:
312,192,36563,1,0,0:0:0:0:
199,192,36712,1,0,0:0:0:0:
426,192,36712,1,0,0:0:0:0:
256,192,36860,1,2,0:0:0:0:
369,192,36860,1,0,0:0:0:0:
142,192,37009,1,0,0:0:0:0:
483,192,37009,1,0,0:0:0:0:
256,192,37157,1,8,0:0:0:0:
85,192,37157,1,0,0:0:0:0:
28,192,37306,1,0,0:0:0:0:
369,192,37306,1,0,0:0:0:0:
142,192,37454,1,2,0:0:0:0:
483,192,37454,1,0,0:0:0:0:
312,192,37603,1,0,0:0:0:0:
256,192,37751,1,8,0:0:0:0:
426,192,37751,1,0,0:0:0:0:
142,192,37900,1,0,0:0:0:0:
369,192,37900,1,0,0:0:0:0:
199,192,38048,1,2,0:0:0:0:
312,192,38048,1,0,0:0:0:0:
142,192,38197,1,0,0:0:0:0:
426,192,38197,1,0,0:0:0:0:
369,192,38345,1,8,0:0:0:0:
85,192,38345,1,0,0:0:0:0:
199,192,38494,1,0,0:0:0:0:
312,192,38494,1,0,0:0:0:0:
142,192,38642,1,2,0:0:0:0:
369,192,38642,1,0,0:0:0:0:
312,192,38791,1,0,0:0:0:0:
256,192,38865,1,0,0:0:0:0:
199,192,38939,1,8,0:0:0:0:
426,192,38939,1,0,0:0:0:0:
142,192,39088,1,0,0:0:0:0:
369,192,39088,1,0,0:0:0:0:
85,192,39236,1,4,0:0:0:0:
256,192,39236,1,2,0:0:0:0:
426,192,39236,1,0,0:0:0:0:
369,192,39385,1,0,0:0:0:0:
199,192,39533,1,8,0:0:0:0:
312,192,39533,1,0,0:0:0:0:
256,192,39682,1,0,0:0:0:0:
256,192,39830,1,0,0:0:0:0:
199,192,39979,1,0,0:0:0:0:
142,192,40128,1,8,0:0:0:0:
369,192,40128,1,0,0:0:0:0:
256,192,40276,1,0,0:0:0:0:
312,192,40425,1,0,0:0:0:0:
199,192,40573,1,0,0:0:0:0:
256,192,40722,1,8,0:0:0:0:
426,192,40722,1,0,0:0:0:0:
312,192,40870,1,0,0:0:0:0:
199,192,41019,1,0,0:0:0:0:
256,192,41167,1,0,0:0:0:0:
142,192,41316,1,8,0:0:0:0:
312,192,41316,1,0,0:0:0:0:
369,192,41464,1,0,0:0:0:0:
312,192,41613,1,4,0:0:0:0:
85,192,41613,1,2,0:0:0:0:
483,192,41613,1,0,0:0:0:0:
142,192,41687,1,8,0:0:0:0:
199,192,41761,1,8,0:0:0:0:
256,192,41835,1,8,0:0:0:0:
28,192,41910,1,8,0:0:0:0:
85,192,41984,1,8,0:0:0:0:
142,192,42058,1,8,0:0:0:0:
199,192,42132,1,8,0:0:0:0:
483,192,42207,1,2,0:0:0:0:
256,192,42207,1,8,0:0:0:0:
28,192,42207,1,4,0:0:0:0:
426,192,42281,1,8,0:0:0:0:
369,192,42355,1,8,0:0:0:0:
312,192,42429,1,8,0:0:0:0:
426,192,42504,1,8,0:0:0:0:
369,192,42578,1,8,0:0:0:0:
312,192,42652,1,8,0:0:0:0:
256,192,42727,1,8,0:0:0:0:
199,192,42801,128,0,43395:0:0:0:0:
312,192,43098,128,0,43395:0:0:0:0:
28,192,43395,1,0,0:0:0:0:
142,192,43543,1,0,0:0:0:0:
369,192,43692,1,0,0:0:0:0:
483,192,43840,1,0,0:0:0:0:
85,192,43989,1,4,0:0:0:0:
199,192,43989,1,2,0:0:0:0:
312,192,43989,1,0,0:0:0:0:
142,192,44286,1,8,0:0:0:0:
369,192,44286,1,0,0:0:0:0:
28,192,44583,1,2,0:0:0:0:
483,192,44583,1,0,0:0:0:0:
199,192,44880,1,8,0:0:0:0:
312,192,44880,1,0,0:0:0:0:
142,192,45177,1,2,0:0:0:0:
369,192,45177,1,0,0:0:0:0:
28,192,45326,1,0,0:0:0:0:
483,192,45326,1,0,0:0:0:0:
199,192,45474,1,8,0:0:0:0:
312,192,45474,1,0,0:0:0:0:
142,192,45623,1,0,0:0:0:0:
369,192,45623,1,0,0:0:0:0:
85,192,45771,1,2,0:0:0:0:
426,192,45771,1,0,0:0:0:0:
256,192,45920,1,2,0:0:0:0:
199,192,45994,1,2,0:0:0:0:
142,192,46068,1,2,0:0:0:0:
369,192,46068,1,0,0:0:0:0:
85,192,46217,1,2,0:0:0:0:
312,192,46217,1,0,0:0:0:0:
28,192,46365,1,4,0:0:0:0:
256,192,46365,1,2,0:0:0:0:
483,192,46365,1,0,0:0:0:0:
142,192,46662,1,8,0:0:0:0:
369,192,46662,1,0,0:0:0:0:
85,192,46959,1,2,0:0:0:0:
312,192,46959,1,0,0:0:0:0:
142,192,47256,1,2,0:0:0:0:
369,192,47256,1,0,0:0:0:0:
199,192,47405,1,2,0:0:0:0:
426,192,47405,1,0,0:0:0:0:
256,192,47553,1,2,0:0:0:0:
483,192,47553,1,0,0:0:0:0:
28,192,47850,1,2,0:0:0:0:
256,192,47850,1,0,0:0:0:0:
256,192,48147,1,2,0:0:0:0:
483,192,48147,1,0,0:0:0:0:
256,192,48444,1,2,0:0:0:0:
28,192,48444,1,0,0:0:0:0:
142,192,48741,1,2,0:0:0:0:
312,192,48741,1,4,0:0:0:0:
483,192,48741,1,0,0:0:0:0:
85,192,49038,1,8,0:0:0:0:
256,192,49038,1,0,0:0:0:0:
199,192,49335,1,2,0:0:0:0:
426,192,49335,1,0,0:0:0:0:
28,192,49632,1,8,0:0:0:0:
256,192,49632,1,0,0:0:0:0:
142,192,49781,1,0,0:0:0:0:
369,192,49781,1,0,0:0:0:0:
256,192,49929,1,2,0:0:0:0:
483,192,49929,1,0,0:0:0:0:
199,192,50078,1,0,0:0:0:0:
426,192,50078,1,0,0:0:0:0:
142,192,50227,1,8,0:0:0:0:
369,192,50227,1,0,0:0:0:0:
85,192,50375,1,0,0:0:0:0:
312,192,50375,1,0,0:0:0:0:
28,192,50524,1,2,0:0:0:0:
256,192,50524,1,0,0:0:0:0:
85,192,50672,1,2,0:0:0:0:
142,192,50746,1,2,0:0:0:0:
199,192,50821,1,2,0:0:0:0:
312,192,50821,1,0,0:0:0:0:
28,192,50969,1,2,0:0:0:0:
142,192,50969,1,0,0:0:0:0:
256,192,51118,1,4,0:0:0:0:
369,192,51118,1,2,0:0:0:0:
483,192,51118,1,0,0:0:0:0:
85,192,51415,1,8,0:0:0:0:
199,192,51415,1,0,0:0:0:0:
312,192,51712,1,2,0:0:0:0:
426,192,51712,1,0,0:0:0:0:
85,192,52009,1,8,0:0:0:0:
199,192,52009,1,0,0:0:0:0:
312,192,52157,1,2,0:0:0:0:
426,192,52157,1,0,0:0:0:0:
142,192,52306,1,2,0:0:0:0:
369,192,52306,1,0,0:0:0:0:
28,192,52603,1,2,0:0:0:0:
312,192,52603,1,0,0:0:0:0:
142,192,52900,1,2,0:0:0:0:
426,192,52900,1,0,0:0:0:0:
199,192,53197,1,2,0:0:0:0:
256,192,53271,1,2,0:0:0:0:
312,192,53345,1,2,0:0:0:0:
369,192,53420,1,2,0:0:0:0:
426,192,53494,1,2,0:0:0:0:
28,192,53494,1,4,0:0:0:0:
142,192,53494,1,0,0:0:0:0:
85,192,53791,1,8,0:0:0:0:
312,192,53791,1,0,0:0:0:0:
199,192,54088,1,2,0:0:0:0:
426,192,54088,1,0,0:0:0:0:
85,192,54385,1,8,0:0:0:0:
312,192,54385,1,0,0:0:0:0:
28,192,54682,1,2,0:0:0:0:
199,192,54682,1,0,0:0:0:0:
369,192,54830,1,0,0:0:0:0:
483,192,54830,1,0,0:0:0:0:
85,192,54979,1,8,0:0:0:0:
256,192,54979,1,0,0:0:0:0:
142,192,55128,1,0,0:0:0:0:
312,192,55128,1,0,0:0:0:0:
199,192,55276,1,2,0:0:0:0:
369,192,55276,1,0,0:0:0:0:
85,192,55425,1,2,0:0:0:0:
142,192,55499,1,2,0:0:0:0:
199,192,55573,1,2,0:0:0:0:
312,192,55573,1,0,0:0:0:0:
369,192,55722,1,2,0:0:0:0:
483,192,55722,1,0,0:0:0:0:
85,192,55870,1,2,0:0:0:0:
199,192,55870,1,4,0:0:0:0:
312,192,55870,1,0,0:0:0:0:
256,192,56167,1,8,0:0:0:0:
426,192,56167,1,0,0:0:0:0:
142,192,56464,1,2,0:0:0:0:
312,192,56464,1,0,0:0:0:0:
199,192,56761,1,2,0:0:0:0:
426,192,56761,1,0,0:0:0:0:
142,192,56910,1,2,0:0:0:0:
369,192,56910,1,0,0:0:0:0:
85,192,57058,1,2,0:0:0:0:
312,192,57058,1,0,0:0:0:0:
142,192,57355,1,2,0:0:0:0:
369,192,57355,1,0,0:0:0:0:
199,192,57652,1,2,0:0:0:0:
426,192,57652,1,0,0:0:0:0:
256,192,57949,1,2,0:0:0:0:
483,192,57949,1,0,0:0:0:0:
28,192,58246,1,2,0:0:0:0:
199,192,58246,1,4,0:0:0:0:
369,192,58246,1,0,0:0:0:0:
142,192,58543,1,8,0:0:0:0:
312,192,58543,1,0,0:0:0:0:
199,192,58840,1,2,0:0:0:0:
426,192,58840,1,0,0:0:0:0:
28,192,59137,1,8,0:0:0:0:
312,192,59137,1,0,0:0:0:0:
142,192,59286,1,0,0:0:0:0:
426,192,59286,1,0,0:0:0:0:
256,192,59434,1,2,0:0:0:0:
483,192,59434,1,0,0:0:0:0:
199,192,59583,1,0,0:0:0:0:
426,192,59583,1,0,0:0:0:0:
142,192,59731,1,8,0:0:0:0:
369,192,59731,1,0,0:0:0:0:
85,192,59880,1,0,0:0:0:0:
312,192,59880,1,0,0:0:0:0:
28,192,60028,1,2,0:0:0:0:
256,192,60028,1,0,0:0:0:0:
369,192,60177,1,2,0:0:0:0:
312,192,60251,1,2,0:0:0:0:
256,192,60326,1,2,0:0:0:0:
142,192,60326,1,0,0:0:0:0:
85,192,60474,1,2,0:0:0:0:
199,192,60474,1,0,0:0:0:0:
256,192,60623,1,8,0:0:0:0:
369,192,60623,1,4,0:0:0:0:
483,192,60623,1,0,0:0:0:0:
28,192,60920,1,2,0:0:0:0:
199,192,60920,1,0,0:0:0:0:
256,192,61217,1,8,0:0:0:0:
369,192,61217,1,4,0:0:0:0:
483,192,61217,1,0,0:0:0:0:
28,192,61514,1,2,0:0:0:0:
426,192,61514,1,0,0:0:0:0:
312,192,61662,1,2,0:0:0:0:
142,192,61662,1,0,0:0:0:0:
199,192,61811,1,2,0:0:0:0:
483,192,61811,1,0,0:0:0:0:
28,192,62108,1,2,0:0:0:0:
312,192,62108,1,0,0:0:0:0:
199,192,62405,1,2,0:0:0:0:
483,192,62405,1,0,0:0:0:0:
312,192,62702,1,2,0:0:0:0:
28,192,62702,1,0,0:0:0:0:
199,192,62999,1,2,0:0:0:0:
483,192,62999,1,0,0:0:0:0:
142,192,63296,1,2,0:0:0:0:
369,192,63296,1,0,0:0:0:0:
28,192,63444,1,2,0:0:0:0:
483,192,63444,1,0,0:0:0:0:
142,192,63890,1,0,0:0:0:0:
199,192,63964,1,0,0:0:0:0:
256,192,64038,1,0,0:0:0:0:
312,192,64113,1,0,0:0:0:0:
369,192,64187,1,2,0:0:0:0:
483,192,64187,1,4,0:0:0:0:
28,192,64187,1,0,0:0:0:0:
199,192,64335,1,0,0:0:0:0:
85,192,64484,1,8,0:0:0:0:
256,192,64484,1,0,0:0:0:0:
426,192,64632,1,0,0:0:0:0:
142,192,64781,1,2,0:0:0:0:
312,192,64781,1,0,0:0:0:0:
199,192,64929,1,0,0:0:0:0:
483,192,64929,1,0,0:0:0:0:
28,192,65078,1,8,0:0:0:0:
369,192,65078,1,0,0:0:0:0:
85,192,65227,1,0,0:0:0:0:
256,192,65227,1,0,0:0:0:0:
199,192,65375,1,2,0:0:0:0:
312,192,65375,1,0,0:0:0:0:
483,192,65524,1,0,0:0:0:0:
28,192,65524,1,0,0:0:0:0:
369,192,65672,1,8,0:0:0:0:
142,192,65672,1,0,0:0:0:0:
199,192,65821,1,0,0:0:0:0:
312,192,65821,1,0,0:0:0:0:
426,192,65969,1,2,0:0:0:0:
85,192,65969,1,0,0:0:0:0:
199,192,66118,1,0,0:0:0:0:
312,192,66118,1,0,0:0:0:0:
483,192,66266,1,8,0:0:0:0:
28,192,66266,1,0,0:0:0:0:
369,192,66415,1,2,0:0:0:0:
142,192,66415,1,0,0:0:0:0:
199,192,66563,1,2,0:0:0:0:
312,192,66563,1,0,0:0:0:0:
426,192,66712,1,0,0:0:0:0:
85,192,66860,1,8,0:0:0:0:
369,192,66860,1,0,0:0:0:0:
142,192,67009,1,0,0:0:0:0:
199,192,67157,1,2,0:0:0:0:
312,192,67157,1,0,0:0:0:0:
426,192,67306,1,0,0:0:0:0:
142,192,67454,1,8,0:0:0:0:
28,192,67454,1,0,0:0:0:0:
312,192,67603,1,0,0:0:0:0:
199,192,67603,1,0,0:0:0:0:
369,192,67751,1,2,0:0:0:0:
142,192,67751,1,0,0:0:0:0:
426,192,67900,1,0,0:0:0:0:
85,192,67900,1,0,0:0:0:0:
312,192,68048,1,8,0:0:0:0:
199,192,68048,1,0,0:0:0:0:
142,192,68197,1,0,0:0:0:0:
369,192,68197,1,0,0:0:0:0:
85,192,68345,1,2,0:0:0:0:
426,192,68345,1,0,0:0:0:0:
28,192,68494,1,2,0:0:0:0:
483,192,68494,1,0,0:0:0:0:
199,192,68642,1,8,0:0:0:0:
312,192,68642,1,0,0:0:0:0:
142,192,68791,1,2,0:0:0:0:
369,192,68791,1,0,0:0:0:0:
85,192,68939,1,2,0:0:0:0:
426,192,68939,1,0,0:0:0:0:
312,192,69088,1,0,0:0:0:0:
85,192,69236,1,8,0:0:0:0:
426,192,69236,1,0,0:0:0:0:
256,192,69385,1,0,0:0:0:0:
142,192,69533,1,2,0:0:0:0:
312,192,69533,1,0,0:0:0:0:
199,192,69682,1,0,0:0:0:0:
85,192,69830,1,8,0:0:0:0:
426,192,69830,1,0,0:0:0:0:
28,192,69979,1,0,0:0:0:0:
369,192,69979,1,0,0:0:0:0:
199,192,70128,1,2,0:0:0:0:
312,192,70128,1,0,0:0:0:0:
85,192,70276,1,0,0:0:0:0:
426,192,70276,1,0,0:0:0:0:
142,192,70425,1,8,0:0:0:0:
369,192,70425,1,0,0:0:0:0:
199,192,70573,1,0,0:0:0:0:
312,192,70573,1,0,0:0:0:0:
28,192,70722,1,2,0:0:0:0:
483,192,70722,1,0,0:0:0:0:
142,192,70870,1,2,0:0:0:0:
369,192,70870,1,0,0:0:0:0:
85,192,71019,1,8,0:0:0:0:
426,192,71019,1,0,0:0:0:0:
142,192,71167,1,2,0:0:0:0:
369,192,71167,1,0,0:0:0:0:
199,192,71316,1,2,0:0:0:0:
312,192,71316,1,0,0:0:0:0:
142,192,71613,1,8,0:0:0:0:
369,192,71613,1,0,0:0:0:0:
85,192,71910,1,8,0:0:0:0:
426,192,71910,1,0,0:0:0:0:
312,192,72058,1,8,0:0:0:0:
256,192,72132,1,8,0:0:0:0:
199,192,72207,1,8,0:0:0:0:
85,192,72207,1,0,0:0:0:0:
426,192,72355,1,8,0:0:0:0:
369,192,72429,1,8,0:0:0:0:
312,192,72504,1,8,0:0:0:0:
199,192,72504,1,0,0:0:0:0:
85,192,72652,1,2,0:0:0:0:
426,192,72652,1,0,0:0:0:0:
85,192,72801,1,2,0:0:0:0:
426,192,72801,1,0,0:0:0:0:
199,192,72949,1,2,0:0:0:0:
312,192,72949,1,0,0:0:0:0:
369,192,73098,1,8,0:0:0:0:
312,192,73172,1,8,0:0:0:0:
256,192,73246,1,8,0:0:0:0:
142,192,73246,1,0,0:0:0:0:
85,192,73395,1,2,0:0:0:0:
369,192,73395,1,0,0:0:0:0:
142,192,73543,1,2,0:0:0:0:
426,192,73543,1,0,0:0:0:0:
483,192,73692,1,4,0:0:0:0:
199,192,73692,1,2,0:0:0:0:
312,192,73692,1,0,0:0:0:0:
85,192,73840,1,0,0:0:0:0:
142,192,73989,1,8,0:0:0:0:
369,192,73989,1,0,0:0:0:0:
426,192,74137,1,0,0:0:0:0:
28,192,74286,1,2,0:0:0:0:
483,192,74286,1,0,0:0:0:0:
142,192,74434,1,0,0:0:0:0:
369,192,74434,1,0,0:0:0:0:
85,192,74583,1,8,0:0:0:0:
426,192,74583,1,0,0:0:0:0:
199,192,74731,1,0,0:0:0:0:
312,192,74731,1,0,0:0:0:0:
369,192,74880,1,2,0:0:0:0:
142,192,74880,1,0,0:0:0:0:
312,192,75029,1,0,0:0:0:0:
483,192,75029,1,0,0:0:0:0:
199,192,75177,1,8,0:0:0:0:
28,192,75177,1,0,0:0:0:0:
142,192,75326,1,0,0:0:0:0:
369,192,75326,1,0,0:0:0:0:
426,192,75474,1,2,0:0:0:0:
256,192,75474,1,0,0:0:0:0:
312,192,75623,1,0,0:0:0:0:
142,192,75623,1,0,0:0:0:0:
85,192,75771,1,8,0:0:0:0:
369,192,75771,1,0,0:0:0:0:
199,192,75920,1,2,0:0:0:0:
28,192,75920,1,0,0:0:0:0:
369,192,76068,1,2,0:0:0:0:
142,192,76068,1,0,0:0:0:0:
256,192,76217,1,0,0:0:0:0:
369,192,76365,1,8,0:0:0:0:
142,192,76365,1,0,0:0:0:0:
85,192,76514,1,0,0:0:0:0:
426,192,76514,1,0,0:0:0:0:
312,192,76662,1,2,0:0:0:0:
199,192,76662,1,0,0:0:0:0:
426,192,76811,1,0,0:0:0:0:
85,192,76811,1,0,0:0:0:0:
142,192,76959,1,8,0:0:0:0:
369,192,76959,1,0,0:0:0:0:
85,192,77108,1,0,0:0:0:0:
426,192,77108,1,0,0:0:0:0:
483,192,77256,1,2,0:0:0:0:
28,192,77256,1,0,0:0:0:0:
142,192,77405,1,0,0:0:0:0:
369,192,77405,1,0,0:0:0:0:
28,192,77553,1,8,0:0:0:0:
483,192,77553,1,0,0:0:0:0:
85,192,77702,1,0,0:0:0:0:
426,192,77702,1,0,0:0:0:0:
142,192,77850,1,2,0:0:0:0:
369,192,77850,1,4,0:0:0:0:
256,192,77850,1,0,0:0:0:0:
483,192,77999,1,6,0:0:0:0:
28,192,77999,1,0,0:0:0:0:
426,192,78147,1,8,0:0:0:0:
85,192,78147,1,4,0:0:0:0:
256,192,78147,1,0,0:0:0:0:
483,192,78296,1,2,0:0:0:0:
28,192,78296,1,4,0:0:0:0:
369,192,78444,1,4,0:0:0:0:
256,192,78444,1,2,0:0:0:0:
142,192,78444,1,0,0:0:0:0:
199,192,78593,1,0,0:0:0:0:
85,192,78741,1,8,0:0:0:0:
426,192,78741,1,0,0:0:0:0:
312,192,78890,1,0,0:0:0:0:
369,192,79038,1,2,0:0:0:0:
142,192,79038,1,0,0:0:0:0:
256,192,79187,1,0,0:0:0:0:
426,192,79335,1,8,0:0:0:0:
85,192,79335,1,0,0:0:0:0:
199,192,79484,1,0,0:0:0:0:
312,192,79484,1,0,0:0:0:0:
142,192,79632,1,4,0:0:0:0:
369,192,79632,1,2,0:0:0:0:
28,192,79781,1,0,0:0:0:0:
483,192,79781,1,0,0:0:0:0:
142,192,79929,1,8,0:0:0:0:
369,192,79929,1,0,0:0:0:0:
312,192,80078,1,0,0:0:0:0:
199,192,80078,1,0,0:0:0:0:
426,192,80227,1,2,0:0:0:0:
85,192,80227,1,0,0:0:0:0:
369,192,80375,1,0,0:0:0:0:
142,192,80375,1,0,0:0:0:0:
28,192,80524,1,8,0:0:0:0:
483,192,80524,1,0,0:0:0:0:
426,192,80672,1,2,0:0:0:0:
85,192,80672,1,0,0:0:0:0:
312,192,80821,1,8,0:0:0:0:
199,192,80821,1,4,0:0:0:0:
369,192,80895,1,8,0:0:0:0:
426,192,80969,1,8,0:0:0:0:
256,192,81043,1,8,0:0:0:0:
312,192,81118,1,8,0:0:0:0:
369,192,81192,1,8,0:0:0:0:
199,192,81266,1,8,0:0:0:0:
256,192,81340,1,8,0:0:0:0:
312,192,81415,1,8,0:0:0:0:
142,192,81415,1,4,0:0:0:0:
85,192,81489,1,8,0:0:0:0:
28,192,81563,1,8,0:0:0:0:
256,192,81637,1,8,0:0:0:0:
199,192,81712,1,8,0:0:0:0:
142,192,81786,1,8,0:0:0:0:
369,192,81860,1,8,0:0:0:0:
312,192,81934,1,8,0:0:0:0:
28,192,82009,1,8,0:0:0:0:
483,192,82009,1,0,0:0:0:0:
256,192,82009,1,0,0:0:0:0:
369,192,82231,1,8,0:0:0:0:
142,192,82231,1,0,0:0:0:0:
28,192,82454,1,8,0:0:0:0:
483,192,82454,1,0,0:0:0:0:
369,192,82603,1,8,0:0:0:0:
256,192,82677,1,8,0:0:0:0:
142,192,82751,1,8,0:0:0:0:
199,192,82900,1,2,0:0:0:0:
312,192,82900,1,0,0:0:0:0:
142,192,83048,1,2,0:0:0:0:
369,192,83048,1,0,0:0:0:0:
85,192,83197,1,8,0:0:0:0:
426,192,83197,1,0,0:0:0:0:
85,192,83494,1,8,0:0:0:0:
426,192,83494,1,0,0:0:0:0:
85,192,83791,1,8,0:0:0:0:
426,192,83791,1,0,0:0:0:0:
85,192,84088,1,8,0:0:0:0:
426,192,84088,1,0,0:0:0:0:
426,192,84385,1,8,0:0:0:0:
85,192,84385,1,0,0:0:0:0:
369,192,84533,1,8,0:0:0:0:
142,192,84533,1,0,0:0:0:0:
426,192,84682,1,2,0:0:0:0:
85,192,84682,1,0,0:0:0:0:
199,192,84830,1,2,0:0:0:0:
312,192,84830,1,0,0:0:0:0:
28,192,84979,1,8,0:0:0:0:
483,192,84979,1,0,0:0:0:0:
