osu file format v6

[General]
AudioFilename: LemonTree.mp3
AudioLeadIn: 0
PreviewTime: 54953
Countdown: 1
SampleSet: Normal
StackLeniency: 0.7
Mode: 0
LetterboxInBreaks: 1

[Editor]
Bookmarks: 14973,52007,82307,95774,156375,169842,183309,229181
DistanceSpacing: 0.720000028610229
BeatDivisor: 4
GridSize: 8

[Metadata]
Title:Lemon Tree
Artist:DJ Mars
Creator:MetalMario201
Version:Normal
Source:
Tags:fool's garden april

[Difficulty]
HPDrainRate:5
CircleSize:4
OverallDifficulty:5
SliderMultiplier:2
SliderTickRate:2

[Events]
//Background and Video events
0,0,"LemonTreeWide.jpg"
//Break Periods
2,52628,53963
2,82507,94574
2,156575,168642
//Storyboard Layer 0 (Background)
//Storyboard Layer 1 (Fail)
//Storyboard Layer 2 (Pass)
//Storyboard Layer 3 (Foreground)
//Storyboard Sound Samples
//Background Colour Transformations
3,100,237,233,180

[TimingPoints]
1506.34691890179,420.841446593777,4,1,2,70,1,0
15183,-100,4,1,1,70,0,0
21496,-100,4,1,2,70,0,0
21811,-100,4,1,1,70,0,0
29702,-100,4,1,2,70,0,0
31070,-100,4,1,1,70,0,0
33279,-100,4,1,2,70,0,0
35489,-100,4,1,1,70,0,0
41696,-100,4,1,2,70,0,0
42327,-100,4,1,1,70,0,0
50218,-100,4,1,2,70,0,0
51270,-100,4,1,1,70,0,0
52007,-100,4,1,2,70,0,0
55584,-100,4,1,1,70,0,0
58530,-100,4,1,2,70,0,0
59161,-100,4,1,1,70,0,0
63370,-100,4,1,2,70,0,0
64001,-100,4,1,1,70,0,0
66947,-100,4,1,2,70,0,0
69051,-100,4,1,1,70,0,0
71997,-100,4,1,2,70,0,0
72418,-100,4,1,1,70,0,0
76836,-100,4,1,2,70,0,0
77468,-100,4,1,1,70,0,0
80414,-100,4,1,2,70,0,0
95985,-100,4,1,1,70,0,0
102297,-100,4,1,2,70,0,0
102718,-100,4,1,1,70,0,0
110504,-100,4,1,2,70,0,0
111872,-100,4,1,1,70,0,0
112818,-100,4,1,2,70,0,0
113239,-100,4,1,1,70,0,0
114081,-100,4,1,2,70,0,0
116185,-100,4,1,1,70,0,0
119131,-100,4,1,2,70,0,0
119552,-100,4,1,1,70,0,0
124181,-100,4,1,2,70,0,0
125338,-100,4,1,1,70,0,0
126285,-100,4,1,2,70,0,0
126706,-100,4,1,1,70,0,0
127548,-100,4,1,2,70,0,0
129652,-100,4,1,1,70,0,0
132598,-100,4,1,2,70,0,0
133019,-100,4,1,1,70,0,0
137438,-100,4,1,2,70,0,0
138069,-100,4,1,1,70,0,0
141015,-100,4,1,2,70,0,0
143119,-100,4,1,1,70,0,0
146065,-100,4,1,2,70,0,0
146486,-100,4,1,1,70,0,0
150905,-100,4,1,2,70,0,0
151536,-100,4,1,1,70,0,0
154482,-100,4,1,2,70,0,0
170053,-100,4,1,1,70,0,0
178049,-100,4,1,2,70,0,0
178470,-100,4,1,1,70,0,0
179627,-100,4,1,2,70,0,0
179837,-100,4,1,1,70,0,0
181416,-100,4,1,2,70,0,0
183520,-100,4,1,1,70,0,0
186466,-100,4,1,2,70,0,0
186887,-100,4,1,1,70,0,0
191305,-100,4,1,2,70,0,0
191937,-100,4,1,1,70,0,0
194882,-100,4,1,2,70,0,0
196987,-100,4,1,1,70,0,0
199933,-100,4,1,2,70,0,0
200353,-100,4,1,1,70,0,0
204772,-100,4,1,2,70,0,0
205404,-100,4,1,1,70,0,0
210033,-100,4,1,2,70,0,0
210243,-100,4,1,2,70,0,1
210454,-100,4,1,1,70,0,1
213400,-100,4,1,2,70,0,1
213820,-100,4,1,1,70,0,1
218239,-100,4,1,2,70,0,1
218660,-100,4,1,1,70,0,1
221606,-100,4,1,2,70,0,1
222027,-100,4,1,1,70,0,1
224973,-100,4,1,2,70,0,1
225814,-100,4,1,2,70,0,0

[Colours]
Combo1 : 238,220,2
Combo2 : 136,179,57
Combo3 : 90,172,239
Combo4 : 220,106,52

[HitObjects]
32,12,14973,5,4
104,24,15183,2,0,B|205:42,1,100,0|4
272,56,15604,2,0,B|349:72|349:184|270:201,2,200,2|0|0
256,128,16656,1,4
188,152,16867,2,0,B|91:185,1,100,0|4
24,208,17287,2,0,B|-64:296|44:424|158:343,1,300,2|8
472,228,18340,6,0,B|448:307|352:307|327:226,1,200,6|0
392,192,18971,1,0
328,156,19181,2,0,B|304:77|208:77|183:158,1,200,6|0
248,192,19812,1,0
184,228,20023,2,0,B|160:307|64:307|39:226,2,200,4|4|4
256,280,21075,5,8
256,280,21285,1,8
480,12,21706,5,4
408,24,21916,2,0,B|307:42,1,100,0|4
240,56,22337,2,0,B|163:72|163:184|242:201,2,200,2|0|0
256,128,23389,1,4
324,152,23600,2,0,B|421:185,1,100,0|4
488,208,24020,2,0,B|576:296|468:424|354:343,1,300,2|8
328,24,25073,5,4
256,24,25283,1,0
184,24,25494,1,4
112,24,25704,2,0,B|24:64|-6:192|24:320|114:361,1,400,2|0
184,360,26756,2,0,B|199:283|313:283|328:362,1,200
400,360,27388,2,0,B|479:336|479:240|398:215,2,200,2|0|0
192,156,28650,5,0
192,228,28861,1,0
256,264,29071,1,0
320,228,29281,1,4
320,156,29492,1,0
250,42,29913,1,0
256,120,30123,1,4
256,120,30544,1,4
256,120,30965,1,4
220,184,31175,5,2
292,184,31386,1,8
364,184,31596,2,0,B|352:264|256:305|160:264|148:182,2,300,0|4|0
328,120,33069,1,8
40,184,33490,5,4
160,336,33911,1,4
352,336,34331,1,4
472,184,34752,1,4
328,144,35173,5,4
256,144,35384,1,0
184,144,35594,1,0
128,96,35804,2,0,B|176:10|336:10|385:98,1,300,2|8
292,208,36857,1,0
220,208,37067,1,0
128,288,37488,2,0,B|176:374|336:374|385:286,1,300,2|8
328,152,38540,5,4
256,152,38750,1,0
184,152,38961,1,4
112,152,39171,2,0,B|35:136|35:24|114:7,2,200,2|0|0
148,88,40223,1,4
220,88,40434,1,0
292,88,40644,1,4
364,88,40855,1,2
256,184,41275,5,8
256,184,41486,1,8
184,184,41696,5,0
120,216,41907,2,0,B|115:297|133:345|222:361,1,200,4|0
292,360,42538,2,0,B|379:345|397:297|392:214,2,200,2|0|0
256,296,43590,1,0
202,208,43906,1,0
310,208,44221,2,0,B|340:120|275:54|177:43|127:122,1,300,2|8
112,248,45273,6,0,B|136:327|232:327|257:246,1,200,6|0
184,232,45905,2,0,B|208:153|304:153|329:234,2,200,2|2|0
256,248,46957,2,0,B|280:327|376:327|401:246,1,200,6|0
384,176,47588,1,2
256,48,48009,1,2
128,176,48430,1,0
320,228,48851,5,0
320,156,49062,1,0
256,120,49272,1,0
192,156,49482,1,4
192,228,49693,1,0
256,342,50114,1,0
256,270,50324,1,4
256,270,50745,1,4
256,270,51166,1,4
292,200,51376,5,2
220,200,51587,1,8
148,200,51797,2,0,B|160:120|256:79|352:120|364:202,1,300,0|4
392,12,55163,5,0
320,12,55374,1,4
320,156,55794,1,0
248,156,56005,2,0,B|220:156|220:156|120:153|54:202|64:330,1,300,2|8
120,372,56846,5,0
192,372,57057,1,4
192,228,57477,1,0
264,228,57688,2,0,B|292:228|292:228|392:231|458:182|448:54,1,300,2|8
176,56,58740,6,0,B|208:-12|304:-12|337:58,3,200,4|0|6|8
256,88,60213,1,0
220,152,60424,1,4
292,152,60634,1,0
400,248,61055,2,0,B|256:322|110:247,1,300,2|8
112,328,61897,2,2,B|256:402|402:327,1,300,2|0
440,264,62738,5,0
256,192,63159,1,2
72,264,63580,1,4
256,120,64422,5,0
184,96,64632,2,0,B|200:19|312:19|328:98,1,200,4|8
320,168,65263,1,0
256,200,65474,1,4
192,168,65684,1,0
120,288,66105,2,0,B|191:360|321:360|393:287,1,300,2|8
192,228,67157,5,4
320,228,67578,1,4
320,84,67999,1,4
192,84,68420,1,4
192,12,68630,5,0
128,48,68841,1,4
128,120,69051,1,0
192,156,69261,1,4
264,156,69472,2,0,B|292:156|292:156|392:153|458:202|448:330,1,300,2|8
320,372,70524,5,4
248,372,70735,1,0
248,228,71155,2,0,B|220:228|220:228|120:231|54:182|64:54,1,300,2|8
292,64,72207,6,0,B|347:67|369:122,1,100,4|0
387,188,72628,2,0,B|407:241|359:277,1,100,2|0
301,316,73049,2,0,B|256:355|210:315,1,100,4|0
152,276,73470,2,0,B|105:241|125:187,1,100,2|0
144,120,73891,2,0,B|165:67|221:64,2,100,2|0|4
216,144,74522,1,2
400,224,75153,5,8
376,292,75364,2,2,B|321:395|191:395|135:290,1,300,2|0
112,224,76205,1,4
184,96,76626,1,2
328,96,77047,1,4
256,280,77889,5,0
328,304,78099,2,0,B|312:381|200:381|184:302,1,200,4|8
192,232,78730,1,0
256,200,78941,1,4
320,232,79151,1,0
328,104,79572,2,0,B|360:16|256:-60|152:16|185:106,1,300,2|8
0,192,80624,5,4
128,192,81045,1,4
256,192,81466,1,4
384,192,81887,1,4
512,192,82307,1,4
480,12,95774,5,4
408,24,95985,2,0,B|307:42,1,100,0|4
240,56,96406,2,0,B|163:72|163:184|242:201,2,200,2|0|0
256,128,97458,2,0,B|328:88|344:144|360:200|434:159,1,200
488,208,98089,2,0,B|576:296|468:424|354:343,1,300,2|8
328,144,99141,5,4
256,144,99352,1,0
184,144,99562,1,0
128,96,99772,2,0,B|176:10|336:10|385:98,1,300,2|8
292,208,100824,1,4
220,208,101035,1,0
220,280,101245,1,4
292,280,101456,1,2
256,144,101877,5,8
256,144,102087,1,8
184,144,102297,5,0
128,192,102508,2,0,B|51:176|51:64|130:47,3,200,4|0|6|8
256,88,104191,1,2
310,176,104507,1,0
202,176,104822,2,0,B|172:264|237:330|335:341|385:262,1,300,2|8
472,136,105875,6,0,B|448:57|352:57|327:138,1,200,6|0
392,168,106506,2,0,B|384:280|256:340|128:280|120:166,1,400,6|0
184,136,107558,2,0,B|160:57|64:57|39:138,1,200,2|0
56,208,108189,1,2
256,136,108610,1,2
456,208,109031,1,4
328,320,109452,5,0
256,320,109662,1,4
184,320,109873,1,0
220,256,110083,1,4
292,256,110293,1,0
256,112,110714,1,0
256,40,110925,1,4
256,40,111345,1,4
256,40,111766,1,4
320,80,111977,5,2
360,144,112187,1,8
368,216,112398,2,0,B|352:296|256:326|160:296|144:214,1,300,0|4
256,152,113450,1,4
256,152,113660,1,0
256,152,113871,1,8
184,24,114291,5,4
328,24,114712,1,4
328,168,115133,1,4
184,168,115554,1,4
40,24,115975,5,4
112,40,116185,1,0
184,56,116396,1,4
256,72,116606,2,0,B|333:88|333:200|254:217,2,200,2|0|0
240,144,117658,1,4
168,160,117869,1,0
96,176,118079,1,4
24,192,118289,2,0,B|-64:280|44:408|158:327,1,300,2|8
360,272,119341,6,0,B|428:240|428:144|358:111,3,200,4|0|2|8
256,192,121025,1,2
256,192,121235,1,0
152,272,121656,2,0,B|84:240|84:144|154:111,2,200,2|0|0
256,160,122919,5,0
320,124,123129,1,4
256,88,123339,1,0
192,52,123550,1,4
256,16,123760,1,0
256,272,124181,1,0
262,350,124392,1,4
262,350,124812,1,4
262,350,125233,1,4
192,304,125444,5,2
152,240,125654,1,8
144,168,125865,2,0,B|160:88|256:58|352:88|368:170,1,300,0|4
256,232,126917,1,4
256,232,127127,1,0
256,232,127338,1,8
472,88,127758,5,4
328,88,128179,1,4
184,88,128600,1,4
40,88,129021,1,4
120,12,129231,5,0
192,12,129442,1,4
192,156,129862,1,0
264,156,130073,2,0,B|292:156|292:156|392:153|458:202|448:330,1,300,2|8
392,372,130914,5,0
320,372,131125,1,4
320,228,131545,1,0
248,228,131756,2,0,B|220:228|220:228|120:231|54:182|64:54,1,300,2|8
336,56,132808,6,0,B|304:-12|208:-12|175:58,3,200,4|0|6|8
256,88,134281,1,0
292,152,134492,1,4
220,152,134702,1,0
112,248,135123,2,0,B|256:322|402:247,1,300,2|8
400,328,135965,2,2,B|256:402|110:327,1,300,2|0
72,264,136806,5,0
256,192,137227,1,2
440,264,137648,1,4
256,120,138490,5,0
328,96,138700,2,0,B|312:19|200:19|184:98,1,200,4|8
192,168,139331,1,0
256,200,139542,1,4
320,168,139752,1,0
392,288,140173,2,0,B|321:360|191:360|119:287,1,300,2|8
320,228,141225,5,4
192,228,141646,1,4
192,84,142067,1,4
320,84,142488,1,4
320,12,142698,5,0
384,48,142909,1,4
384,120,143119,1,0
320,156,143329,1,4
248,156,143540,2,0,B|220:156|220:156|120:153|54:202|64:330,1,300,2|8
192,372,144592,5,4
264,372,144803,1,0
264,228,145223,2,0,B|292:228|292:228|392:231|458:182|448:54,1,300,2|8
220,64,146275,6,0,B|165:67|143:122,1,100,4|0
125,188,146696,2,0,B|105:241|153:277,1,100,2|0
211,316,147117,2,0,B|256:355|302:315,1,100,4|0
360,276,147538,2,0,B|407:241|387:187,1,100,2|0
368,120,147959,2,0,B|347:67|291:64,2,100,2|0|4
296,144,148590,1,2
112,224,149221,5,8
136,292,149432,2,2,B|191:395|321:395|377:290,1,300,2|0
400,224,150273,1,4
328,96,150694,1,2
184,96,151115,1,4
256,280,151957,5,0
184,304,152167,2,0,B|200:381|312:381|328:302,1,200,4|8
320,232,152798,1,0
256,200,153009,1,4
192,232,153219,1,0
184,104,153640,2,0,B|152:16|256:-60|360:16|327:106,1,300,2|8
512,192,154692,5,4
384,192,155113,1,4
256,192,155534,1,4
128,192,155955,1,4
0,192,156375,1,4
160,32,169842,6,0,B|216:0|296:0|354:33,4,200,4|0|2|8|4
184,100,171736,1,0
256,116,171947,1,0
328,132,172157,2,0,B|318:250|198:260,1,200,2|2
352,352,173209,6,0,B|296:384|216:384|158:351,4,200,4|0|2|8|4
328,284,175103,1,0
256,268,175314,1,0
184,252,175524,2,0,B|194:134|314:124,1,200,2|2
463,191,176576,5,4
432,128,176786,2,0,B|402:84|350:70,1,100,2|0
288,48,177207,2,0,B|161:43|75:108|48:193,1,300,2|8
256,192,178259,1,4
256,336,178680,5,6
160,216,179101,1,4
220,264,179311,1,0
292,264,179522,1,8
352,216,179732,1,4
336,144,179943,6,0,B|304:76|208:76|175:146,3,200,4|4|6|10
56,192,181626,1,4
256,336,182046,1,4
456,192,182468,1,4
256,48,182889,1,4
184,24,183099,5,0
112,24,183309,1,4
184,152,183730,1,0
112,152,183941,2,0,B|112:208|112:208|112:304|144:363|258:360,1,300,2|8
328,360,184782,5,0
400,360,184992,1,4
328,232,185413,1,0
400,232,185624,2,0,B|400:176|400:176|400:80|368:21|254:24,1,300,2|8
256,124,186676,6,0,B|184:212|336:212|254:302,3,200,4|0|6|8
192,336,188149,1,0
256,372,188359,1,4
320,336,188570,1,2
448,272,188991,2,0,B|458:158|399:59|290:56,1,300,2|8
220,56,189832,2,2,B|113:59|54:158|64:273,1,300,2|0
136,280,190674,5,0
376,280,191095,1,2
256,120,191516,1,4
256,192,192357,5,0
328,208,192568,2,0,B|312:285|200:285|183:206,1,200,4|8
192,136,193199,1,0
256,104,193410,1,4
320,136,193620,1,0
384,272,194041,2,0,B|320:362|192:362|127:270,1,300,2|8
328,80,195093,5,4
184,80,195514,1,4
184,224,195935,1,4
328,224,196355,1,4
328,152,196566,5,0
364,88,196776,1,4
436,88,196987,1,0
472,152,197197,1,0
400,152,197408,2,0,B|400:208|400:208|400:304|368:363|254:360,1,300,2|8
112,360,198459,5,4
184,360,198670,1,0
112,232,199091,2,0,B|112:176|112:176|112:80|144:21|258:24,1,300,2|8
366,142,200143,6,0,B|406:215|369:304|279:341|205:301,1,300,4|0
153,249,200985,2,0,B|114:177|151:88|241:51|315:91,1,300,2|0
366,142,201826,2,0,B|406:215|369:304|279:341|205:301,2,300,6|2|8
392,72,203299,6,2,B|321:0|191:0|119:73,1,300,2|0
152,136,204141,1,0
360,136,204562,1,2
256,304,204983,1,4
256,88,205824,5,0
328,72,206035,2,0,B|312:-5|200:-5|183:74,1,200,4|8
192,144,206666,1,0
256,176,206877,1,4
320,144,207087,1,0
256,272,207508,1,2
120,96,207929,5,0
88,160,208139,1,8
56,224,208349,2,0,B|80:303|176:303|201:222,1,200,2|0
256,176,208981,1,4
312,224,209191,2,0,B|336:303|432:303|457:222,2,200,2|0|0
384,184,210243,5,4
384,40,210664,1,0
312,40,210874,2,0,B|195:30|97:70|63:166,1,300,2|8
64,236,211716,5,0
128,200,211927,1,4
128,344,212347,1,0
200,344,212557,2,0,B|317:354|415:314|449:218,1,300,2|8
352,112,213610,6,0,B|256:68|256:156|158:111,1,200,4|0
160,272,214452,2,0,B|256:316|256:228|354:273,1,200,6|8
328,192,215083,1,0
256,192,215293,1,4
184,192,215504,1,2
120,64,215925,2,0,B|192:-8|320:-8|394:66,1,300,2|8
360,136,216766,6,2,B|360:208|256:274|152:208|152:134,1,300,2|0
80,136,217608,1,0
256,136,218029,1,2
432,136,218450,1,4
368,368,218870,1,2
256,368,219186,1,0
144,368,219502,1,4
80,248,219923,5,8
152,248,220133,2,2,B|152:176|256:110|360:176|360:250,1,300,2|0
432,248,220975,1,0
256,248,221396,1,2
80,248,221817,1,4
144,16,222237,1,2
256,16,222553,1,0
368,16,222869,1,4
448,184,223289,5,8
400,240,223500,2,0,B|256:306|256:174|109:241,1,300,2|0
64,296,224341,1,0
448,296,224762,1,2
256,56,225183,1,4
256,192,225814,12,4,227708
