osu file format v6

[General]
AudioFilename: LemonTree.mp3
AudioLeadIn: 0
PreviewTime: 54953
Countdown: 1
SampleSet: Normal
StackLeniency: 0.7
Mode: 0
LetterboxInBreaks: 1

[Editor]
Bookmarks: 14973,52007,55374,82307,95774,156375,169842,183309,229181
DistanceSpacing: 1.20000004768372
BeatDivisor: 4
GridSize: 8

[Metadata]
Title:Lemon Tree
Artist:DJ Mars
Creator:MetalMario201
Version:Hard
Source:
Tags:fool's garden april

[Difficulty]
HPDrainRate:8
CircleSize:4
OverallDifficulty:7
SliderMultiplier:2.4
SliderTickRate:2

[Events]
//Background and Video events
0,0,"LemonTreeWide.jpg"
//Break Periods
2,52628,54263
2,82507,94874
2,156575,168942
//Storyboard Layer 0 (Background)
//Storyboard Layer 1 (Fail)
//Storyboard Layer 2 (Pass)
//Storyboard Layer 3 (Foreground)
//Storyboard Sound Samples
//Background Colour Transformations
3,100,237,233,180

[TimingPoints]
1506.34691890179,420.841446593776,4,1,2,70,1,0
15183,-100,4,1,1,70,0,0
21391,-100,4,1,2,70,0,0
22022,-100,4,1,1,70,0,0
29913,-100,4,1,2,70,0,0
31386,-100,4,1,1,70,0,0
32017,-100,4,1,2,70,0,0
32438,-100,4,1,1,70,0,0
33279,-100,4,1,2,70,0,0
34121,-100,4,1,1,70,0,0
34542,-100,4,1,2,70,0,0
35384,-100,4,1,1,70,0,0
41591,-100,4,1,2,70,0,0
42222,-100,4,1,1,70,0,0
50113,-100,4,1,2,70,0,0
51376,-100,4,1,1,70,0,0
52217,-100,4,1,2,70,0,0
55794,-100,4,1,1,70,0,0
58530,-100,4,1,2,70,0,0
59161,-100,4,1,1,70,0,0
63370,-100,4,1,2,70,0,0
63790,-100,4,1,1,70,0,0
66947,-100,4,1,2,70,0,0
69051,-100,4,1,1,70,0,0
71892,-100,4,1,2,70,0,0
72418,-100,4,1,1,70,0,0
76836,-100,4,1,2,70,0,0
77257,-100,4,1,1,70,0,0
80624,-100,4,1,2,70,0,0
95985,-100,4,1,1,70,0,0
102192,-100,4,1,2,70,0,0
102823,-100,4,1,1,70,0,0
110714,-100,4,1,2,70,0,0
111977,-100,4,1,1,70,0,0
112818,-100,4,1,2,70,0,0
113239,-100,4,1,1,70,0,0
114081,-100,4,1,2,70,0,0
116290,-100,4,1,1,70,0,0
119131,-100,4,1,2,70,0,0
119657,-100,4,1,1,70,0,0
124286,-100,4,1,2,70,0,0
125338,-100,4,1,1,70,0,0
126391,-100,4,1,2,70,0,0
126706,-100,4,1,1,70,0,0
127548,-100,4,1,2,70,0,0
129757,-100,4,1,1,70,0,0
132598,-100,4,1,2,70,0,0
133229,-100,4,1,1,70,0,0
137543,-100,4,1,2,70,0,0
137858,-100,4,1,1,70,0,0
141015,-100,4,1,2,70,0,0
143014,-100,4,1,1,70,0,0
145960,-100,4,1,2,70,0,0
146486,-100,4,1,1,70,0,0
151010,-100,4,1,2,70,0,0
151325,-100,4,1,1,70,0,0
154692,-100,4,1,2,70,0,0
170053,-100,4,1,1,70,0,0
176471,-100,4,1,2,70,0,0
176786,-100,4,1,1,70,0,0
179627,-100,4,1,2,70,0,0
179837,-100,4,1,1,70,0,0
181521,-100,4,1,2,70,0,0
183625,-100,4,1,1,70,0,0
186466,-100,4,1,2,70,0,0
187097,-100,4,1,1,70,0,0
191411,-100,4,1,2,70,0,0
191726,-100,4,1,1,70,0,0
194882,-100,4,1,2,70,0,0
197092,-100,4,1,1,70,0,0
199933,-100,4,1,2,70,0,0
200353,-100,4,1,1,70,0,0
204877,-100,4,1,2,70,0,0
205193,-100,4,1,1,70,0,0
210033,-100,4,1,2,70,0,0
210243,-100,4,1,2,70,0,1
210559,-100,4,1,1,70,0,1
213400,-100,4,1,2,70,0,1
214031,-100,4,1,1,70,0,1
220028,-100,4,1,2,70,0,1
220554,-100,4,1,1,70,0,1
223500,-100,4,1,2,70,0,1
223921,-100,4,1,1,70,0,1
225183,-100,4,1,2,70,0,1
226235,-100,4,1,2,70,0,0

[Colours]
Combo1 : 238,220,2
Combo2 : 136,179,57
Combo3 : 90,172,239
Combo4 : 220,106,52

[HitObjects]
168,32,14973,1,6
136,168,15183,1,0
32,64,15394,1,0
168,104,15604,2,0,B|207:143|282:128,1,120,2|4
416,168,16025,2,0,B|407:229|335:248,1,120,2|8
200,200,16446,1,0
56,168,16656,1,4
96,304,16867,2,0,B|135:338|210:337,1,120,0|0
352,344,17287,2,0,B|462:272|462:112|350:39,1,360,2|8
328,272,18129,5,0
320,128,18340,2,0,B|304:57|208:57|192:130,1,180,4|0
256,160,18760,1,0
184,272,18971,1,0
72,360,19181,2,0,B|17:343|24:309|24:263,1,120,6|0
24,120,19602,2,0,B|24:75|17:41|73:23,1,120,12|0
160,136,20023,2,0,B|121:192|161:249,2,120,6|0|0
292,192,20654,2,0,B|346:215|354:169|410:193,1,120,2|4
408,48,21075,5,8
408,336,21285,1,12
448,136,21496,5,0
344,32,21706,1,4
376,168,21917,1,0
480,64,22127,1,0
344,104,22337,2,0,B|305:143|230:128,1,120,2|4
96,168,22758,2,0,B|105:229|177:248,1,120,2|8
296,168,23179,1,0
312,308,23390,1,4
432,224,23600,1,0
280,240,23810,1,0
160,344,24021,2,0,B|50:272|50:112|162:39,1,360,2|8
192,264,24863,5,0
232,120,25073,1,4
272,264,25283,1,0
312,120,25494,1,0
424,24,25704,2,0,B|497:112|497:272|423:362,1,360,2|8
320,264,26546,1,0
280,120,26756,1,4
240,264,26967,1,0
200,120,27177,1,0
64,80,27388,2,0,B|-12:192|65:306,1,240,2|0
368,40,28229,6,0,B|327:4|254:8,1,120,0|4
200,144,28650,1,0
328,216,28861,1,0
200,288,29071,1,0
328,360,29281,1,4
184,360,29492,1,2
312,288,29702,1,8
184,216,29913,1,0
256,72,30123,5,4
256,72,30544,1,4
256,72,30965,1,4
256,216,31175,5,2
400,192,31386,1,8
368,336,31596,2,0,B|256:414|143:335,1,240,2|0
112,192,32227,1,4
376,88,32648,1,4
256,8,32859,1,0
136,88,33069,1,8
256,360,33490,5,4
256,360,33911,1,4
136,176,34226,1,0
136,176,34331,1,4
256,256,34542,1,0
376,176,34752,1,12
120,256,35173,5,6
24,344,35384,1,0
48,216,35594,1,0
88,96,35804,2,0,B|184:22|328:22|426:97,1,360,2|8
200,264,36857,1,0
328,184,37067,2,0,B|432:168|472:240,1,120,2|4
360,320,37488,2,0,B|320:386|191:386|151:318,1,240,2|0
256,216,38120,1,8
112,184,38330,5,0
40,304,38540,1,6
0,168,38750,1,0
112,264,38961,1,0
240,296,39172,2,0,B|316:282|345:239,1,120,2|4
368,96,39592,2,0,B|444:110|464:161,2,120,2|8|0
224,80,40223,1,6
88,120,40434,1,0
192,224,40644,1,0
48,224,40855,2,0,B|104:236|145:167,1,120,2|4
104,48,41275,5,8
104,336,41485,1,8
312,48,41696,5,0
424,136,41907,2,0,B|427:208|366:232,1,120,4|0
256,136,42327,1,0
144,40,42538,2,0,B|85:64|88:138,1,120,2|4
176,248,42959,2,0,B|171:310|103:337,2,120,2|8|0
256,368,43590,1,4
336,168,43906,1,0
152,56,44221,2,0,B|192:-10|321:-10|361:58,1,240,2|0
256,160,44853,1,8
480,208,45063,5,0
472,352,45273,2,0,B|396:356|376:294,1,120,6|0
320,160,45694,1,0
272,296,45905,2,0,B|196:282|167:239,1,120,2|4
40,176,46325,2,0,B|116:162|145:119,1,120,2|12
264,48,46746,1,0
400,88,46957,1,6
264,136,47167,1,0
344,16,47378,1,0
344,160,47588,2,0,B|329:232|271:249,1,120,2|4
192,368,48009,2,0,B|135:352|120:279,1,120,2|8
16,192,48430,5,0
80,64,48640,1,4
168,176,48851,1,0
232,48,49061,1,0
320,160,49271,1,0
384,32,49482,1,4
472,144,49692,1,2
408,272,49903,1,12
256,288,50113,1,0
256,144,50323,5,4
256,144,50744,1,4
256,144,51165,1,4
120,96,51376,5,0
184,224,51586,1,12
328,224,51796,2,0,B|416:279|488:146|390:95,1,240,2|0
256,40,52428,1,4
256,104,55163,5,0
144,24,55374,2,0,B|70:20|47:83,1,120,4|0
152,176,55794,1,0
8,168,56005,2,0,B|-14:293|54:371|180:361|201:246,1,360,2|8
256,104,56846,5,0
368,24,57057,2,0,B|442:20|465:83,1,120,4|0
360,176,57477,1,0
504,168,57688,2,0,B|526:293|458:371|332:361|311:246,1,360,2|8
288,368,58740,6,0,B|231:370|214:372|152:373|152:295,1,180,4|0
224,296,59161,2,0,B|281:298|298:300|360:301|360:223,1,180
288,224,59582,2,0,B|231:226|214:228|152:229|152:151,1,180,6|0
224,152,60003,1,4
352,88,60213,1,0
224,24,60424,1,4
80,56,60634,2,0,B|24:92|41:162,1,120,2|4
96,296,61055,2,0,B|127:373|246:387|306:350,1,240,2|0
224,232,61686,5,8
368,256,61897,2,2,B|424:292|482:255,2,120,2|0|0
424,120,62528,1,0
296,56,62738,2,0,B|220:42|183:81,1,120,2|0
72,176,63159,2,0,B|106:224|178:226,1,120,2|0
312,184,63580,2,0,B|388:151|456:226|428:292|375:321,2,240,4|0|0
232,304,64632,6,0,B|162:328|92:299|80:247,1,180,4|0
152,232,65053,1,8
208,104,65263,1,0
352,128,65474,2,0,B|424:114|466:153,2,120,2|0|4
392,264,66105,2,0,B|360:393|152:393|119:261,1,360,2|8
152,120,66947,1,0
32,40,67157,5,4
256,288,67578,1,4
480,40,67999,1,4
256,136,68420,1,4
128,72,68630,5,0
0,136,68840,1,4
144,148,69051,1,0
24,64,69261,1,4
72,200,69472,2,0,B|15:276|65:384|198:413|257:286,1,360,2|8
416,48,70524,5,4
272,64,70734,2,0,B|245:125|306:169,1,120
440,200,71155,2,0,B|497:276|447:384|314:413|255:286,1,360,2|8
80,104,71997,5,0
216,56,72207,2,0,B|258:50|295:83|293:128,1,120,4|0
361,252,72628,2,0,B|327:282|284:276|256:240,1,120,2|0
127,180,73048,2,0,B|135:140|179:114|220:128,1,120
358,100,73469,2,0,B|376:139|358:181|314:197,1,120,2|0
218,302,73890,2,0,B|183:277|173:238|198:197,2,120,6|0|0
352,352,74522,2,0,B|445:336|477:244|463:167,1,240,2|0
400,40,75153,5,8
256,40,75364,2,2,B|213:34|171:59|151:90,2,120,2|0|0
256,184,75995,1,4
392,224,76205,2,0,B|398:293|327:312,1,120,2|0
184,312,76626,2,0,B|114:293|120:223,1,120,2|0
152,80,77047,2,0,B|200:13|312:13|361:82,2,240,4|0|0
64,192,78099,6,0,B|61:269|72:314|145:333,1,180,4|0
184,272,78520,1,12
328,272,78730,1,0
400,144,78941,2,0,B|469:175|448:241,2,120,4|0|0
220,88,79572,2,0,B|160:120|160:224|256:277|352:224|352:120|291:87,1,360,2|8
256,192,80624,12,4,82307
456,64,95774,5,4
432,208,95985,2,0,B|363:198|335:144,1,120
240,32,96406,2,0,B|170:43|143:98,1,120,2|0
168,240,96826,2,0,B|101:251|55:207,2,120,2|8|0
272,336,97458,2,0,B|334:331|369:271,1,120,4|0
256,184,97879,1,4
200,56,98089,2,0,B|256:17|313:57,2,120,2|0|0
56,96,98720,1,8
32,240,98931,5,0
160,296,99141,2,0,B|150:369|78:368,2,120,4|0|0
296,344,99772,2,0,B|399:192|113:192|218:37,1,360,2|8
336,112,100614,1,0
440,8,100824,2,0,B|495:25|488:59|488:105,1,120,4|0
376,192,101245,1,4
488,280,101456,2,0,B|488:325|495:359|438:376,1,120,2|0
256,336,101877,5,8
256,48,102087,1,8
112,56,102297,5,0
72,192,102508,2,0,B|128:155|186:193,1,120,4|0
328,192,102929,2,0,B|384:155|442:193,1,120,4|0
360,320,103349,2,0,B|313:387|199:387|151:319,1,240,6|8
240,200,103981,1,0
376,248,104191,1,4
176,168,104507,1,0
360,56,104822,2,0,B|320:-10|191:-10|151:58,1,240,2|0
256,160,105454,1,8
64,352,105664,5,0
208,344,105875,2,0,B|288:339|313:295,1,120,6|0
456,264,106295,1,0
360,168,106506,2,0,B|400:114|465:120,2,120,2|0|0
216,200,107137,1,8
72,232,107347,1,0
112,96,107558,2,0,B|153:37|218:65,1,120,6|0
360,64,107979,1,0
480,144,108189,2,0,B|469:210|406:233,1,120,2|4
288,312,108610,2,0,B|242:353|175:343,1,120,2|8
152,192,109031,1,0
240,88,109241,5,4
354,156,109452,1,0
312,288,109662,1,4
176,260,109873,1,0
176,124,110083,1,4
312,96,110293,1,2
354,228,110504,1,8
240,296,110714,1,0
64,272,110925,5,4
448,272,111345,1,4
256,192,111766,1,4
328,64,111977,5,2
184,64,112187,1,8
160,200,112398,2,0,B|208:283|304:283|353:198,1,240,2|0
256,88,113029,1,4
120,312,113450,1,4
256,352,113660,1,0
392,312,113870,1,8
256,168,114291,5,4
184,368,114607,1,0
184,368,114712,1,4
328,368,114922,1,0
256,240,115133,1,8
256,240,115343,1,8
256,240,115554,1,12
136,48,115975,5,4
256,120,116185,1,0
376,48,116396,1,0
384,192,116606,2,0,B|398:234|370:277|327:280,1,120,2|0
184,280,117027,2,0,B|142:277|114:234|128:191,1,120,2|12
40,72,117448,1,0
200,56,117658,2,0,B|256:19|314:57,1,120,4|0
472,72,118079,1,0
464,216,118289,2,0,B|462:289|391:296,2,120,2|0|0
320,192,118921,1,12
16,64,119341,6,0,B|53:17|125:24,1,120,4|0
184,152,119762,2,0,B|113:145|76:193,1,120,0|0
136,320,120183,2,0,B|173:273|245:280,1,120,6|0
384,240,120604,2,0,B|347:193|275:200,1,120,12|0
336,72,121025,2,0,B|407:65|444:113,2,120,6|0|0
208,144,121656,2,0,B|171:200|209:258,1,120,2|4
304,144,122077,2,0,B|341:200|303:258,2,120,2|12|0
256,8,122708,5,4
392,56,122919,1,0
440,192,123129,1,4
392,328,123339,1,0
256,376,123550,1,4
120,328,123760,1,2
72,192,123971,1,12
120,56,124181,1,0
128,248,124392,5,4
384,248,124812,1,4
256,88,125233,1,4
184,192,125444,5,2
328,192,125654,1,12
368,56,125864,2,0,B|256:-22|143:57,1,240,2|0
256,152,126496,1,4
120,312,126917,1,4
256,352,127127,1,0
392,312,127337,1,8
472,32,127758,5,4
40,32,128179,1,4
256,176,128600,1,4
256,320,128810,1,0
256,320,128916,1,0
256,320,129021,1,8
256,104,129231,5,0
144,24,129442,2,0,B|70:20|47:83,1,120,4|0
152,176,129862,1,0
8,168,130073,2,0,B|-14:293|54:371|180:361|201:246,1,360,2|8
256,104,130914,5,0
368,24,131125,2,0,B|442:20|465:83,1,120,4|0
360,176,131545,1,0
504,168,131756,2,0,B|526:293|458:371|332:361|311:246,1,360,2|8
288,368,132808,6,0,B|231:370|214:372|152:373|152:295,1,180,4|0
224,296,133229,2,0,B|281:298|298:300|360:301|360:223,1,180
288,224,133650,2,0,B|231:226|214:228|152:229|152:151,1,180,6|0
224,152,134071,1,4
144,32,134281,1,0
288,24,134492,1,4
432,56,134702,2,0,B|488:92|471:162,1,120,2|0
416,296,135123,2,0,B|385:373|266:387|206:350,1,240,2|0
288,232,135754,5,8
144,256,135965,2,2,B|88:292|30:255,2,120,2|0|0
88,120,136596,1,4
216,56,136806,2,0,B|292:42|329:81,1,120,2|4
440,176,137227,2,0,B|406:224|334:226,1,120,2|4
200,184,137648,2,0,B|124:151|56:226|84:292|137:321,2,240,4|0|0
280,304,138700,6,0,B|350:328|420:299|432:247,1,180,4|0
360,232,139121,1,8
304,104,139331,1,0
160,128,139542,2,0,B|88:114|46:153,2,120,2|0|0
120,264,140173,2,0,B|152:393|360:393|393:261,1,360,2|8
360,120,141015,1,0
256,24,141225,5,4
256,288,141646,1,4
496,156,142067,1,4
16,156,142488,1,4
336,72,142698,5,0
360,216,142908,1,4
440,104,143119,1,0
304,152,143329,1,0
440,200,143540,2,0,B|497:276|447:384|314:413|255:286,1,360,2|8
240,0,144592,5,4
208,144,144802,2,0,B|137:131|120:70,1,120
72,200,145223,2,0,B|15:276|65:384|198:413|257:286,1,360,2|8
432,104,146065,5,0
296,56,146275,2,0,B|254:50|217:83|219:128,1,120,4|0
151,252,146696,2,0,B|185:282|228:276|256:240,1,120,2|0
385,180,147116,2,0,B|377:140|333:114|292:128,1,120,4|0
154,100,147537,2,0,B|136:139|154:181|198:197,1,120,2|0
294,302,147958,2,0,B|329:277|339:238|314:197,2,120,6|0|0
160,352,148590,2,0,B|67:336|35:244|49:167,1,240,2|0
112,40,149221,5,8
256,40,149432,2,2,B|299:34|341:59|361:90,2,120,0|0|0
256,184,150063,1,0
120,224,150273,2,0,B|114:293|185:312,1,120,2|0
328,312,150694,2,0,B|398:293|392:223,1,120,2|8
360,80,151115,2,0,B|312:13|200:13|151:82,2,240,4|0|0
472,176,152167,6,0,B|475:253|464:298|391:317,1,180,4|0
328,288,152588,1,8
184,288,152798,1,0
64,192,153009,1,6
104,56,153219,2,0,B|148:5|208:0,1,120
292,112,153640,2,0,B|352:144|352:248|256:301|160:248|160:144|221:111,1,360,2|8
256,192,154692,12,4,156375
8,48,169842,5,4
56,184,170053,1,0
136,64,170263,1,4
184,200,170474,1,0
264,80,170684,2,0,B|248:147|305:185,1,120,6|0
416,96,171105,2,0,B|474:136|456:201,2,120,12|0|4
376,232,171736,1,0
264,328,171947,1,4
120,352,172157,2,0,B|59:344|64:303|64:262,1,120,2|4
64,120,172578,2,0,B|64:81|59:40|122:32,2,120,2|12|0
192,352,173209,5,4
320,280,173420,1,0
192,208,173630,1,4
320,136,173840,1,0
456,104,174051,2,0,B|491:172|431:209,2,120,6|0|12
328,40,174682,1,0
184,40,174893,1,4
64,120,175103,1,0
64,264,175313,1,4
192,192,175524,2,0,B|223:167|272:167|305:193,1,120,2|4
248,328,175945,2,0,B|279:353|328:353|361:327,2,120,2|12|0
336,112,176576,6,0,B|366:50|434:56,2,120,4|0|4
456,192,177207,1,0
432,328,177418,2,0,B|366:334|335:270,1,120,4|0
216,192,177838,2,0,B|162:215|154:169|98:193,1,120,14|0
48,56,178259,1,4
188,32,178470,1,0
328,56,178680,2,0,B|388:98|359:161,1,120,4|0
256,296,179101,1,4
80,192,179311,1,0
432,192,179522,1,12
256,88,179732,1,4
112,64,179943,6,0,B|128:127|194:145,1,120,4|0
48,144,180363,2,0,B|64:207|130:225,1,120,4|0
400,64,180784,2,0,B|384:127|318:145,1,120,6|0
464,144,181204,2,0,B|448:207|382:225,1,120,14|0
296,336,181626,2,0,B|269:272|297:218,1,120,4|0
216,104,182047,2,0,B|243:168|215:222,1,120,4|0
368,120,182468,1,4
256,32,182678,1,0
256,32,182783,1,0
256,32,182889,1,12
144,120,183099,5,0
0,152,183309,2,0,B|-33:85|25:46,2,120,4|0|0
56,288,183941,2,0,B|103:407|268:397|261:294|256:199,1,360,2|8
368,120,184782,5,0
512,152,184992,2,0,B|545:85|487:46,2,120,4|0|0
456,288,185624,2,0,B|409:407|244:397|251:294|256:199,1,360,2|8
96,96,186676,6,0,B|92:26|139:0|174:11|225:8,1,180,4|0
292,8,187097,2,0,B|338:11|373:0|420:26|416:98,1,180
346,80,187518,2,0,B|162:80,1,180,6|0
184,152,187939,1,4
328,152,188149,1,0
432,248,188359,1,4
312,320,188570,2,0,B|256:359|199:319,1,120,2|4
72,256,188991,2,0,B|6:180|42:84|114:55,1,240,2|0
256,64,189622,5,8
200,192,189832,2,2,B|256:231|313:191,3,120,0|0|0|4
384,64,190674,2,0,B|468:55|472:122,1,120,2|4
472,264,191095,2,0,B|468:329|383:320,1,120,2|4
256,256,191516,2,0,B|182:152|314:136|239:30,2,240,4|0|0
128,320,192568,6,0,B|46:283|61:209|64:166,1,180,4|0
64,96,192989,1,8
200,128,193199,1,0
312,224,193410,2,0,B|256:263|199:223,2,120,6|0|4
344,72,194041,2,0,B|493:88|493:296|341:312,1,360,2|8
256,192,194882,1,0
256,48,195093,5,4
256,336,195514,1,4
80,216,195935,1,4
432,216,196355,1,4
152,176,196566,5,0
8,208,196776,1,4
144,264,196987,1,0
64,144,197197,1,0
56,288,197408,2,0,B|103:407|268:397|261:294|256:199,1,360,2|8
464,144,198460,6,0,B|398:128|359:185,2,120,4|0|0
456,288,199091,2,0,B|409:407|244:397|251:294|256:199,1,360,2|8
256,12,199933,5,0
140,228,200143,2,0,B|159:297|222:308,1,120,4|0
372,156,200564,2,0,B|353:87|290:76,1,120,2|0
140,156,200985,2,0,B|159:87|222:76,1,120,4|0
372,228,201406,2,0,B|353:297|290:308,1,120,2|0
256,136,201826,2,0,B|290:192|222:192|257:250,2,120,6|0|0
152,56,202458,2,0,B|202:-12|310:-12|361:57,1,240,2|0
472,144,203089,5,8
400,272,203299,2,2,B|396:348|326:352,3,120,0|4|0|4
192,304,204141,2,0,B|160:304|119:316|87:263,1,120,2|4
88,120,204562,2,0,B|119:68|160:80|193:80,1,120,2|8
320,144,204983,2,0,B|420:177|367:318|262:263,2,240,4|0|0
192,216,206035,6,0,B|88:240|136:144|30:169,1,180,4|0
56,240,206456,1,8
168,144,206666,1,0
296,80,206876,1,6
424,136,207087,2,0,B|462:192|423:250,1,120
296,304,207508,1,2
112,192,207929,5,0
256,192,208139,1,8
352,104,208349,2,0,B|312:22|199:22|159:106,1,240,2|0
256,192,208981,1,0
160,280,209191,2,0,B|200:362|313:362|353:278,2,240,2|0|0
296,224,210243,6,0,B|286:153|214:152,1,120,4|0
96,248,210664,1,0
0,144,210874,2,0,B|0:64|58:-22|197:-22|257:81,1,360,2|8
360,200,211716,5,0
224,224,211927,2,0,B|234:153|306:152,1,120,4|0
416,248,212348,1,0
512,144,212558,2,0,B|512:64|454:-22|315:-22|255:81,1,360,2|8
448,208,213610,6,0,B|452:303|400:344|358:344,1,180,4|0
352,272,214031,2,0,B|356:177|304:136|262:136,1,180
256,208,214452,2,0,B|260:303|208:344|166:344,1,180,6|0
160,272,214872,1,4
40,192,215083,1,0
160,112,215293,2,0,B|138:50|71:40,2,120,4|2|4
272,24,215925,2,0,B|372:11|431:95|417:171,1,240,2|0
256,192,216556,5,8
200,320,216766,2,2,B|256:359|313:319,3,120,0|0|0|4
456,312,217608,2,0,B|498:259|463:198,1,120,2|4
392,72,218029,2,0,B|341:30|278:57,1,120,2|8
144,104,218450,2,0,B|53:128|53:256|146:281,1,240
288,280,219081,1,4
288,280,219186,1,0
288,280,219291,1,0
424,248,219502,1,4
256,192,219817,5,0
256,192,219923,1,8
312,64,220133,2,2,B|256:25|199:65,3,120,0|4|0|4
56,72,220975,2,0,B|14:125|49:186,1,120,2|4
120,312,221396,2,0,B|171:354|234:327,1,120,2|8
368,280,221817,2,0,B|459:256|459:128|366:103,1,240
224,104,222448,1,4
88,136,222658,1,0
88,136,222763,1,0
88,136,222868,1,4
256,320,223184,5,0
256,320,223290,1,8
200,184,223500,2,2,B|256:145|313:185,2,120,0|4|0
64,232,224131,1,4
96,88,224341,2,0,B|104:27|145:32|186:32,1,120,2|4
328,32,224762,2,0,B|367:32|408:27|416:90,1,120,2|8
256,336,225183,1,0
256,48,225393,1,4
112,192,225604,1,0
400,192,225814,1,4
256,192,226235,12,4,227708
