osu file format v9

[General]
AudioFilename: Mania - Welcome to the Club (Lyrics).mp3
AudioLeadIn: 0
PreviewTime: 28055
Countdown: 1
SampleSet: Soft
StackLeniency: 0.7
Mode: 0
LetterboxInBreaks: 1

[Editor]
DistanceSpacing: 1.9
BeatDivisor: 3
GridSize: 8

[Metadata]
Title:Welcome To The Club
Artist:DJ Manian
Creator:tieff
Version:Hard
Source:
Tags:Natteke

[Difficulty]
HPDrainRate:6
CircleSize:4
OverallDifficulty:7
ApproachRate:7
SliderMultiplier:1.4
SliderTickRate:1

[Events]
//Background and Video events
0,0,"rainbow_wallpaper_by_xxtomekxx (2).jpg"
//Break Periods
2,81930,87223
2,141175,152875
//Storyboard Layer 0 (Background)
//Storyboard Layer 1 (Fail)
//Storyboard Layer 2 (Pass)
//Storyboard Layer 3 (Foreground)
//Storyboard Sound Samples
//Background Colour Transformations
3,100,163,162,255

[TimingPoints]
180,400,4,2,1,70,1,0
28983,399.6003996004,4,2,1,70,1,0
54548,-100,4,1,1,70,0,0
73737,-100,4,2,1,70,0,0
80930,-100,4,2,1,50,0,0
81330,-100,4,2,1,30,0,0
81729,-100,4,2,1,9,0,0
82007,-100,4,2,1,73,0,0
100119,-100,4,2,1,75,0,0
100385,-100,4,2,1,80,0,0
100651,-100,4,2,1,87,0,0
101052,-100,4,2,1,70,0,0
107310,402.684563758389,4,2,1,70,1,0
115375,400,4,2,1,70,1,0
128158,-100,4,1,1,70,0,0
179370,400,4,1,1,70,1,0
191624,-100,4,1,1,60,0,0
191891,-100,4,1,1,50,0,0
192158,-100,4,1,1,40,0,0

[Colours]
Combo1 : 7,150,205
Combo2 : 255,255,255
Combo3 : 185,236,253
Combo4 : 67,210,252

[HitObjects]
448,88,16180,2,4,B|288:88,2,140,4|4|4
448,200,17380,1,4
448,200,17780,2,4,B|400:272|464:344,2,140
336,200,18980,1,4
224,200,19380,6,0,B|112:208,1,93.3333333333333,4|0
130,206,19780,2,0,B|96:168|136:112,1,93.3333333333333,4|0
130,120,20179,2,0,B|232:112,1,93.3333333333333,4|4
223,112,20579,1,4
354,329,20979,6,0,B|466:337,1,93.3333333333333,4|0
448,336,21379,2,0,B|482:297|442:241,1,93.3333333333333,4|0
448,250,21779,2,0,B|346:241,1,93.3333333333333,4|0
355,242,22179,1,4
240,232,22579,6,0,B|176:160|280:96,2,140,4|4|4
296,176,23646,1,0
296,176,23779,6,4,B|464:184,2,140
224,176,24846,1,0
224,176,24979,6,4,B|232:88|328:104,2,140
224,248,26046,5,0
224,248,26179,2,0,B|200:296|128:288,1,93.3333333333333,4|0
146,289,26579,2,0,B|136:184,1,93.3333333333333,4|0
120,160,26979,2,0,B|80:128,2,46.6666666666667,4|0|4
152,136,27379,5,4
216,104,27646,1,2
256,96,27779,1,4
336,104,28046,1,4
368,120,28179,5,4
384,192,28446,1,4
384,192,28579,1,4
384,264,28846,1,0
384,264,28983,5,4
104,264,29249,1,4
104,264,29382,1,12
160,152,29782,2,0,B|192:104|272:128,1,93.3333333333333,4|2
240,208,30181,2,0,B|238:319,1,93.3333333333333,12|2
328,280,30581,2,0,B|392:216|320:128,2,140,4|12|4
72,304,31647,5,2
72,304,31780,1,12
440,184,32046,1,2
440,184,32179,6,0,B|336:176,1,93.3333333333333,4|2
184,208,32579,2,0,B|288:216,1,93.3333333333333,12|2
280,128,32979,6,0,B|176:120,1,93.3333333333333,4|2
24,152,33378,2,0,B|128:160,1,93.3333333333333,12|2
400,304,33778,6,4,B|448:232|384:152,2,140,4|12|4
216,296,34843,1,2
216,296,34977,1,12
32,288,35243,1,8
32,288,35376,6,4,B|80:216|24:136,2,140,4|12|4
32,64,36442,1,2
32,64,36575,1,12
208,136,36841,1,2
208,136,36975,6,4,B|280:88|344:160,1,140,4|12
328,240,37641,1,2
328,240,37774,1,4
320,336,38040,1,2
320,336,38173,1,12
248,280,38440,1,8
248,280,38573,6,4,B|200:200|296:144,1,140,4|12
368,136,39239,1,2
368,136,39372,2,4,B|360:248,1,93.3333333333333
232,48,39772,2,4,B|344:56,1,93.3333333333333,12|12
256,152,40171,6,4,B|184:104|112:152,2,140,4|12|4
192,240,41237,1,0
192,240,41370,1,8
336,248,41637,1,4
336,248,41770,6,4,B|400:216|472:264,1,140,4|12
472,168,42436,1,2
472,168,42569,2,0,B|464:48,1,93.3333333333333,4|2
384,120,42969,2,0,B|384:24,1,93.3333333333333,12|2
96,24,43368,2,0,B|56:96|96:168,1,140,4|12
408,320,44167,5,4
336,232,44434,1,2
336,232,44567,1,12
264,144,44833,1,2
240,120,44967,2,4,B|176:112|128:120,1,93.3333333333333,4|2
160,320,45366,2,0,B|168:216,1,93.3333333333333,12|8
184,48,45766,6,0,B|296:56,1,93.3333333333333,4|2
408,64,46165,2,0,B|450:113|386:153,1,93.3333333333333,12|8
264,144,46565,2,0,B|256:264,1,93.3333333333333,4|2
248,336,46965,6,0,B|168:368|112:296,1,140,12|4
128,192,47631,1,2
128,192,47764,1,12
136,80,48030,1,8
136,80,48163,5,4
120,320,48563,1,12
376,336,48963,1,4
384,80,49229,1,2
384,80,49362,5,12
304,160,49629,1,2
304,160,49762,2,0,B|240:144|144:160,1,140,4|12
160,272,50428,1,2
160,272,50561,6,0,B|256:280,1,93.3333333333333,4|2
336,288,50961,2,0,B|344:184,1,93.3333333333333,12|8
256,184,51360,2,0,B|96:168,1,140,4|8
120,56,52026,1,2
120,56,52159,6,0,B|216:64,1,93.3333333333333,4|0
400,80,52559,2,0,B|304:72,1,93.3333333333333,12|12
120,56,52959,2,0,B|272:72,1,140,4|0
256,240,53758,6,4,B|256:288,2,46.6666666666667
256,144,54157,2,4,B|256:88,2,46.6666666666667
256,192,54557,5,4
88,184,54957,1,2
168,104,55223,1,0
168,104,55356,2,0,B|224:184|144:264,2,140,0|2|2
264,48,56422,1,0
264,48,56555,1,0
376,56,56821,1,0
376,56,56955,6,0,B|376:160,1,93.3333333333333,2|2
304,224,57354,2,0,B|288:120,1,93.3333333333333,0|2
400,224,57754,2,0,B|456:296|392:360,1,140,2|0
184,336,58420,1,0
184,336,58553,6,0,B|80:328,1,93.3333333333333,2|2
96,248,58953,2,0,B|104:152,1,93.3333333333333,0|0
192,152,59352,2,0,B|344:160,1,140,2|0
328,280,60018,1,0
328,280,60151,5,0
328,160,60418,1,0
328,160,60551,1,0
328,40,60817,1,0
328,40,60951,6,0,B|152:48,2,140,0|2|0
432,96,62016,1,0
432,96,62149,2,0,B|384:160|448:256,1,140,2|2
480,344,62815,1,0
416,344,62949,1,0
352,344,63082,1,0
288,344,63215,1,0
224,344,63348,6,0,B|216:240,1,93.3333333333333,2|0
232,88,63748,2,0,B|264:152|176:184,1,93.3333333333333,2|0
16,112,64147,2,0,B|168:112,1,140,2|0
392,112,64813,5,0
392,112,64947,2,0,B|392:216,1,93.3333333333333,2|0
392,288,65346,2,0,B|280:288,1,93.3333333333333,2|0
216,288,65746,2,0,B|216:120,1,140,2|0
216,64,66279,1,0
216,64,66412,1,0
216,64,66545,5,0
272,168,66811,1,0
272,168,66945,1,0
184,256,67211,1,0
184,256,67344,5,4
368,256,67744,1,2
368,72,68143,1,0
248,64,68410,1,0
248,64,68543,6,0,B|168:104|224:184,1,140,2|2
344,192,69209,1,0
344,192,69342,1,0
240,256,69609,1,0
240,256,69742,6,0,B|240:152,1,93.3333333333333,2|2
160,128,70141,2,0,B|144:224,1,93.3333333333333,0|2
328,160,70541,2,0,B|312:16,1,140,2|0
208,224,71340,6,0,B|192:328,1,93.3333333333333,2|2
352,320,71740,2,0,B|352:216,1,93.3333333333333,0|2
288,104,72139,2,0,B|280:256,1,140,2|0
384,184,72805,1,0
384,184,72939,2,0,B|432:120|376:56,1,140
208,88,73738,6,0,B|112:88,1,93.3333333333333,4|2
208,168,74137,2,0,B|112:168,1,93.3333333333333,8|2
208,248,74537,2,0,B|104:248,1,93.3333333333333,4|2
208,328,74937,2,0,B|112:328,1,93.3333333333333,8|2
296,280,75336,2,4,B|344:208|264:120,2,140,4|12|4
416,296,76402,1,2
416,296,76535,2,0,B|432:192,1,93.3333333333333,8|0
272,88,76935,2,4,B|360:56|416:136,2,140,4|12|4
176,168,78000,1,2
176,168,78133,1,12
152,288,78400,1,2
152,288,78533,6,2,B|104:272,2,46.6666666666667,4|2|2
184,256,78933,2,0,B|240:248,2,46.6666666666667,8|0|2
144,240,79332,2,0,B|96:224,2,46.6666666666667,4|2|2
176,224,79732,2,4,B|184:160,3,46.6666666666667
24,192,80531,5,2
256,32,80931,1,2
480,200,81330,1,2
256,352,81730,1,2
112,80,88123,6,4,B|192:112|144:208,1,140
149,195,88923,1,4
280,152,89322,2,0,B|392:144,1,93.3333333333333,4|0
373,145,89722,2,0,B|423:183|367:247,1,93.3333333333333,4|0
382,227,90121,2,0,B|278:231,1,93.3333333333333,4|0
240,232,90521,2,4,B|192:296|240:376,2,140
336,128,91720,1,4
200,96,92119,5,8
104,104,92386,1,2
104,104,92519,1,12
112,200,92785,1,2
112,200,92919,2,0,B|264:192,1,140,12|4
256,288,93585,1,2
256,288,93718,2,0,B|304:320|360:280,1,93.3333333333333,4|0
376,256,94117,2,0,B|384:144,1,93.3333333333333,4|0
416,128,94517,2,0,B|288:120,1,93.3333333333333,4|0
322,122,94917,5,4
184,128,95316,1,4
192,264,95716,1,4
288,256,95982,1,2
288,256,96115,2,0,B|336:296|296:352,1,93.3333333333333,4|2
344,312,96515,2,0,B|440:312,1,93.3333333333333,4|2
416,272,96915,2,0,B|448:224|392:176,1,93.3333333333333,4|2
448,168,97314,2,0,B|344:160,1,93.3333333333333,4|2
354,160,97714,5,4
264,152,97980,1,4
264,152,98113,1,4
168,144,98380,1,4
168,144,98513,1,4
72,136,98779,1,4
72,136,98913,1,4
72,40,99179,1,4
72,40,99312,6,4,B|128:32,12,46.6666666666667,4|4|4|4|4|4|4|4|4|4|4|4|4
352,64,101710,6,0,B|344:168,1,93.3333333333333
328,328,102109,2,0,B|336:224,1,93.3333333333333
328,192,102509,6,0,B|256:240|320:344,1,140,4|4
168,336,103308,2,0,B|160:240,1,93.3333333333333,4|0
200,216,103708,2,0,B|200:320,1,93.3333333333333,4|0
240,288,104107,2,0,B|256:120,1,140,4|4
352,48,104907,5,4
256,56,105173,1,0
256,56,105306,1,4
160,64,105573,1,0
160,64,105706,1,4
64,72,105972,1,0
64,72,106105,1,4
72,296,106505,6,0,B|72:200,1,93.3333333333333,4|0
144,144,106905,2,0,B|152:240,1,93.3333333333333,4|0
160,328,107310,2,0,B|168:216,1,93.3333333333333,4|0
216,160,107712,2,4,B|72:152,1,140
76,152,108383,5,0
76,152,108518,1,4
144,216,108786,1,0
144,216,108920,1,4
176,32,109189,1,0
176,32,109323,2,4,B|232:104|160:176,1,140
88,192,109994,5,0
88,192,110128,1,4
144,264,110397,1,0
144,264,110531,1,4
232,232,110799,1,0
232,232,110934,1,4
240,136,111202,1,0
240,136,111336,6,0,B|296:120|328:168,1,93.3333333333333,4|0
264,88,111739,2,0,B|312:56|360:104,1,93.3333333333333,4|0
288,32,112142,2,4,B|368:0|440:88,1,140
288,224,112813,5,0
288,224,112947,2,0,B|184:232,1,93.3333333333333,4|0
104,304,113350,2,0,B|104:200,1,93.3333333333333,4|0
192,128,113752,2,0,B|200:280,1,140,4|4
199,267,114558,5,4
288,256,114826,1,0
288,256,114961,1,8
384,240,115229,1,4
384,240,115375,2,0,B|416:160|344:104,1,140,0|8
344,104,116174,6,0,B|240:112,1,93.3333333333333,4|0
128,208,116574,2,0,B|120:96,1,93.3333333333333,12|8
224,208,116974,2,0,B|288:264|240:344,1,140,4|12
384,256,117774,6,0,B|392:360,1,93.3333333333333,4|0
320,112,118174,2,0,B|320:16,1,93.3333333333333,12|8
232,264,118574,2,0,B|232:368,1,93.3333333333333,4|0
96,184,118974,2,0,B|88:16,1,140,12|4
40,120,119641,5,0
40,120,119774,1,12
136,128,120041,1,8
136,128,120174,1,4
232,136,120441,1,4
232,136,120574,1,8
416,112,120974,5,4
256,280,121241,2,0,B|248:208,1,46.6666666666667,8|4
80,112,121641,2,0,B|88:184,1,46.6666666666667,12|0
96,248,122041,1,4
96,248,122174,6,0,B|248:240,1,140,12|4
232,80,122841,1,8
232,80,122974,2,0,B|360:72,1,93.3333333333333,12|8
72,104,123374,2,0,B|16:184|96:248,1,140,4|12
352,208,124041,6,0,B|352:272,1,46.6666666666667,0|4
200,288,124441,2,0,B|160:232,1,46.6666666666667,0|12
256,72,124841,2,0,B|248:152,1,46.6666666666667,8|4
72,80,125641,6,0,B|128:72,1,46.6666666666667,0|4
440,80,126041,2,0,B|384:72,1,46.6666666666667,0|12
256,160,126441,2,0,B|256:104,1,46.6666666666667,8|8
256,240,126841,5,8
256,240,126974,1,8
176,288,127241,1,8
176,288,127374,1,4
96,240,127641,1,4
96,240,127774,1,4
176,192,128041,1,4
176,192,128174,5,4
168,56,128574,2,0,B|336:48,2,140,2|0|2
72,160,129774,2,0,B|16:232|96:304,1,140,2|0
216,272,130574,6,0,B|208:168,1,93.3333333333333,2|2
64,160,130974,2,0,B|24:208|56:272,1,93.3333333333333
224,272,131374,2,0,B|208:104,1,140,2|0
392,96,132041,5,2
392,96,132174,1,0
376,184,132441,1,2
376,184,132574,1,0
464,200,132841,1,2
464,200,132974,1,2
288,168,133374,1,0
72,144,133641,5,2
72,144,133774,2,0,B|64:248,1,93.3333333333333
144,312,134174,2,0,B|144:184,1,93.3333333333333,2|2
144,24,134574,6,0,B|224:80|136:152,2,140,0|2|0
360,32,135641,1,0
360,32,135774,1,2
352,208,136041,1,0
352,208,136174,6,0,B|200:200,1,140,2|0
120,328,136974,6,0,B|128:200,1,93.3333333333333,2|2
208,336,137374,2,0,B|216:240,1,93.3333333333333,0|2
296,344,137774,2,0,B|304:168,1,140,2|0
296,192,138441,5,2
296,192,138574,2,0,B|193:187,1,93.3333333333333
384,168,138975,2,0,B|480:160,1,93.3333333333333,2|2
312,112,139375,2,0,B|144:96,1,140,4|0
80,96,140041,5,0
80,96,140175,1,0
72,192,140441,1,0
72,192,140575,1,0
72,192,140708,1,0
72,192,140841,1,0
72,192,140975,5,4
432,88,153775,6,8,B|272:80,1,140
424,184,154575,2,8,B|272:176,1,140
424,280,155375,2,8,B|272:272,1,140,8|0
64,264,156175,6,0,B|72:152,1,93.3333333333333,8|8
144,128,156575,2,0,B|144:224,1,93.3333333333333,0|0
216,264,156975,2,0,B|224:96,1,140,8|0
448,120,157775,6,0,B|440:232,1,93.3333333333333,8|8
368,256,158175,2,0,B|368:160,1,93.3333333333333,0|0
296,120,158575,2,0,B|288:288,1,140,8|0
289,259,159241,5,0
289,259,159375,1,8
289,259,159775,1,8
160,304,160175,6,8,B|152:144,1,140
240,56,160975,2,8,B|240:208,1,140
320,296,161775,2,0,B|336:120,1,140,8|0
440,64,162575,5,8
272,56,162841,1,8
272,56,162975,1,0
96,48,163241,1,8
96,48,163375,1,8
88,224,163641,5,0
88,224,163775,1,0
184,232,164041,1,0
184,232,164175,1,8
280,240,164441,1,8
280,240,164575,1,0
376,248,164841,1,8
376,248,164975,1,8
88,224,166175,5,2
184,232,166308,1,2
280,240,166441,1,2
376,248,166575,6,0,B|384:144,1,93.3333333333333,8|0
280,240,166975,2,0,B|288:128,1,93.3333333333333,10|0
184,232,167375,2,0,B|192:120,1,93.3333333333333,8|0
88,224,167775,2,0,B|96:128,1,93.3333333333333,10|0
376,248,168175,2,0,B|384:80,1,140,10|0
64,336,168975,6,0,B|176:328,1,93.3333333333333,10|2
328,152,169375,2,0,B|216:160,1,93.3333333333333,8|2
64,336,169775,2,0,B|208:336,1,140,10|0
448,48,170575,6,0,B|336:56,1,93.3333333333333,10|2
136,200,170975,2,0,B|248:192,1,93.3333333333333,8|2
448,48,171375,2,0,B|304:48,1,140,10|0
304,312,172041,5,0
304,312,172175,1,0
304,312,172308,1,0
304,312,172441,1,0
304,312,172575,1,0
96,56,172975,5,8
376,40,173375,1,10
400,320,173775,1,8
120,344,174175,1,10
96,56,174575,2,0,B|112:224,1,140,10|0
472,192,175375,6,0,B|368:192,1,93.3333333333333,10|2
40,184,175775,2,0,B|144:184,1,93.3333333333333,8|2
472,176,176175,2,0,B|288:176,1,140,10|0
40,192,176975,6,0,B|144:192,1,93.3333333333333,10|2
472,184,177375,2,0,B|368:184,1,93.3333333333333,8|2
40,176,177775,2,0,B|224:176,1,140,10|0
256,80,178575,5,0
256,192,178841,1,0
256,192,178975,1,0
256,304,179241,1,0
256,304,179370,5,4
144,312,179636,1,0
144,312,179770,2,0,B|88:248|144:160,1,140,8|2
232,144,180436,1,0
232,144,180570,2,0,B|224:248,1,93.3333333333333,10|0
256,280,180970,2,0,B|328:264|376:280,1,93.3333333333333,2|0
348,273,181370,1,8
360,80,181636,1,0
360,80,181770,6,0,B|248:72,1,93.3333333333333
80,96,182170,2,0,B|72:208,1,93.3333333333333,8|0
136,352,182570,2,0,B|144:240,1,93.3333333333333
224,80,182970,2,0,B|280:112|224:184,1,93.3333333333333,8|0
424,200,183370,6,0,B|416:80,1,93.3333333333333,2|0
312,224,183770,2,0,B|272:264|216:216,1,93.3333333333333,10|8
168,160,184170,2,0,B|152:280,1,93.3333333333333,2|8
91,188,184570,1,8
240,344,184970,6,0,B|232:216,1,93.3333333333333,0|8
224,72,185370,2,0,B|216:184,1,93.3333333333333,8|8
352,208,185770,2,0,B|344:104,1,93.3333333333333
216,32,186170,2,0,B|176:8|128:40,1,93.3333333333333,8|0
112,192,186570,6,0,B|120:288,1,93.3333333333333,0|8
232,168,186970,2,0,B|240:272,1,93.3333333333333,8|8
352,152,187370,2,0,B|360:272,1,93.3333333333333,0|0
480,128,187770,2,0,B|488:240,1,93.3333333333333,8|0
296,336,188170,6,0,B|256:296|288:216,1,93.3333333333333,0|2
200,248,188570,2,0,B|200:144,1,93.3333333333333,2|2
384,64,189236,5,2
384,64,189370,2,0,B|392:160,1,93.3333333333333,2|2
232,336,190036,1,2
232,336,190170,1,2
128,344,190436,1,2
128,344,190570,6,0,B|120:184,1,140
256,104,191370,6,0,B|248:48,2,46.6666666666667
256,232,191770,2,0,B|272:296,2,46.6666666666667
256,168,192170,1,0
