osu file format v9

[General]
AudioFilename: Mania - Welcome to the Club (Lyrics).mp3
AudioLeadIn: 0
PreviewTime: 28055
Countdown: 1
SampleSet: Soft
StackLeniency: 0.7
Mode: 0
LetterboxInBreaks: 1

[Editor]
DistanceSpacing: 1
BeatDivisor: 3
GridSize: 8

[Metadata]
Title:Welcome To The Club
Artist:DJ Manian
Creator:tieff
Version:Easy
Source:
Tags:Natteke

[Difficulty]
HPDrainRate:0
CircleSize:3
OverallDifficulty:4
ApproachRate:4
SliderMultiplier:0.7
SliderTickRate:1

[Events]
//Background and Video events
0,0,"rainbow_wallpaper_by_xxtomekxx (2).jpg"
//Break Periods
2,54757,66024
2,80331,86803
//Storyboard Layer 0 (Background)
//Storyboard Layer 1 (Fail)
//Storyboard Layer 2 (Pass)
//Storyboard Layer 3 (Foreground)
//Storyboard Sound Samples
//Background Colour Transformations
3,100,163,162,255

[TimingPoints]
182,400,4,2,1,70,1,0
28983,399.6003996004,4,2,1,100,1,0
67344,-100,4,1,1,100,0,0
88002,-100,4,2,1,100,0,0
107310,402.684563758389,4,2,1,100,1,0
115375,400,4,2,1,100,1,0
128158,-100,4,1,1,70,0,0

[Colours]
Combo1 : 7,150,205
Combo2 : 255,255,255
Combo3 : 185,236,253
Combo4 : 67,210,252

[HitObjects]
368,176,16182,2,4,B|416:104|344:40,1,140
288,40,17382,1,2
224,56,17782,2,4,B|176:128|248:192,1,140
304,200,18982,1,2
376,192,19382,1,6
120,328,20981,6,4,B|144:240|104:184,1,140,4|4
80,56,22581,1,4
152,48,22981,6,4,B|232:40,1,70
288,32,23781,2,4,B|296:112,1,70
304,168,24581,2,4,B|224:176,1,70
168,184,25381,2,4,B|160:104,1,70
152,48,26181,6,4,B|80:56,2,70
224,64,27381,2,4,B|296:56,1,70
360,48,28181,1,4
368,120,28581,1,4
376,192,28983,6,0,B|384:280,1,70,4|8
328,224,29782,2,0,B|320:304,1,70,4|8
264,256,30581,2,0,B|248:344,1,70,4|8
184,312,31380,5,4
160,248,31780,1,8
168,176,32179,1,4
208,120,32579,1,8
280,112,32979,5,4
336,152,33378,1,8
360,216,33778,1,4
352,288,34177,1,8
144,264,35376,6,0,B|136:176,1,70,4|8
192,232,36175,2,0,B|200:152,1,70,4|8
256,200,36975,2,0,B|272:112,1,70,4|8
336,144,37774,5,4
360,208,38173,1,12
352,280,38573,1,4
216,296,39372,5,4
176,232,39772,1,12
184,160,40171,1,4
296,80,40971,1,4
296,80,41370,1,2
296,80,41770,6,0,B|368:112|376:216|296:256,1,210,4|12
240,256,43368,6,0,B|168:224|160:120|240:80,1,210,4|12
296,80,44967,6,0,B|304:160,1,70,4|14
248,200,45766,2,0,B|216:200|176:240,2,70,4|14|4
320,200,46965,2,0,B|400:208,1,70,14|4
424,72,48163,6,0,B|496:104|504:208|424:248,1,210,4|12
368,248,49762,6,0,B|296:216|288:112|368:72,1,210,4|12
424,64,51360,1,4
400,200,52159,5,4
336,224,52559,1,12
272,192,52959,1,4
208,224,53358,2,0,B|136:224,1,70,8|4
88,272,54157,1,12
32,304,54557,1,4
136,128,67344,6,0,B|48:136,2,70,0|2|0
200,160,68543,1,2
272,152,68943,1,2
408,136,69742,6,0,B|408:104|392:56,2,70,2|2|2
280,184,71340,6,0,B|280:216|296:264,2,70,2|2|2
96,320,73738,5,0
88,248,74137,1,2
136,192,74537,1,0
192,232,74937,1,2
144,288,75336,2,0,B|296:296,1,140,2|2
352,296,76535,1,2
424,296,76935,2,0,B|464:216|400:152,1,140,2|2
344,168,78133,1,2
272,176,78533,1,2
144,192,80131,5,4
240,80,88123,6,4,B|168:32|104:104,1,140
104,160,89322,1,2
120,224,89722,2,4,B|192:272|256:200,1,140
264,144,90921,1,2
256,72,91320,1,6
392,56,92119,6,0,B|464:48,2,70,4|4|4
328,80,93318,2,4,B|288:160|360:216,1,140,6|6
416,232,94517,5,4
280,240,95316,1,4
272,104,96115,1,4
408,96,96915,1,4
328,216,97714,6,4,B|336:304,2,70
256,208,98913,2,4,B|248:136,1,70
192,176,99712,2,4,B|184:88,1,70
128,144,100511,2,4,B|120:64,1,70,4|0
264,56,101710,5,2
264,56,102109,1,2
264,56,102509,6,0,B|256:128,1,70,4|4
328,136,103308,2,4,B|400:144,1,70,4|4
392,216,104107,2,4,B|384:288,1,70
248,272,105306,5,6
176,264,105706,1,4
184,192,106105,1,6
200,56,106905,5,6
272,64,107310,1,4
344,72,107712,2,0,B|392:152|312:208,1,140,6|6
256,184,108920,6,4,B|200:144|120:168,2,140,4|6|4
384,240,111336,1,4
312,232,111739,1,4
240,224,112142,2,4,B|176:176|96:224,1,140
80,280,113350,1,4
120,336,113752,1,4
96,80,115375,5,4
152,128,115774,1,12
208,88,116174,1,4
248,144,116574,1,8
304,96,116974,2,4,B|376:104,1,70,4|12
360,240,118174,1,12
288,240,118574,6,0,B|280:320,1,70,4|12
144,304,119774,2,0,B|72:296,2,70,12|4|12
160,168,121374,1,12
168,96,121774,5,4
216,48,122174,2,0,B|296:24|360:72,1,140,12|12
376,128,123374,1,4
328,176,123774,2,0,B|264:216|192:160,1,140,12|12
152,112,124974,5,4
144,248,125774,1,4
280,256,126574,1,0
288,184,126974,2,0,B|296:104,1,70,8|12
224,104,127774,2,12,B|136:96,1,70,12|4
88,104,128574,6,0,B|80:184,1,70,2|0
72,240,129374,1,2
64,312,129774,1,2
200,328,130574,6,0,B|288:336,2,70,2|2|2
200,184,132174,2,0,B|128:176,2,70,2|2|2
336,200,133774,2,0,B|392:128|328:64,1,140
272,56,134974,5,2
200,40,135374,1,0
128,48,135774,1,2
72,88,136174,1,2
64,224,136974,2,0,B|56:304,2,70,2|2|2
208,224,138574,2,0,B|216:144,1,70
256,192,139375,12,4,140975
