osu file format v9

[General]
AudioFilename: Manian - Loco (Radio Edit).mp3
AudioLeadIn: 0
PreviewTime: 37968
Countdown: 0
SampleSet: Normal
StackLeniency: 0.7
Mode: 0
LetterboxInBreaks: 1

[Editor]
DistanceSpacing: 0.8
BeatDivisor: 1
GridSize: 4

[Metadata]
Title:Loco
Artist:DJ Manian
Creator:-Bakari-
Version:Normal
Source:
Tags:Black_Cherry_Ita BCI dancecore rave cascada DHX studios jumpstyle Josh Hill

[Difficulty]
HPDrainRate:4
CircleSize:4
OverallDifficulty:4
ApproachRate:5
SliderMultiplier:1.2
SliderTickRate:1

[Events]
//Background and Video events
0,0,"wallpaper-1695013.jpg"
//Break Periods
2,76098,87321
//Storyboard Layer 0 (Background)
//Storyboard Layer 1 (Fail)
//Storyboard Layer 2 (Pass)
//Storyboard Layer 3 (Foreground)
//Storyboard Sound Samples
//Background Colour Transformations
3,100,163,162,255

[TimingPoints]
12740,394.736842105263,4,1,0,25,1,0
25372,-100,4,1,0,30,0,0
38003,-100,4,1,0,45,0,1
47477,-100,4,1,0,55,0,0
50635,-100,4,1,0,50,0,1
63266,-100,4,1,0,35,0,0
74319,-100,4,1,0,25,0,0
101161,-100,4,1,0,35,0,1
110635,-100,4,1,0,30,0,0
126424,-100,4,1,0,30,0,1
137477,-100,4,1,0,15,0,0

[Colours]
Combo1 : 255,36,146
Combo2 : 235,235,67
Combo3 : 50,250,145
Combo4 : 0,215,253
Combo5 : 57,2,204
Combo6 : 228,126,254

[HitObjects]
120,284,12740,1,4
140,192,13135,2,0,B|144:156|164:128|196:104|236:108,1,120,8|0
236,204,13924,1,8
316,260,14319,2,0,B|436:288,2,120,4|8|0
344,168,15503,6,0,B|384:108|348:48|280:4|216:44,1,240,8|8
168,120,16687,1,0
264,124,17082,1,8
212,204,17477,1,4
144,272,17872,2,0,B|108:336|24:320,2,120,8|0|8
240,280,19056,6,0,B|304:256|372:292,1,120,4|8
452,300,19845,2,0,B|436:164,1,120,0|8
384,100,20635,1,4
352,192,21030,1,8
272,136,21424,2,0,B|216:112|148:132,1,120,0|8
256,192,22214,12,0,24582
104,312,25372,6,0,B|172:288|184:212,1,120,4|8
84,216,26161,2,0,B|64:92,1,120,0|8
160,100,26951,2,0,B|224:88|260:32,2,120,4|8|0
184,192,28135,5,8
252,260,28530,1,4
336,216,28924,1,8
324,120,29319,1,0
228,108,29714,1,8
256,192,30109,12,0,32477
188,272,32872,5,8
104,224,33266,2,0,B|148:168|140:104,1,120,4|8
224,64,34056,2,0,B|271:48|334:62|364:112|372:174|334:215,1,240,0|4
260,156,35240,5,8
268,252,35635,1,0
356,288,36030,1,8
436,236,36424,1,4
464,144,36819,2,0,B|500:16,1,120,8|0
400,36,37608,1,8
400,36,38003,5,4
308,56,38398,1,8
252,136,38793,1,0
172,188,39187,2,0,B|120:152|40:172,2,120,8|4|8
264,220,40372,1,0
284,312,40766,1,8
376,284,41161,6,0,B|404:344|476:352,1,120,4|8
468,252,41951,1,0
392,196,42345,1,8
476,148,42740,2,0,B|464:124|444:104|408:92|372:100,1,120,4|8
296,156,43530,1,0
256,244,43924,1,8
212,328,44319,6,0,B|92:328,2,120,4|8|0
256,244,45503,1,8
300,328,45898,2,0,B|420:328,1,120,4|8
472,248,46687,2,0,B|416:208|436:136,1,120,0|8
360,80,47477,5,4
280,132,47872,1,8
200,184,48266,1,0
116,228,48661,1,8
20,220,49056,2,0,B|20:192|40:160|68:136|96:132,2,120,4|8|0
60,308,50240,1,8
156,320,50635,6,0,B|188:256|248:244,1,120,4|8
336,268,51424,2,0,B|344:136,2,120,0|8|4
376,356,52608,1,8
440,284,53003,1,0
448,188,53398,1,8
376,124,53793,6,0,B|308:92|312:24,1,120,4|8
232,84,54582,1,0
152,140,54977,2,0,B|124:200|64:216,1,120,8|4
132,284,55766,1,8
212,336,56161,2,0,B|264:308|332:316,1,120,0|8
424,316,56951,5,4
368,240,57345,1,8
464,228,57740,2,0,B|420:176|436:116,2,120,0|8|4
424,316,58924,5,8
328,332,59319,1,0
288,244,59714,1,8
196,276,60108,2,0,B|140:240|148:168,1,120,4|8
80,104,60898,1,0
256,192,61293,12,0,62872
368,328,63266,6,0,B|404:300|396:240|356:208,1,120,4|8
344,128,64056,2,0,B|404:100|416:32,2,120,0|8|4
260,172,65240,1,8
164,168,65635,1,0
88,224,66030,1,8
140,304,66424,6,0,B|208:284|264:324,1,120,4|8
348,300,67214,2,0,B|416:296|440:232,2,120,0|8|4
348,204,68398,1,8
276,140,68793,1,0
204,204,69187,1,8
108,216,69582,6,0,B|68:224|36:260|36:300,1,120,4|8
132,312,70372,2,0,B|252:348,2,120,0|8|4
36,300,71556,1,8
0,204,71951,1,0
68,136,72345,1,8
156,176,72740,6,0,B|176:136|160:84|136:64,1,120,4|8
232,56,73530,1,0
292,132,73924,1,8
240,212,74319,6,0,B|324:304,1,120,4|8
364,216,75108,2,0,B|448:304,1,120,0|8
486,214,75898,1,4
280,136,88530,5,4
332,56,88924,1,8
388,136,89319,1,0
336,216,89714,1,8
388,296,90108,2,0,B|500:356,2,120,4|8|0
308,348,91293,1,8
212,336,91687,6,0,B|172:292|100:288,1,120,4|8
28,348,92477,2,0,B|0:228,2,120,0|8|4
124,332,93661,1,8
160,244,94056,1,0
128,152,94451,1,8
200,92,94845,6,0,B|268:112|316:64,1,120,4|8
396,24,95635,1,0
440,112,96030,1,8
352,152,96424,1,4
408,232,96819,2,0,B|416:304|488:328,2,120,8|0|8
256,192,98003,12,0,100766
140,296,101161,5,4
84,220,101556,1,8
164,168,101951,2,0,B|212:128|204:60,2,120,0|8|4
260,172,103135,1,8
348,208,103530,2,0,B|480:168,1,120,0|8
428,84,104319,5,4
332,76,104714,2,0,B|268:100|208:56,1,120,8|0
140,120,105503,1,8
64,180,105898,1,4
136,244,106293,1,8
196,316,106687,2,0,B|265:323|309:287,1,120,0|8
392,336,107477,6,0,B|384:272|432:212,1,120,4|8
332,196,108266,1,0
236,200,108661,1,8
200,112,109056,1,4
264,40,109451,1,8
360,36,109845,2,0,B|424:64|480:44,1,120,0|8
428,128,110635,5,4
360,192,111030,2,0,B|248:256,2,120,8|0|8
316,120,112214,1,4
220,108,112609,1,8
124,104,113003,2,0,B|56:92|16:40,1,120,0|8
32,144,113793,6,0,B|48:280,1,120,4|8
136,292,114582,1,0
204,228,114977,1,8
272,296,115372,2,0,B|328:280|392:296,1,120,4|8
464,232,116161,2,0,B|436:172|472:112,1,120,0|8
380,76,116951,5,4
308,136,117345,1,8
236,196,117740,1,0
168,264,118135,1,8
232,336,118530,2,0,B|296:316|360:340,1,120,4|8
440,304,119319,1,0
460,212,119714,1,8
436,120,120109,6,0,B|368:96|340:32,1,120,4|8
260,84,120898,2,0,B|136:104,1,120,0|8
60,48,121687,1,4
52,144,122082,2,0,B|72:208|40:268,1,120,8|0
92,344,122872,1,8
148,264,123266,2,0,B|200:304|188:372,2,120,4|8|0
256,192,124451,12,0,126030
140,160,126424,6,0,B|132:224|176:272,1,120,4|8
232,348,127214,2,0,B|164:336|116:368,1,120,0|8
40,308,128003,1,4
44,212,128398,1,8
16,120,128793,1,0
80,48,129187,1,8
156,108,129582,6,0,B|220:128|284:104,1,120,4|8
364,76,130372,2,0,B|484:116,1,120,0|8
416,192,131161,1,4
328,228,131556,1,8
392,300,131951,1,0
296,316,132345,1,8
200,324,132740,6,0,B|168:268|92:264,1,120,4|8
124,172,133530,2,0,B|208:72,1,120,0|8
256,160,134319,1,4
320,88,134714,2,0,B|392:84|416:28,1,120,8|0
428,124,135503,1,8
488,200,135898,6,0,B|416:184|372:224,1,120,4|8
300,284,136687,1,0
224,224,137082,1,8
136,264,137477,1,4
