osu file format v14

[General]
AudioFilename: Dj Kordel - Walker.mp3
AudioLeadIn: 0
PreviewTime: -1
Countdown: 1
SampleSet: None
StackLeniency: 0.7
Mode: 0
LetterboxInBreaks: 1
WidescreenStoryboard: 0

[Editor]
DistanceSpacing: 1
BeatDivisor: 4
GridSize: 8
TimelineZoom: 1

[Metadata]
Title:Walker
TitleUnicode:Walker
Artist:DJ Kordel
ArtistUnicode:DJ Kordel
Creator:ponarowskyy
Version:JADOM JADOM JADOM
Source:
Tags:najlepszy dj w polszy
BeatmapID:877659
BeatmapSetID:403628

[Difficulty]
HPDrainRate:6
CircleSize:4
OverallDifficulty:6
ApproachRate:9.3
SliderMultiplier:3
SliderTickRate:1

[Events]
//Background and Video events
//Break Periods
//Storyboard Layer 0 (Background)
//Storyboard Layer 1 (Fail)
//Storyboard Layer 2 (Pass)
//Storyboard Layer 3 (Foreground)
//Storyboard Sound Samples

[TimingPoints]
0,431.654676258993,4,2,0,100,1,0

[HitObjects]
80,64,1402,5,2,0:0:0:0:
416,176,1834,1,2,0:0:0:0:
80,64,2266,1,2,0:0:0:0:
120,64,3237,6,2,L|304:96,1,150
120,160,3776,6,2,L|304:192,1,150
160,256,4208,6,2,L|344:288,1,150
504,64,4640,6,2,L|304:96,1,150
240,128,5071,5,2,0:0:0:0:
240,128,5395,1,2,0:0:0:0:
240,128,5755,1,2,0:0:0:0:
256,192,6043,12,2,6474,0:0:0:0:
256,192,6474,12,2,6906,0:0:0:0:
176,152,7625,5,2,0:0:0:0:
224,136,7697,1,2,0:0:0:0:
272,128,7769,1,2,0:0:0:0:
320,128,7841,1,2,0:0:0:0:
208,224,8057,5,2,0:0:0:0:
256,208,8129,1,2,0:0:0:0:
304,200,8201,1,2,0:0:0:0:
352,200,8273,1,2,0:0:0:0:
192,320,8561,5,2,0:0:0:0:
240,304,8633,1,2,0:0:0:0:
288,296,8705,1,2,0:0:0:0:
336,296,8777,1,2,0:0:0:0:
448,64,9136,5,2,0:0:0:0:
96,240,9352,1,2,0:0:0:0:
480,200,9712,1,2,0:0:0:0:
264,40,9928,1,2,0:0:0:0:
256,320,10287,1,2,0:0:0:0:
112,88,10503,1,2,0:0:0:0:
64,160,10863,2,2,P|168:144|256:168,1,150
16,272,11366,6,2,P|120:256|128:256,1,100
136,184,11654,6,2,B|216:264|216:264|256:232|296:192|280:200|272:216|232:248|168:296|136:328|128:336|200:272|192:280|232:256|264:296|288:352,1,450
360,208,12374,2,2,B|376:360|376:352|496:320|512:312|496:272|488:192|480:176|424:176|376:200,1,400
144,88,13273,2,2,L|144:176,1,75
240,88,13489,2,2,L|232:176,1,75
128,216,13920,6,2,L|112:304,1,75
256,240,14136,6,2,L|233:323,1,75
336,88,14460,6,2,L|352:176,1,75
448,104,14676,6,2,B|392:288|448:328|448:328|448:296,1,225
64,80,15107,5,2,0:0:0:0:
80,96,15323,1,2,0:0:0:0:
256,168,15539,5,2,0:0:0:0:
272,184,15647,1,2,0:0:0:0:
208,80,16079,2,2,P|160:168|144:176,1,75
296,144,16294,2,2,P|248:224|224:232,1,75
384,184,16510,2,2,P|336:264|312:272,1,75
144,200,16726,2,2,P|96:288|80:296,1,75
232,264,16941,2,2,P|184:344|160:352,1,75
320,304,17157,2,2,P|272:384|248:392,1,75
384,184,17374,2,2,P|336:264|312:272,1,75
384,184,17589,5,2,0:0:0:0:
384,112,17697,1,2,0:0:0:0:
376,256,17913,1,2,0:0:0:0:
