osu file format v14

[General]
AudioFilename: DJ Ittodake vs MangerFist - Railgun.mp3
AudioLeadIn: 0
PreviewTime: -1
Countdown: 0
SampleSet: Soft
StackLeniency: 0.7
Mode: 0
LetterboxInBreaks: 1
WidescreenStoryboard: 0

[Editor]
DistanceSpacing: 1.2
BeatDivisor: 4
GridSize: 8
TimelineZoom: 1.999999

[Metadata]
Title:Railgun
TitleUnicode:Railgun
Artist:DJ Ittodake vs MangerFist
ArtistUnicode:DJ 一戸建 vs MangerFist
Creator:Touchette
Version:Ba Dum Tss
Source:Notebook Records - Small Preteen Spirit
Tags:kek
BeatmapID:701050
BeatmapSetID:314105

[Difficulty]
HPDrainRate:6
CircleSize:4
OverallDifficulty:8
ApproachRate:9.3
SliderMultiplier:1.4
SliderTickRate:1

[Events]
//Background and Video events
0,0,"1430449670484.jpg",0,0
//Break Periods
//Storyboard Layer 0 (Background)
//Storyboard Layer 1 (Fail)
//Storyboard Layer 2 (Pass)
//Storyboard Layer 3 (Foreground)
//Storyboard Sound Samples

[TimingPoints]
6339,333.278651685393,4,2,0,100,1,0
70245,-100,4,2,0,100,0,1
91658,-100,4,2,0,100,0,0

[HitObjects]
266,212,6339,5,0,0:0:0:0:
156,297,6505,1,0,0:0:0:0:
117,139,6672,2,0,P|140:180|178:188,1,70
403,317,7005,1,0,0:0:0:0:
430,286,7088,1,0,0:0:0:0:
443,246,7172,1,0,0:0:0:0:
443,205,7255,1,0,0:0:0:0:
419,171,7338,2,0,P|386:146|351:135,1,70
262,276,7672,5,0,0:0:0:0:
355,172,7838,1,0,0:0:0:0:
393,307,8005,1,0,0:0:0:0:
252,189,8172,1,0,0:0:0:0:
411,121,8338,1,0,0:0:0:0:
323,297,8505,1,0,0:0:0:0:
281,103,8671,1,0,0:0:0:0:
465,231,8838,1,0,0:0:0:0:
256,250,9005,5,0,0:0:0:0:
342,50,9171,1,0,0:0:0:0:
466,211,9338,2,0,P|460:251|419:278,1,70
266,51,9671,1,0,0:0:0:0:
239,82,9754,1,0,0:0:0:0:
226,122,9838,1,0,0:0:0:0:
226,163,9921,1,0,0:0:0:0:
250,197,10004,2,0,P|283:222|318:233,1,70
131,111,10338,5,0,0:0:0:0:
178,243,10505,1,0,0:0:0:0:
267,135,10671,1,0,0:0:0:0:
314,267,10838,1,0,0:0:0:0:
421,102,11004,2,0,P|409:134|390:157,1,35
318,321,11254,1,0,0:0:0:0:
470,163,11421,2,0,P|468:189|451:203,1,35
161,251,11671,5,0,0:0:0:0:
252,135,11838,1,0,0:0:0:0:
300,265,12004,1,0,0:0:0:0:
150,138,12171,1,0,0:0:0:0:
350,134,12338,1,0,0:0:0:0:
378,164,12421,1,0,0:0:0:0:
393,202,12504,1,0,0:0:0:0:
384,243,12588,1,0,0:0:0:0:
353,271,12671,1,0,0:0:0:0:
313,283,12754,1,0,0:0:0:0:
277,259,12838,1,0,0:0:0:0:
192,61,13004,5,0,0:0:0:0:
117,187,13171,1,0,0:0:0:0:
255,193,13337,1,0,0:0:0:0:
318,63,13504,1,0,0:0:0:0:
474,214,13671,1,0,0:0:0:0:
434,228,13754,1,0,0:0:0:0:
392,223,13837,1,0,0:0:0:0:
356,199,13921,1,0,0:0:0:0:
322,173,14004,1,0,0:0:0:0:
281,162,14087,1,0,0:0:0:0:
240,174,14171,1,0,0:0:0:0:
81,311,14337,5,0,0:0:0:0:
119,143,14504,1,0,0:0:0:0:
222,291,14671,1,0,0:0:0:0:
35,195,14837,1,0,0:0:0:0:
233,119,15004,1,0,0:0:0:0:
198,148,15087,1,0,0:0:0:0:
176,187,15170,1,0,0:0:0:0:
181,232,15254,1,0,0:0:0:0:
210,266,15337,1,0,0:0:0:0:
255,268,15420,1,0,0:0:0:0:
296,248,15504,1,0,0:0:0:0:
451,109,15670,5,0,0:0:0:0:
294,312,15837,1,0,0:0:0:0:
499,219,16004,1,0,0:0:0:0:
293,158,16170,1,0,0:0:0:0:
460,342,16337,1,0,0:0:0:0:
423,315,16420,1,0,0:0:0:0:
403,273,16504,1,0,0:0:0:0:
428,235,16587,1,0,0:0:0:0:
435,190,16670,1,0,0:0:0:0:
409,151,16754,1,0,0:0:0:0:
369,128,16837,1,0,0:0:0:0:
173,38,17004,5,0,0:0:0:0:
105,260,17170,1,0,0:0:0:0:
276,100,17337,1,0,0:0:0:0:
242,286,17503,1,0,0:0:0:0:
61,192,17670,1,0,0:0:0:0:
101,203,17753,1,0,0:0:0:0:
137,192,17837,1,0,0:0:0:0:
178,183,17920,1,0,0:0:0:0:
219,182,18003,2,0,P|251:208|261:245,1,70
91,305,18337,5,0,0:0:0:0:
238,340,18503,1,0,0:0:0:0:
127,172,18670,1,0,0:0:0:0:
282,198,18837,1,0,0:0:0:0:
158,338,19003,1,0,0:0:0:0:
199,179,19170,1,0,0:0:0:0:
324,85,19336,1,0,0:0:0:0:
483,84,19503,1,0,0:0:0:0:
208,302,19670,5,0,0:0:0:0:
283,101,19836,1,0,0:0:0:0:
123,179,20003,1,0,0:0:0:0:
318,253,20170,1,0,0:0:0:0:
184,61,20336,1,0,0:0:0:0:
217,86,20420,1,0,0:0:0:0:
240,120,20503,1,0,0:0:0:0:
237,161,20586,1,0,0:0:0:0:
220,199,20670,1,0,0:0:0:0:
184,220,20753,1,0,0:0:0:0:
142,212,20836,1,0,0:0:0:0:
268,321,21003,5,0,0:0:0:0:
163,150,21170,1,0,0:0:0:0:
312,195,21336,1,0,0:0:0:0:
134,276,21503,1,0,0:0:0:0:
323,247,21669,1,0,0:0:0:0:
361,229,21753,1,0,0:0:0:0:
385,194,21836,1,0,0:0:0:0:
387,152,21919,1,0,0:0:0:0:
361,118,22003,1,0,0:0:0:0:
321,105,22086,1,0,0:0:0:0:
279,111,22169,1,0,0:0:0:0:
135,276,22336,5,0,0:0:0:0:
290,160,22503,1,0,0:0:0:0:
61,92,22669,2,0,L|135:150,1,70
334,260,23002,1,0,0:0:0:0:
361,229,23085,1,0,0:0:0:0:
374,189,23169,1,0,0:0:0:0:
374,148,23252,1,0,0:0:0:0:
350,114,23335,2,0,P|317:89|282:78,1,70
112,207,23669,5,0,0:0:0:0:
292,98,23836,1,0,0:0:0:0:
234,237,24002,1,0,0:0:0:0:
163,79,24169,1,0,0:0:0:0:
397,71,24336,1,0,0:0:0:0:
417,107,24419,1,0,0:0:0:0:
428,147,24502,1,0,0:0:0:0:
415,187,24586,1,0,0:0:0:0:
387,218,24669,1,0,0:0:0:0:
347,232,24752,1,0,0:0:0:0:
304,228,24836,1,0,0:0:0:0:
126,241,25002,5,0,0:0:0:0:
241,86,25169,1,0,0:0:0:0:
320,282,25335,2,0,L|255:226,1,70
101,91,25669,1,0,0:0:0:0:
129,121,25752,1,0,0:0:0:0:
159,149,25835,1,0,0:0:0:0:
190,177,25919,1,0,0:0:0:0:
221,204,26002,1,0,0:0:0:0:
253,230,26085,1,0,0:0:0:0:
287,254,26169,1,0,0:0:0:0:
448,310,26335,5,0,0:0:0:0:
359,149,26502,1,0,0:0:0:0:
266,300,26669,1,0,0:0:0:0:
360,109,26835,1,0,0:0:0:0:
130,125,27002,5,0,0:0:0:0:
168,141,27085,1,0,0:0:0:0:
185,178,27168,1,0,0:0:0:0:
178,219,27252,1,0,0:0:0:0:
142,241,27335,1,0,0:0:0:0:
100,241,27418,1,0,0:0:0:0:
62,203,27502,1,0,0:0:0:0:
50,152,27585,1,0,0:0:0:0:
56,92,27669,5,0,0:0:0:0:
98,50,27752,1,0,0:0:0:0:
157,47,27835,1,0,0:0:0:0:
266,245,28168,1,0,0:0:0:0:
414,81,28502,1,0,0:0:0:0:
433,279,28835,1,0,0:0:0:0:
292,135,29002,1,0,0:0:0:0:
322,168,29085,1,0,0:0:0:0:
354,199,29168,1,0,0:0:0:0:
212,325,29501,5,0,0:0:0:0:
114,117,29835,1,0,0:0:0:0:
22,323,30168,1,0,0:0:0:0:
212,166,30335,2,0,L|182:204,2,35
354,283,30835,1,0,0:0:0:0:
212,54,31168,1,0,0:0:0:0:
138,273,31501,1,0,0:0:0:0:
354,107,31668,1,0,0:0:0:0:
332,146,31751,1,0,0:0:0:0:
291,167,31834,1,0,0:0:0:0:
132,75,32168,5,0,0:0:0:0:
71,322,32502,1,0,0:0:0:0:
296,206,32834,2,0,L|265:236,1,35
233,256,33001,1,0,0:0:0:0:
188,262,33084,1,0,0:0:0:0:
148,239,33168,1,0,0:0:0:0:
390,309,33501,5,0,0:0:0:0:
280,107,33834,1,0,0:0:0:0:
110,321,34167,1,0,0:0:0:0:
349,177,34334,2,0,L|309:225,2,35
97,113,34834,5,0,0:0:0:0:
250,312,35167,1,0,0:0:0:0:
343,86,35500,1,0,0:0:0:0:
113,241,35667,1,0,0:0:0:0:
141,206,35750,1,0,0:0:0:0:
186,206,35833,1,0,0:0:0:0:
401,220,36166,5,0,0:0:0:0:
184,41,36333,1,0,0:0:0:0:
226,57,36416,1,0,0:0:0:0:
238,101,36500,1,0,0:0:0:0:
150,308,36834,1,0,0:0:0:0:
325,185,37001,1,0,0:0:0:0:
325,230,37084,1,0,0:0:0:0:
288,257,37168,1,0,0:0:0:0:
65,297,37500,5,0,0:0:0:0:
201,71,37833,1,0,0:0:0:0:
421,244,38167,1,0,0:0:0:0:
126,174,38333,2,0,B|179:210,2,35
307,287,38833,5,0,0:0:0:0:
393,45,39167,1,0,0:0:0:0:
112,103,39500,1,0,0:0:0:0:
380,174,39666,1,0,0:0:0:0:
342,201,39750,1,0,0:0:0:0:
301,181,39833,1,0,0:0:0:0:
173,25,40166,5,0,0:0:0:0:
70,276,40500,1,0,0:0:0:0:
304,280,40833,1,0,0:0:0:0:
174,80,41000,1,0,0:0:0:0:
174,125,41083,1,0,0:0:0:0:
172,170,41166,1,0,0:0:0:0:
421,71,41500,5,0,0:0:0:0:
403,293,41833,1,0,0:0:0:0:
193,159,42166,1,0,0:0:0:0:
461,184,42333,1,0,0:0:0:0:
416,194,42416,1,0,0:0:0:0:
372,205,42499,1,0,0:0:0:0:
110,314,42833,5,0,0:0:0:0:
190,85,43166,1,0,0:0:0:0:
349,266,43499,1,0,0:0:0:0:
98,162,43666,2,0,L|138:181,2,35
332,304,44166,5,0,0:0:0:0:
273,77,44499,1,0,0:0:0:0:
125,283,44832,1,0,0:0:0:0:
343,171,44999,1,0,0:0:0:0:
304,194,45082,1,0,0:0:0:0:
264,216,45166,1,0,0:0:0:0:
439,72,45499,5,0,0:0:0:0:
434,305,45832,1,0,0:0:0:0:
229,106,46165,1,0,0:0:0:0:
445,215,46332,1,0,0:0:0:0:
401,202,46415,1,0,0:0:0:0:
358,184,46499,1,0,0:0:0:0:
200,309,46832,5,0,0:0:0:0:
85,144,46999,1,0,0:0:0:0:
116,111,47082,1,0,0:0:0:0:
161,105,47165,1,0,0:0:0:0:
252,292,47499,5,0,0:0:0:0:
246,90,47665,1,0,0:0:0:0:
206,67,47748,1,0,0:0:0:0:
160,67,47832,1,0,0:0:0:0:
110,283,48165,5,0,0:0:0:0:
255,96,48498,1,0,0:0:0:0:
415,287,48832,1,0,0:0:0:0:
279,150,48998,1,0,0:0:0:0:
180,303,49165,1,0,0:0:0:0:
393,85,49332,1,0,0:0:0:0:
181,156,49498,1,0,0:0:0:0:
301,298,49665,5,0,0:0:0:0:
227,76,49831,1,0,0:0:0:0:
122,243,49998,1,0,0:0:0:0:
376,159,50165,1,0,0:0:0:0:
196,303,50331,1,0,0:0:0:0:
303,105,50498,5,0,0:0:0:0:
249,308,50665,1,0,0:0:0:0:
97,155,50831,1,0,0:0:0:0:
359,88,50998,1,0,0:0:0:0:
379,292,51165,1,0,0:0:0:0:
169,309,51331,1,0,0:0:0:0:
152,121,51498,1,0,0:0:0:0:
398,104,51665,5,0,0:0:0:0:
387,144,51748,1,0,0:0:0:0:
351,165,51831,1,0,0:0:0:0:
120,73,51998,1,0,0:0:0:0:
200,297,52164,1,0,0:0:0:0:
234,94,52331,1,0,0:0:0:0:
104,279,52498,1,0,0:0:0:0:
290,101,52664,1,0,0:0:0:0:
181,292,52831,1,0,0:0:0:0:
296,314,52998,5,0,0:0:0:0:
259,293,53081,1,0,0:0:0:0:
249,252,53164,1,0,0:0:0:0:
120,249,53331,1,0,0:0:0:0:
248,68,53497,1,0,0:0:0:0:
270,285,53664,1,0,0:0:0:0:
369,61,53831,1,0,0:0:0:0:
410,277,53997,1,0,0:0:0:0:
200,177,54164,1,0,0:0:0:0:
376,76,54331,1,0,0:0:0:0:
375,121,54414,1,0,0:0:0:0:
348,158,54498,1,0,0:0:0:0:
80,291,54664,5,0,0:0:0:0:
207,84,54831,1,0,0:0:0:0:
303,305,54997,1,0,0:0:0:0:
81,142,55164,1,0,0:0:0:0:
329,175,55330,1,0,0:0:0:0:
181,309,55497,1,0,0:0:0:0:
81,74,55664,1,0,0:0:0:0:
118,99,55747,1,0,0:0:0:0:
158,119,55830,1,0,0:0:0:0:
260,242,55997,5,0,0:0:0:0:
415,70,56164,1,0,0:0:0:0:
455,306,56330,1,0,0:0:0:0:
244,131,56497,1,0,0:0:0:0:
494,197,56664,1,0,0:0:0:0:
336,309,56830,1,0,0:0:0:0:
462,108,56997,1,0,0:0:0:0:
425,129,57080,1,0,0:0:0:0:
383,135,57163,1,0,0:0:0:0:
103,52,57330,5,0,0:0:0:0:
475,132,57497,1,0,0:0:0:0:
138,223,57663,1,0,0:0:0:0:
123,265,57746,1,0,0:0:0:0:
131,310,57830,1,0,0:0:0:0:
454,198,57997,1,0,0:0:0:0:
115,94,58163,1,0,0:0:0:0:
307,281,58330,1,0,0:0:0:0:
344,254,58414,1,0,0:0:0:0:
345,208,58497,1,0,0:0:0:0:
256,32,58663,5,0,0:0:0:0:
144,304,58830,1,0,0:0:0:0:
416,128,58997,1,0,0:0:0:0:
112,128,59163,1,0,0:0:0:0:
384,300,59330,1,0,0:0:0:0:
256,64,59496,1,0,0:0:0:0:
255,328,59663,5,0,0:0:0:0:
152,93,59830,1,0,0:0:0:0:
192,101,59913,1,0,0:0:0:0:
219,132,59996,1,0,0:0:0:0:
333,283,60163,1,0,0:0:0:0:
380,56,60330,1,0,0:0:0:0:
119,278,60496,1,0,0:0:0:0:
121,235,60580,1,0,0:0:0:0:
168,212,60663,1,0,0:0:0:0:
346,75,60830,1,0,0:0:0:0:
264,241,60996,1,0,0:0:0:0:
83,75,61163,5,0,0:0:0:0:
83,116,61246,1,0,0:0:0:0:
115,142,61329,1,0,0:0:0:0:
343,146,61496,1,0,0:0:0:0:
163,320,61663,1,0,0:0:0:0:
273,94,61829,1,0,0:0:0:0:
288,133,61913,1,0,0:0:0:0:
279,173,61996,1,0,0:0:0:0:
70,307,62163,1,0,0:0:0:0:
208,113,62329,1,0,0:0:0:0:
249,339,62496,5,0,0:0:0:0:
273,305,62579,1,0,0:0:0:0:
267,262,62663,1,0,0:0:0:0:
150,87,62829,1,0,0:0:0:0:
398,211,62996,1,0,0:0:0:0:
115,157,63163,1,0,0:0:0:0:
93,192,63246,1,0,0:0:0:0:
108,230,63329,1,0,0:0:0:0:
359,297,63496,1,0,0:0:0:0:
344,95,63662,1,0,0:0:0:0:
180,297,63829,5,0,0:0:0:0:
186,255,63912,1,0,0:0:0:0:
215,224,63996,1,0,0:0:0:0:
367,75,64162,1,0,0:0:0:0:
461,297,64329,1,0,0:0:0:0:
270,288,64496,1,0,0:0:0:0:
461,145,64662,1,0,0:0:0:0:
274,140,64829,1,0,0:0:0:0:
22,62,64996,5,0,0:0:0:0:
37,97,65079,1,0,0:0:0:0:
68,118,65162,1,0,0:0:0:0:
105,127,65246,1,0,0:0:0:0:
143,123,65329,1,0,0:0:0:0:
179,109,65412,1,0,0:0:0:0:
215,97,65495,1,0,0:0:0:0:
253,92,65579,1,0,0:0:0:0:
291,87,65662,5,0,0:0:0:0:
300,124,65745,1,0,0:0:0:0:
271,150,65829,1,0,0:0:0:0:
233,144,65912,1,0,0:0:0:0:
218,108,65995,1,0,0:0:0:0:
229,70,66079,1,0,0:0:0:0:
262,51,66162,1,0,0:0:0:0:
300,48,66245,1,0,0:0:0:0:
338,49,66329,5,0,0:0:0:0:
325,85,66412,1,0,0:0:0:0:
318,122,66495,1,0,0:0:0:0:
332,158,66579,1,0,0:0:0:0:
352,190,66662,1,0,0:0:0:0:
380,215,66745,1,0,0:0:0:0:
414,232,66829,1,0,0:0:0:0:
452,234,66912,1,0,0:0:0:0:
490,230,66995,5,0,0:0:0:0:
505,194,67079,1,0,0:0:0:0:
490,158,67162,1,0,0:0:0:0:
458,136,67245,1,0,0:0:0:0:
419,137,67328,1,0,0:0:0:0:
381,148,67412,1,0,0:0:0:0:
361,180,67495,1,0,0:0:0:0:
366,217,67578,1,0,0:0:0:0:
339,258,67662,5,0,0:0:0:0:
308,296,67745,1,0,0:0:0:0:
263,316,67828,1,0,0:0:0:0:
213,310,67912,1,0,0:0:0:0:
169,287,67995,1,0,0:0:0:0:
143,245,68078,1,0,0:0:0:0:
157,197,68162,1,0,0:0:0:0:
202,179,68245,1,0,0:0:0:0:
233,141,68328,5,0,0:0:0:0:
202,102,68412,1,0,0:0:0:0:
156,119,68495,1,0,0:0:0:0:
155,167,68578,1,0,0:0:0:0:
181,208,68662,1,0,0:0:0:0:
229,199,68745,1,0,0:0:0:0:
271,175,68828,1,0,0:0:0:0:
282,126,68912,1,0,0:0:0:0:
320,95,68995,5,0,0:0:0:0:
362,69,69079,1,0,0:0:0:0:
400,98,69162,1,0,0:0:0:0:
431,131,69495,5,0,0:0:0:0:
456,166,69828,1,0,0:0:0:0:
486,203,70161,1,0,0:0:0:0:
344,319,70328,5,0,0:0:0:0:
292,311,70411,1,0,0:0:0:0:
258,272,70495,1,0,0:0:0:0:
421,87,70661,1,0,0:0:0:0:
327,337,70828,1,0,0:0:0:0:
203,141,70995,1,0,0:0:0:0:
419,192,71161,1,0,0:0:0:0:
369,172,71245,1,0,0:0:0:0:
323,197,71328,1,0,0:0:0:0:
192,310,71494,1,0,0:0:0:0:
433,72,71661,5,0,0:0:0:0:
439,123,71744,1,0,0:0:0:0:
402,161,71828,1,0,0:0:0:0:
172,79,71994,1,0,0:0:0:0:
401,328,72161,1,0,0:0:0:0:
77,215,72328,1,0,0:0:0:0:
312,66,72494,1,0,0:0:0:0:
319,118,72578,1,0,0:0:0:0:
282,155,72661,1,0,0:0:0:0:
76,60,72828,1,0,0:0:0:0:
275,314,72994,6,0,L|247:288,2,35
110,124,73328,1,0,0:0:0:0:
384,249,73494,1,0,0:0:0:0:
94,304,73661,1,0,0:0:0:0:
256,80,73827,2,0,L|226:117,2,35
73,249,74161,1,0,0:0:0:0:
363,90,74327,5,0,0:0:0:0:
365,142,74411,1,0,0:0:0:0:
327,178,74494,1,0,0:0:0:0:
148,197,74661,1,0,0:0:0:0:
351,302,74827,1,0,0:0:0:0:
200,46,74994,1,0,0:0:0:0:
128,318,75161,1,0,0:0:0:0:
165,281,75244,1,0,0:0:0:0:
161,228,75327,1,0,0:0:0:0:
31,74,75494,1,0,0:0:0:0:
299,93,75660,5,0,0:0:0:0:
291,145,75744,1,0,0:0:0:0:
282,196,75827,1,0,0:0:0:0:
248,322,75994,1,0,0:0:0:0:
111,101,76160,1,0,0:0:0:0:
441,184,76327,1,0,0:0:0:0:
213,190,76494,1,0,0:0:0:0:
226,139,76577,1,0,0:0:0:0:
234,87,76660,1,0,0:0:0:0:
166,347,76827,1,0,0:0:0:0:
56,80,76994,5,0,0:0:0:0:
64,131,77077,1,0,0:0:0:0:
104,164,77160,1,0,0:0:0:0:
384,307,77327,2,0,L|309:250,1,70
165,107,77660,1,0,0:0:0:0:
395,67,77827,1,0,0:0:0:0:
370,113,77910,1,0,0:0:0:0:
317,115,77993,1,0,0:0:0:0:
119,41,78160,1,0,0:0:0:0:
57,232,78327,5,0,0:0:0:0:
100,260,78410,1,0,0:0:0:0:
147,237,78493,1,0,0:0:0:0:
257,56,78660,1,0,0:0:0:0:
257,56,78827,1,0,0:0:0:0:
411,239,78994,1,0,0:0:0:0:
360,261,79077,1,0,0:0:0:0:
316,225,79160,1,0,0:0:0:0:
195,17,79327,1,0,0:0:0:0:
195,17,79493,1,0,0:0:0:0:
82,314,79660,1,0,0:0:0:0:
138,333,79743,1,0,0:0:0:0:
182,293,79826,1,0,0:0:0:0:
297,2,79993,1,0,0:0:0:0:
297,7,80160,1,0,0:0:0:0:
237,312,80326,5,0,0:0:0:0:
128,172,80493,1,0,0:0:0:0:
363,329,80659,1,0,0:0:0:0:
158,31,80826,1,0,0:0:0:0:
406,89,80993,2,0,L|358:115,2,35
155,256,81326,1,0,0:0:0:0:
260,83,81493,1,0,0:0:0:0:
405,260,81659,1,0,0:0:0:0:
106,104,81826,2,0,L|160:133,2,35
341,201,82159,1,0,0:0:0:0:
152,331,82326,5,0,0:0:0:0:
152,331,82409,1,0,0:0:0:0:
152,331,82493,1,0,0:0:0:0:
184,70,82659,1,0,0:0:0:0:
346,300,82826,1,0,0:0:0:0:
419,58,82993,1,0,0:0:0:0:
199,217,83159,1,0,0:0:0:0:
199,217,83243,1,0,0:0:0:0:
199,217,83326,1,0,0:0:0:0:
322,46,83493,1,0,0:0:0:0:
254,330,83659,5,0,0:0:0:0:
286,293,83742,1,0,0:0:0:0:
296,244,83826,1,0,0:0:0:0:
243,60,83992,1,0,0:0:0:0:
113,316,84159,1,0,0:0:0:0:
410,143,84326,1,0,0:0:0:0:
75,150,84492,1,0,0:0:0:0:
121,133,84576,1,0,0:0:0:0:
158,164,84659,1,0,0:0:0:0:
187,349,84826,1,0,0:0:0:0:
287,133,84992,5,0,0:0:0:0:
324,165,85076,1,0,0:0:0:0:
330,213,85159,1,0,0:0:0:0:
28,205,85326,1,0,0:0:0:0:
386,313,85492,1,0,0:0:0:0:
162,57,85659,1,0,0:0:0:0:
95,320,85825,1,0,0:0:0:0:
128,283,85909,1,0,0:0:0:0:
161,247,85992,1,0,0:0:0:0:
100,81,86159,1,0,0:0:0:0:
420,64,86325,5,0,0:0:0:0:
416,113,86409,1,0,0:0:0:0:
398,158,86492,1,0,0:0:0:0:
362,191,86575,1,0,0:0:0:0:
313,198,86659,1,0,0:0:0:0:
268,178,86742,1,0,0:0:0:0:
238,139,86825,1,0,0:0:0:0:
197,110,86909,1,0,0:0:0:0:
196,61,86992,5,0,0:0:0:0:
228,24,87075,1,0,0:0:0:0:
274,41,87159,1,0,0:0:0:0:
277,89,87242,1,0,0:0:0:0:
244,125,87325,1,0,0:0:0:0:
196,138,87409,1,0,0:0:0:0:
155,111,87492,1,0,0:0:0:0:
142,63,87575,1,0,0:0:0:0:
103,33,87658,5,0,0:0:0:0:
76,74,87742,1,0,0:0:0:0:
69,122,87825,1,0,0:0:0:0:
79,169,87908,1,0,0:0:0:0:
112,205,87992,1,0,0:0:0:0:
158,220,88075,1,0,0:0:0:0:
202,199,88158,1,0,0:0:0:0:
239,167,88242,1,0,0:0:0:0:
284,148,88325,1,0,0:0:0:0:
322,177,88408,5,0,0:0:0:0:
317,226,88492,1,0,0:0:0:0:
272,245,88575,1,0,0:0:0:0:
226,226,88658,1,0,0:0:0:0:
213,178,88742,1,0,0:0:0:0:
239,136,88825,1,0,0:0:0:0:
285,121,88908,1,0,0:0:0:0:
331,136,88992,1,0,0:0:0:0:
358,176,89075,5,0,0:0:0:0:
412,132,89158,1,0,0:0:0:0:
409,61,89242,1,0,0:0:0:0:
361,9,89325,1,0,0:0:0:0:
291,11,89408,1,0,0:0:0:0:
246,65,89492,1,0,0:0:0:0:
271,129,89575,1,0,0:0:0:0:
322,177,89658,1,0,0:0:0:0:
305,244,89741,5,0,0:0:0:0:
234,236,89825,1,0,0:0:0:0:
182,188,89908,1,0,0:0:0:0:
169,119,89991,1,0,0:0:0:0:
125,63,90075,1,0,0:0:0:0:
55,57,90158,1,0,0:0:0:0:
3,104,90241,1,0,0:0:0:0:
29,169,90325,5,0,0:0:0:0:
83,212,90408,1,0,0:0:0:0:
152,213,90491,1,0,0:0:0:0:
429,336,90825,1,0,0:0:0:0:
68,329,91158,1,0,0:0:0:0:
261,52,91491,1,0,0:0:0:0:
