osu file format v14

[General]
AudioFilename: MAGIC&LOVE.mp3
AudioLeadIn: 0
PreviewTime: 24019
Countdown: 0
SampleSet: Normal
StackLeniency: 0.7
Mode: 1
LetterboxInBreaks: 0
WidescreenStoryboard: 0

[Editor]
DistanceSpacing: 0.5
BeatDivisor: 4
GridSize: 4
TimelineZoom: 3.299998

[Metadata]
Title:MAGIC & LOVE
TitleUnicode:MAGIC & LOVE
Artist:DJ Genki feat. Yukacco
ArtistUnicode:DJ Genki feat. Yukacco
Creator:mliencheng
Version:Inner Oni
Source:beatmania IIDX 21 SPADA
Tags:HAPPY CORE
BeatmapID:966817
BeatmapSetID:450650

[Difficulty]
HPDrainRate:8
CircleSize:5
OverallDifficulty:5
ApproachRate:5
SliderMultiplier:1.5
SliderTickRate:1

[Events]
//Background and Video events
0,0,"main.jpg",0,0
//Break Periods
//Storyboard Layer 0 (Background)
//Storyboard Layer 1 (Fail)
//Storyboard Layer 2 (Pass)
//Storyboard Layer 3 (Foreground)
//Storyboard Sound Samples

[TimingPoints]
668,324.324324324324,4,1,0,70,1,0
12019,-76.9230769230769,4,1,0,70,0,0
12343,-83.3333333333333,4,1,0,70,0,0
23695,-76.9230769230769,4,1,0,70,0,0
24019,-90.9090909090909,4,1,0,70,0,0
28559,-80,4,1,0,70,0,0
29046,-83.3333333333333,4,1,0,70,0,0
29370,-90.9090909090909,4,1,0,70,0,0
31478,-80,4,1,0,70,0,0
31965,-90.9090909090909,4,1,0,70,0,0
38938,-80,4,1,0,70,0,0
39424,-90.9090909090909,4,1,0,70,0,0
42830,-83.3333333333333,4,1,0,70,0,0
43478,-76.9230769230769,4,1,0,70,0,0
44289,-71.4285714285714,4,1,0,70,0,0
44613,-90.9090909090909,4,1,0,70,0,0
57749,-89.2857142857143,4,1,0,70,0,0
57911,-87.719298245614,4,1,0,70,0,0
58073,-86.2068965517241,4,1,0,70,0,0
58235,-84.7457627118644,4,1,0,70,0,0
58397,-83.3333333333333,4,1,0,70,0,0
58559,-81.9672131147541,4,1,0,70,0,0
58722,-80.6451612903226,4,1,0,70,0,0
58884,-79.3650793650794,4,1,0,70,0,0
59046,-78.125,4,1,0,70,0,0
59208,-76.9230769230769,4,1,0,70,0,0
59370,-75.7575757575758,4,1,0,70,0,0
59532,-74.6268656716418,4,1,0,70,0,0
59695,-73.5294117647059,4,1,0,70,0,0
59857,-72.463768115942,4,1,0,70,0,0
60019,-71.4285714285714,4,1,0,70,0,0
60181,-70.4225352112676,4,1,0,70,0,0
60343,-69.4444444444444,4,1,0,70,0,0
62451,-76.9230769230769,4,1,0,70,0,0
65370,-83.3333333333333,4,1,0,70,0,1
87586,-83.3333333333333,4,1,0,70,0,0
87749,-90.9090909090909,4,1,0,70,0,0
97640,-86.2068965517241,4,1,0,70,0,0
97722,-81.9672131147541,4,1,0,70,0,0
97803,-78.125,4,1,0,70,0,0
97884,-74.6268656716418,4,1,0,70,0,0
97965,-71.4285714285714,4,1,0,70,0,1
105749,-68.9655172413793,4,1,0,70,0,1
106235,-66.6666666666667,4,1,0,70,0,1
106559,-71.4285714285714,4,1,0,70,0,1
107046,-68.9655172413793,4,1,0,70,0,1
107532,-66.6666666666667,4,1,0,70,0,1
107857,-71.4285714285714,4,1,0,70,0,1
108343,-68.9655172413793,4,1,0,70,0,1
108667,-60.6060606060606,4,1,0,70,0,1
109478,-76.9230769230769,4,1,0,70,0,0

[HitObjects]
208,212,668,5,0,0:0:0:0:
336,268,992,1,0,0:0:0:0:
336,268,1316,1,2,0:0:0:0:
344,260,1559,1,0,0:0:0:0:
344,260,1640,1,2,0:0:0:0:
280,152,1803,1,2,0:0:0:0:
336,288,1965,1,0,0:0:0:0:
280,168,2127,1,2,0:0:0:0:
276,184,2451,1,2,0:0:0:0:
276,192,2613,1,2,0:0:0:0:
184,188,2776,1,0,0:0:0:0:
296,220,2830,1,0,0:0:0:0:
292,216,2884,1,0,0:0:0:0:
304,228,2938,1,2,0:0:0:0:
312,248,3100,1,2,0:0:0:0:
320,256,3262,1,0,0:0:0:0:
232,256,3586,1,0,0:0:0:0:
288,244,3911,1,2,0:0:0:0:
300,252,4154,1,0,0:0:0:0:
296,248,4235,1,2,0:0:0:0:
304,260,4397,1,2,0:0:0:0:
336,296,4559,1,0,0:0:0:0:
304,272,4722,1,2,0:0:0:0:
304,272,5046,1,2,0:0:0:0:
336,296,5208,1,2,0:0:0:0:
332,300,5370,1,0,0:0:0:0:
232,220,5424,1,0,0:0:0:0:
232,220,5478,1,0,0:0:0:0:
236,224,5532,1,2,0:0:0:0:
256,284,5695,1,2,0:0:0:0:
256,288,5857,1,0,0:0:0:0:
308,296,6181,1,0,0:0:0:0:
312,312,6505,1,2,0:0:0:0:
352,244,6749,1,0,0:0:0:0:
352,308,6830,1,2,0:0:0:0:
352,244,6992,1,2,0:0:0:0:
352,260,7154,1,0,0:0:0:0:
352,264,7316,1,2,0:0:0:0:
348,280,7640,1,2,0:0:0:0:
360,304,7803,1,2,0:0:0:0:
352,288,7965,1,0,0:0:0:0:
240,264,8019,1,0,0:0:0:0:
240,236,8073,1,0,0:0:0:0:
244,240,8127,1,2,0:0:0:0:
388,276,8289,1,2,0:0:0:0:
392,292,8451,1,2,0:0:0:0:
408,300,8776,1,2,0:0:0:0:
412,304,8938,1,2,0:0:0:0:
416,328,9019,1,2,0:0:0:0:
416,328,9100,1,2,0:0:0:0:
416,328,9181,1,2,0:0:0:0:
412,308,9262,1,0,0:0:0:0:
412,316,9424,1,0,0:0:0:0:
408,320,9586,1,0,0:0:0:0:
408,324,9749,1,2,0:0:0:0:
408,324,10073,1,2,0:0:0:0:
412,328,10235,1,2,0:0:0:0:
416,328,10316,1,2,0:0:0:0:
416,328,10397,1,2,0:0:0:0:
416,328,10478,1,2,0:0:0:0:
416,328,10559,1,0,0:0:0:0:
416,336,10722,1,2,0:0:0:0:
428,348,11046,1,0,0:0:0:0:
184,180,11289,1,2,0:0:0:0:
432,352,11370,1,0,0:0:0:0:
192,192,11451,1,0,0:0:0:0:
192,200,11532,1,2,0:0:0:0:
432,356,11695,1,2,0:0:0:0:
424,360,12019,1,6,0:0:0:0:
424,368,12343,1,0,0:0:0:0:
244,184,12505,1,2,0:0:0:0:
248,200,12668,1,2,0:0:0:0:
252,204,12830,1,0,0:0:0:0:
252,208,12992,1,2,0:0:0:0:
300,208,13073,1,0,0:0:0:0:
252,208,13154,1,0,0:0:0:0:
252,208,13235,1,2,0:0:0:0:
260,216,13316,1,0,0:0:0:0:
252,212,13397,1,0,0:0:0:0:
256,212,13478,1,2,0:0:0:0:
256,220,13640,1,0,0:0:0:0:
260,224,13803,1,2,0:0:0:0:
260,224,13884,1,0,0:0:0:0:
260,224,13965,1,2,0:0:0:0:
260,224,14127,1,0,0:0:0:0:
260,224,14289,1,2,0:0:0:0:
260,224,14370,1,0,0:0:0:0:
260,224,14451,1,0,0:0:0:0:
260,224,14532,1,2,0:0:0:0:
260,224,14613,1,0,0:0:0:0:
244,144,14695,1,0,0:0:0:0:
260,224,14776,1,2,0:0:0:0:
260,224,14857,1,2,0:0:0:0:
260,224,14938,1,0,0:0:0:0:
252,160,15100,1,2,0:0:0:0:
292,184,15262,1,2,0:0:0:0:
304,216,15424,1,0,0:0:0:0:
304,216,15586,1,2,0:0:0:0:
304,216,15668,1,0,0:0:0:0:
304,216,15749,1,0,0:0:0:0:
304,216,15830,1,2,0:0:0:0:
304,216,15911,1,0,0:0:0:0:
304,216,15992,1,0,0:0:0:0:
304,216,16073,1,2,0:0:0:0:
304,216,16235,1,4,0:0:0:0:
308,240,16397,1,2,0:0:0:0:
308,240,16559,1,2,0:0:0:0:
308,244,16722,1,4,0:0:0:0:
308,248,16884,1,0,0:0:0:0:
304,252,16965,1,2,0:0:0:0:
308,248,17046,1,2,0:0:0:0:
304,252,17127,1,2,0:0:0:0:
304,252,17208,1,0,0:0:0:0:
304,252,17289,1,0,0:0:0:0:
304,252,17370,1,2,0:0:0:0:
304,252,17451,1,2,0:0:0:0:
304,252,17532,1,0,0:0:0:0:
320,256,17695,1,2,0:0:0:0:
320,268,17857,1,2,0:0:0:0:
324,272,18019,1,0,0:0:0:0:
320,268,18181,1,2,0:0:0:0:
296,320,18262,1,0,0:0:0:0:
324,280,18343,1,0,0:0:0:0:
324,284,18424,1,2,0:0:0:0:
328,292,18505,1,0,0:0:0:0:
328,288,18586,1,0,0:0:0:0:
328,292,18668,1,2,0:0:0:0:
296,320,18749,1,2,0:0:0:0:
296,320,18830,1,0,0:0:0:0:
296,320,18992,1,2,0:0:0:0:
296,320,19154,1,2,0:0:0:0:
296,324,19316,1,0,0:0:0:0:
296,328,19478,1,2,0:0:0:0:
296,328,19559,1,0,0:0:0:0:
300,328,19640,1,0,0:0:0:0:
300,328,19722,1,2,0:0:0:0:
300,328,19803,1,0,0:0:0:0:
304,328,19884,1,0,0:0:0:0:
304,328,19965,1,2,0:0:0:0:
304,328,20046,1,2,0:0:0:0:
304,328,20127,1,4,0:0:0:0:
312,344,20451,1,2,0:0:0:0:
312,348,20613,1,4,0:0:0:0:
316,352,20938,1,0,0:0:0:0:
316,360,21100,1,2,0:0:0:0:
320,360,21181,1,2,0:0:0:0:
320,360,21262,1,2,0:0:0:0:
320,364,21343,1,2,0:0:0:0:
316,368,21424,1,4,0:0:0:0:
316,368,21749,1,2,0:0:0:0:
320,368,21911,1,4,0:0:0:0:
320,380,22235,1,0,0:0:0:0:
320,372,22397,1,2,0:0:0:0:
320,380,22478,1,2,0:0:0:0:
324,384,22559,1,2,0:0:0:0:
324,384,22640,1,2,0:0:0:0:
324,384,22722,1,0,0:0:0:0:
224,336,22965,1,2,0:0:0:0:
216,320,23046,1,0,0:0:0:0:
236,344,23127,1,0,0:0:0:0:
236,348,23208,1,2,0:0:0:0:
248,352,23370,1,2,0:0:0:0:
256,360,23695,1,6,0:0:0:0:
220,196,24019,1,0,0:0:0:0:
384,336,24181,1,2,0:0:0:0:
220,200,24262,1,2,0:0:0:0:
324,240,24343,1,2,0:0:0:0:
256,224,24424,1,2,0:0:0:0:
324,240,24505,1,0,0:0:0:0:
328,244,24668,1,2,0:0:0:0:
256,200,24749,1,2,0:0:0:0:
328,244,24830,1,0,0:0:0:0:
248,216,24911,1,2,0:0:0:0:
328,244,24992,1,0,0:0:0:0:
252,208,25073,1,0,0:0:0:0:
332,244,25154,1,2,0:0:0:0:
368,248,25316,1,0,0:0:0:0:
212,96,25397,1,0,0:0:0:0:
332,244,25478,1,2,0:0:0:0:
332,244,25640,1,0,0:0:0:0:
332,244,25803,1,2,0:0:0:0:
332,244,25965,1,0,0:0:0:0:
240,168,26046,1,0,0:0:0:0:
328,244,26127,1,2,0:0:0:0:
328,244,26289,1,0,0:0:0:0:
328,244,26451,1,2,0:0:0:0:
272,240,26532,1,2,0:0:0:0:
332,244,26613,1,2,0:0:0:0:
220,188,26695,1,0,0:0:0:0:
332,244,26776,1,0,0:0:0:0:
232,200,26857,1,0,0:0:0:0:
332,244,26938,1,2,0:0:0:0:
236,204,27019,1,2,0:0:0:0:
332,244,27100,1,0,0:0:0:0:
284,140,27181,1,0,0:0:0:0:
332,244,27262,1,2,0:0:0:0:
332,244,27424,1,0,0:0:0:0:
328,244,27586,1,2,0:0:0:0:
328,244,27749,1,0,0:0:0:0:
328,244,27911,1,2,0:0:0:0:
376,224,27992,1,0,0:0:0:0:
332,244,28073,1,0,0:0:0:0:
376,228,28154,1,0,0:0:0:0:
332,244,28235,1,2,0:0:0:0:
364,240,28316,1,2,0:0:0:0:
332,244,28397,1,0,0:0:0:0:
332,244,28559,1,6,0:0:0:0:
332,244,28722,1,6,0:0:0:0:
328,244,29046,1,4,0:0:0:0:
328,244,29370,1,0,0:0:0:0:
332,244,29532,1,0,0:0:0:0:
332,244,29695,1,2,0:0:0:0:
332,244,29857,1,0,0:0:0:0:
228,148,29938,1,0,0:0:0:0:
232,132,30019,1,0,0:0:0:0:
60,144,30100,1,2,0:0:0:0:
332,244,30181,1,2,0:0:0:0:
236,164,30262,1,0,0:0:0:0:
332,244,30343,1,2,0:0:0:0:
328,244,30505,1,0,0:0:0:0:
236,164,30586,1,0,0:0:0:0:
328,244,30668,1,0,0:0:0:0:
236,176,30749,1,0,0:0:0:0:
328,244,30830,1,2,0:0:0:0:
244,188,30911,1,0,0:0:0:0:
332,244,30992,1,2,0:0:0:0:
248,188,31073,1,2,0:0:0:0:
332,244,31154,1,0,0:0:0:0:
248,188,31235,1,0,0:0:0:0:
332,244,31316,1,2,0:0:0:0:
332,244,31478,1,6,0:0:0:0:
332,244,31640,1,6,0:0:0:0:
328,244,31965,1,0,0:0:0:0:
172,168,32046,1,0,0:0:0:0:
328,244,32127,1,0,0:0:0:0:
328,244,32289,1,2,0:0:0:0:
332,244,32451,1,0,0:0:0:0:
332,244,32613,1,2,0:0:0:0:
332,244,32938,1,2,0:0:0:0:
148,152,33019,1,2,0:0:0:0:
332,244,33100,1,2,0:0:0:0:
176,160,33181,1,2,0:0:0:0:
332,244,33262,1,2,0:0:0:0:
176,160,33343,1,2,0:0:0:0:
328,244,33424,1,0,0:0:0:0:
212,160,33505,1,0,0:0:0:0:
328,244,33586,1,0,0:0:0:0:
216,168,33668,1,2,0:0:0:0:
328,244,33749,1,2,0:0:0:0:
216,168,33830,1,2,0:0:0:0:
332,244,33911,1,0,0:0:0:0:
332,244,34073,1,2,0:0:0:0:
228,140,34154,1,2,0:0:0:0:
332,244,34235,1,2,0:0:0:0:
228,148,34316,1,2,0:0:0:0:
332,244,34397,1,0,0:0:0:0:
404,252,34478,1,0,0:0:0:0:
332,244,34559,1,0,0:0:0:0:
332,244,34722,1,2,0:0:0:0:
240,168,34803,1,2,0:0:0:0:
328,244,34884,1,0,0:0:0:0:
328,244,35046,1,2,0:0:0:0:
208,284,35127,1,2,0:0:0:0:
328,244,35208,1,0,0:0:0:0:
216,292,35289,1,0,0:0:0:0:
332,244,35370,1,2,0:0:0:0:
216,304,35451,1,0,0:0:0:0:
328,248,35532,1,2,0:0:0:0:
232,244,35695,1,0,0:0:0:0:
232,304,35776,1,0,0:0:0:0:
200,236,35857,1,2,0:0:0:0:
176,228,36019,1,0,0:0:0:0:
132,152,36100,1,2,0:0:0:0:
136,212,36181,1,0,0:0:0:0:
136,212,36343,1,2,0:0:0:0:
232,304,36424,1,0,0:0:0:0:
128,208,36505,1,2,0:0:0:0:
116,200,36668,1,2,0:0:0:0:
244,312,36830,1,0,0:0:0:0:
248,316,36911,1,0,0:0:0:0:
108,184,36992,1,0,0:0:0:0:
256,320,37073,1,0,0:0:0:0:
100,172,37154,1,0,0:0:0:0:
256,320,37235,1,0,0:0:0:0:
184,152,37316,1,2,0:0:0:0:
184,152,37397,1,2,0:0:0:0:
100,148,37478,1,0,0:0:0:0:
144,168,37559,1,0,0:0:0:0:
100,144,37640,1,2,0:0:0:0:
236,120,37722,1,0,0:0:0:0:
112,124,37803,1,0,0:0:0:0:
236,120,37884,1,0,0:0:0:0:
120,120,37965,1,2,0:0:0:0:
96,152,38046,1,2,0:0:0:0:
172,160,38127,1,2,0:0:0:0:
248,172,38208,1,0,0:0:0:0:
248,172,38289,1,2,0:0:0:0:
156,112,38451,1,0,0:0:0:0:
168,116,38613,1,2,0:0:0:0:
136,156,38695,1,2,0:0:0:0:
180,116,38776,1,0,0:0:0:0:
196,136,38938,1,4,0:0:0:0:
200,160,39100,1,4,0:0:0:0:
200,188,39424,1,0,0:0:0:0:
232,136,39505,1,0,0:0:0:0:
200,204,39586,1,0,0:0:0:0:
264,220,39667,1,0,0:0:0:0:
208,224,39749,1,0,0:0:0:0:
264,220,39830,1,0,0:0:0:0:
216,236,39911,1,2,0:0:0:0:
264,220,39992,1,2,0:0:0:0:
264,220,40073,1,2,0:0:0:0:
264,220,40154,1,2,0:0:0:0:
244,256,40235,1,2,0:0:0:0:
160,196,40316,1,0,0:0:0:0:
256,256,40397,1,0,0:0:0:0:
196,200,40478,1,0,0:0:0:0:
196,200,40559,1,2,0:0:0:0:
224,208,40640,1,0,0:0:0:0:
264,204,40722,1,2,0:0:0:0:
232,208,40803,1,0,0:0:0:0:
260,184,40884,1,2,0:0:0:0:
172,76,40965,1,0,0:0:0:0:
256,168,41046,1,0,0:0:0:0:
264,192,41127,1,0,0:0:0:0:
264,192,41208,1,2,0:0:0:0:
272,204,41289,1,0,0:0:0:0:
32,56,41370,1,0,0:0:0:0:
276,216,41451,1,0,0:0:0:0:
32,56,41532,1,2,0:0:0:0:
280,216,41613,1,2,0:0:0:0:
24,96,41695,1,2,0:0:0:0:
236,188,41776,1,2,0:0:0:0:
28,116,41857,1,0,0:0:0:0:
236,192,41938,1,0,0:0:0:0:
36,156,42019,1,2,0:0:0:0:
236,192,42100,1,2,0:0:0:0:
48,188,42181,1,4,0:0:0:0:
60,216,42505,1,4,0:0:0:0:
80,244,42830,1,4,0:0:0:0:
96,260,42992,1,4,0:0:0:0:
112,268,43154,1,4,0:0:0:0:
164,280,43478,1,4,0:0:0:0:
176,284,43640,1,4,0:0:0:0:
192,288,43803,1,4,0:0:0:0:
216,288,43965,1,4,0:0:0:0:
260,284,44289,1,4,0:0:0:0:
268,280,44451,1,4,0:0:0:0:
184,172,44613,1,2,0:0:0:0:
208,180,44695,1,2,0:0:0:0:
284,264,44776,1,0,0:0:0:0:
336,292,44938,1,2,0:0:0:0:
336,292,45100,1,2,0:0:0:0:
340,296,45181,1,2,0:0:0:0:
280,216,45262,1,0,0:0:0:0:
276,212,45424,1,0,0:0:0:0:
336,300,45586,1,2,0:0:0:0:
352,264,45667,1,2,0:0:0:0:
340,312,45749,1,2,0:0:0:0:
352,264,45911,1,2,0:0:0:0:
224,200,46073,1,0,0:0:0:0:
312,232,46154,1,2,0:0:0:0:
356,268,46235,1,2,0:0:0:0:
360,272,46397,1,2,0:0:0:0:
172,200,46559,1,0,0:0:0:0:
300,204,46640,1,2,0:0:0:0:
160,200,46722,1,0,0:0:0:0:
144,200,46884,1,0,0:0:0:0:
304,216,47046,1,2,0:0:0:0:
308,220,47127,1,2,0:0:0:0:
304,216,47208,1,2,0:0:0:0:
132,164,47370,1,0,0:0:0:0:
292,208,47451,1,0,0:0:0:0:
284,208,47532,1,2,0:0:0:0:
296,208,47613,1,2,0:0:0:0:
296,208,47695,1,0,0:0:0:0:
152,108,47857,1,0,0:0:0:0:
140,116,48019,1,0,0:0:0:0:
300,208,48100,1,0,0:0:0:0:
288,192,48181,1,2,0:0:0:0:
248,208,48262,1,2,0:0:0:0:
312,200,48343,1,2,0:0:0:0:
200,184,48424,1,0,0:0:0:0:
312,204,48505,1,2,0:0:0:0:
176,84,48668,1,0,0:0:0:0:
312,220,48749,1,0,0:0:0:0:
312,220,48830,1,0,0:0:0:0:
308,224,48911,1,0,0:0:0:0:
308,224,48992,1,2,0:0:0:0:
308,224,49073,1,2,0:0:0:0:
208,72,49154,1,0,0:0:0:0:
212,72,49316,1,0,0:0:0:0:
208,184,49397,1,0,0:0:0:0:
272,104,49478,1,0,0:0:0:0:
196,192,49640,1,2,0:0:0:0:
256,224,49722,1,2,0:0:0:0:
256,224,49803,1,2,0:0:0:0:
256,224,49884,1,2,0:0:0:0:
308,168,49965,1,0,0:0:0:0:
260,256,50127,1,2,0:0:0:0:
300,216,50451,1,0,0:0:0:0:
308,240,50613,1,0,0:0:0:0:
260,256,50776,1,2,0:0:0:0:
260,272,51100,1,2,0:0:0:0:
372,324,51262,1,0,0:0:0:0:
260,264,51424,1,2,0:0:0:0:
408,168,51749,1,0,0:0:0:0:
136,300,51911,1,0,0:0:0:0:
176,152,52073,1,0,0:0:0:0:
88,152,52235,1,0,0:0:0:0:
232,200,52316,1,0,0:0:0:0:
328,136,52397,1,0,0:0:0:0:
236,204,52478,1,0,0:0:0:0:
20,200,52559,1,4,0:0:0:0:
168,264,52884,1,4,0:0:0:0:
248,264,53208,1,4,0:0:0:0:
344,220,53370,1,0,0:0:0:0:
252,280,53532,1,4,0:0:0:0:
52,240,53695,1,0,0:0:0:0:
112,144,53857,1,4,0:0:0:0:
280,192,54181,1,4,0:0:0:0:
384,168,54505,1,0,0:0:0:0:
392,336,54668,1,0,0:0:0:0:
424,236,54830,1,2,0:0:0:0:
164,168,54992,1,4,0:0:0:0:
96,280,55316,1,0,0:0:0:0:
320,144,55478,1,4,0:0:0:0:
324,152,55803,1,0,0:0:0:0:
312,328,55965,1,2,0:0:0:0:
192,116,56127,1,2,0:0:0:0:
80,280,56289,1,4,0:0:0:0:
104,72,56613,1,2,0:0:0:0:
88,152,56695,1,2,0:0:0:0:
216,300,56776,1,0,0:0:0:0:
276,104,56938,1,0,0:0:0:0:
104,216,57262,1,0,0:0:0:0:
436,232,57424,1,2,0:0:0:0:
168,72,57586,1,2,0:0:0:0:
256,296,57749,1,4,0:0:0:0:
344,200,57911,1,0,0:0:0:0:
64,112,58073,1,4,0:0:0:0:
344,112,58235,1,0,0:0:0:0:
272,272,58397,1,4,0:0:0:0:
144,176,58559,1,0,0:0:0:0:
368,148,58722,1,4,0:0:0:0:
208,64,58884,1,0,0:0:0:0:
96,268,59046,1,4,0:0:0:0:
320,208,59208,1,0,0:0:0:0:
136,152,59370,1,4,0:0:0:0:
240,256,59532,1,0,0:0:0:0:
344,156,59695,1,4,0:0:0:0:
420,80,59857,1,4,0:0:0:0:
440,292,60019,1,0,0:0:0:0:
260,160,60181,1,0,0:0:0:0:
116,248,60343,1,0,0:0:0:0:
44,164,60424,1,0,0:0:0:0:
96,344,60505,1,0,0:0:0:0:
216,148,60586,1,0,0:0:0:0:
92,112,60668,1,0,0:0:0:0:
224,152,60749,1,0,0:0:0:0:
296,212,60830,1,0,0:0:0:0:
224,152,60911,1,0,0:0:0:0:
144,136,60992,1,0,0:0:0:0:
224,152,61073,1,0,0:0:0:0:
244,104,61154,1,0,0:0:0:0:
224,152,61235,1,0,0:0:0:0:
284,308,61316,1,0,0:0:0:0:
224,156,61397,1,0,0:0:0:0:
304,280,61478,1,0,0:0:0:0:
224,156,61559,1,0,0:0:0:0:
200,204,61640,1,0,0:0:0:0:
196,148,61722,1,0,0:0:0:0:
208,264,61803,1,0,0:0:0:0:
200,152,61884,1,0,0:0:0:0:
312,304,61965,1,0,0:0:0:0:
200,156,62046,1,0,0:0:0:0:
344,176,62127,1,0,0:0:0:0:
204,160,62208,1,0,0:0:0:0:
328,152,62289,1,0,0:0:0:0:
320,328,62451,1,0,0:0:0:0:
320,344,62613,1,0,0:0:0:0:
144,168,62695,1,0,0:0:0:0:
360,164,62776,1,0,0:0:0:0:
204,184,62857,1,0,0:0:0:0:
376,216,62938,1,2,0:0:0:0:
424,360,63100,1,0,0:0:0:0:
300,224,63181,1,0,0:0:0:0:
188,192,63262,1,2,0:0:0:0:
428,256,63424,1,0,0:0:0:0:
356,160,63586,1,0,0:0:0:0:
112,180,63667,1,2,0:0:0:0:
200,240,63749,1,2,0:0:0:0:
48,168,63830,1,0,0:0:0:0:
200,240,63911,1,2,0:0:0:0:
296,132,63992,1,0,0:0:0:0:
168,304,64073,1,2,0:0:0:0:
304,140,64154,1,0,0:0:0:0:
148,316,64235,1,2,0:0:0:0:
144,152,64289,1,2,0:0:0:0:
156,152,64343,1,2,0:0:0:0:
120,296,64397,1,0,0:0:0:0:
248,200,64478,1,0,0:0:0:0:
80,132,64559,1,2,0:0:0:0:
188,192,64640,1,0,0:0:0:0:
96,124,64722,1,2,0:0:0:0:
112,152,64803,1,2,0:0:0:0:
224,120,64884,1,0,0:0:0:0:
164,200,64938,1,0,0:0:0:0:
168,200,64992,1,0,0:0:0:0:
240,120,65046,1,2,0:0:0:0:
232,180,65100,1,2,0:0:0:0:
232,180,65154,1,2,0:0:0:0:
232,180,65208,1,2,0:0:0:0:
304,128,65370,1,0,0:0:0:0:
184,208,65451,1,0,0:0:0:0:
312,132,65532,1,0,0:0:0:0:
248,232,65613,1,0,0:0:0:0:
320,136,65695,1,2,0:0:0:0:
180,148,65776,1,0,0:0:0:0:
320,136,65857,1,2,0:0:0:0:
256,236,65938,1,0,0:0:0:0:
320,136,66019,1,0,0:0:0:0:
256,236,66100,1,0,0:0:0:0:
320,136,66181,1,2,0:0:0:0:
256,236,66262,1,2,0:0:0:0:
320,136,66343,1,0,0:0:0:0:
256,240,66424,1,2,0:0:0:0:
320,140,66505,1,0,0:0:0:0:
256,240,66586,1,0,0:0:0:0:
320,140,66668,1,2,0:0:0:0:
256,240,66749,1,2,0:0:0:0:
320,140,66830,1,0,0:0:0:0:
100,160,66911,1,0,0:0:0:0:
320,140,66992,1,2,0:0:0:0:
280,192,67073,1,2,0:0:0:0:
320,140,67154,1,0,0:0:0:0:
280,192,67235,1,0,0:0:0:0:
320,140,67316,1,2,0:0:0:0:
280,192,67397,1,2,0:0:0:0:
320,140,67478,1,2,0:0:0:0:
280,192,67559,1,0,0:0:0:0:
320,140,67640,1,2,0:0:0:0:
280,192,67722,1,0,0:0:0:0:
320,140,67803,1,2,0:0:0:0:
284,196,67884,1,2,0:0:0:0:
320,140,67965,1,0,0:0:0:0:
284,196,68046,1,0,0:0:0:0:
320,140,68127,1,2,0:0:0:0:
284,200,68208,1,0,0:0:0:0:
320,140,68289,1,0,0:0:0:0:
288,200,68370,1,0,0:0:0:0:
320,140,68451,1,2,0:0:0:0:
288,200,68532,1,0,0:0:0:0:
320,140,68613,1,0,0:0:0:0:
288,200,68695,1,0,0:0:0:0:
320,140,68776,1,2,0:0:0:0:
288,200,68857,1,2,0:0:0:0:
320,140,68938,1,2,0:0:0:0:
288,200,69019,1,2,0:0:0:0:
320,140,69100,1,0,0:0:0:0:
292,200,69181,1,0,0:0:0:0:
320,140,69262,1,2,0:0:0:0:
292,200,69343,1,0,0:0:0:0:
320,140,69424,1,0,0:0:0:0:
292,200,69505,1,2,0:0:0:0:
320,140,69586,1,2,0:0:0:0:
296,204,69667,1,2,0:0:0:0:
320,140,69749,1,0,0:0:0:0:
296,204,69830,1,0,0:0:0:0:
320,140,69911,1,2,0:0:0:0:
300,208,69992,1,0,0:0:0:0:
320,140,70073,1,2,0:0:0:0:
300,208,70154,1,2,0:0:0:0:
320,140,70235,1,0,0:0:0:0:
300,208,70316,1,2,0:0:0:0:
320,140,70397,1,0,0:0:0:0:
300,208,70478,1,0,0:0:0:0:
320,140,70559,1,0,0:0:0:0:
300,208,70640,1,0,0:0:0:0:
320,140,70722,1,2,0:0:0:0:
300,208,70803,1,0,0:0:0:0:
320,140,70884,1,0,0:0:0:0:
304,212,70965,1,0,0:0:0:0:
320,140,71046,1,2,0:0:0:0:
112,156,71127,1,0,0:0:0:0:
320,140,71208,1,0,0:0:0:0:
248,164,71289,1,2,0:0:0:0:
320,140,71370,1,0,0:0:0:0:
248,164,71451,1,2,0:0:0:0:
320,140,71532,1,2,0:0:0:0:
248,164,71613,1,2,0:0:0:0:
320,140,71695,1,0,0:0:0:0:
248,164,71776,1,0,0:0:0:0:
320,140,71857,1,2,0:0:0:0:
248,164,71938,1,2,0:0:0:0:
320,140,72019,1,2,0:0:0:0:
248,164,72100,1,0,0:0:0:0:
320,140,72181,1,2,0:0:0:0:
248,164,72262,1,0,0:0:0:0:
320,140,72343,1,0,0:0:0:0:
248,164,72424,1,0,0:0:0:0:
320,140,72505,1,2,0:0:0:0:
248,164,72586,1,2,0:0:0:0:
320,140,72668,1,2,0:0:0:0:
248,164,72749,1,0,0:0:0:0:
320,140,72830,1,0,0:0:0:0:
248,164,72911,1,2,0:0:0:0:
320,140,72992,1,0,0:0:0:0:
248,164,73073,1,0,0:0:0:0:
320,140,73154,1,0,0:0:0:0:
248,164,73235,1,0,0:0:0:0:
320,140,73316,1,2,0:0:0:0:
248,164,73397,1,0,0:0:0:0:
320,140,73478,1,0,0:0:0:0:
248,164,73559,1,0,0:0:0:0:
320,140,73640,1,2,0:0:0:0:
248,164,73722,1,2,0:0:0:0:
320,140,73803,1,0,0:0:0:0:
248,164,73884,1,2,0:0:0:0:
320,140,73965,1,2,0:0:0:0:
248,164,74046,1,2,0:0:0:0:
320,140,74127,1,0,0:0:0:0:
72,132,74208,1,2,0:0:0:0:
320,140,74289,1,0,0:0:0:0:
172,128,74370,1,0,0:0:0:0:
320,140,74451,1,0,0:0:0:0:
156,188,74532,1,2,0:0:0:0:
320,140,74613,1,0,0:0:0:0:
320,140,74776,1,2,0:0:0:0:
320,140,74938,1,0,0:0:0:0:
340,264,75019,1,2,0:0:0:0:
320,140,75100,1,0,0:0:0:0:
312,244,75181,1,0,0:0:0:0:
320,140,75262,1,2,0:0:0:0:
320,140,75424,1,2,0:0:0:0:
132,192,75478,1,2,0:0:0:0:
196,200,75532,1,2,0:0:0:0:
320,140,75586,1,0,0:0:0:0:
320,140,75749,1,2,0:0:0:0:
260,232,75830,1,2,0:0:0:0:
320,140,75911,1,2,0:0:0:0:
148,192,75992,1,0,0:0:0:0:
320,140,76073,1,2,0:0:0:0:
192,208,76154,1,2,0:0:0:0:
320,140,76235,1,0,0:0:0:0:
184,216,76316,1,2,0:0:0:0:
320,140,76397,1,0,0:0:0:0:
184,216,76478,1,0,0:0:0:0:
320,140,76559,1,2,0:0:0:0:
184,220,76640,1,2,0:0:0:0:
320,140,76722,1,0,0:0:0:0:
184,220,76803,1,0,0:0:0:0:
320,140,76884,1,0,0:0:0:0:
68,168,76965,1,0,0:0:0:0:
188,184,77046,1,2,0:0:0:0:
188,184,77127,1,0,0:0:0:0:
188,184,77208,1,0,0:0:0:0:
188,184,77289,1,0,0:0:0:0:
320,140,77370,1,2,0:0:0:0:
188,184,77451,1,2,0:0:0:0:
320,140,77532,1,0,0:0:0:0:
188,184,77613,1,0,0:0:0:0:
188,184,77695,1,2,0:0:0:0:
188,184,77776,1,0,0:0:0:0:
320,140,77857,1,2,0:0:0:0:
188,184,77938,1,2,0:0:0:0:
320,140,78019,1,0,0:0:0:0:
188,184,78100,1,2,0:0:0:0:
320,140,78181,1,2,0:0:0:0:
188,184,78262,1,2,0:0:0:0:
320,140,78343,1,0,0:0:0:0:
160,168,78424,1,0,0:0:0:0:
320,140,78505,1,2,0:0:0:0:
224,188,78586,1,0,0:0:0:0:
320,140,78668,1,0,0:0:0:0:
224,188,78749,1,2,0:0:0:0:
320,140,78830,1,0,0:0:0:0:
224,188,78911,1,2,0:0:0:0:
320,140,78992,1,0,0:0:0:0:
224,188,79073,1,0,0:0:0:0:
320,140,79154,1,2,0:0:0:0:
224,188,79235,1,0,0:0:0:0:
320,140,79316,1,0,0:0:0:0:
224,188,79397,1,0,0:0:0:0:
320,140,79478,1,2,0:0:0:0:
224,188,79559,1,0,0:0:0:0:
320,140,79640,1,2,0:0:0:0:
224,188,79722,1,2,0:0:0:0:
320,140,79803,1,0,0:0:0:0:
224,188,79884,1,2,0:0:0:0:
320,140,79965,1,2,0:0:0:0:
232,188,80046,1,2,0:0:0:0:
320,140,80127,1,2,0:0:0:0:
232,188,80208,1,2,0:0:0:0:
320,140,80289,1,0,0:0:0:0:
320,140,80451,1,2,0:0:0:0:
232,192,80532,1,2,0:0:0:0:
320,140,80613,1,0,0:0:0:0:
320,140,80776,1,0,0:0:0:0:
236,192,80857,1,2,0:0:0:0:
320,140,80938,1,2,0:0:0:0:
236,192,81019,1,2,0:0:0:0:
320,140,81100,1,0,0:0:0:0:
196,156,81181,1,0,0:0:0:0:
320,140,81262,1,2,0:0:0:0:
212,176,81343,1,2,0:0:0:0:
112,192,81424,1,0,0:0:0:0:
96,168,81505,1,2,0:0:0:0:
320,140,81586,1,0,0:0:0:0:
200,200,81667,1,0,0:0:0:0:
320,140,81749,1,2,0:0:0:0:
200,200,81830,1,2,0:0:0:0:
320,140,81911,1,2,0:0:0:0:
200,200,81992,1,2,0:0:0:0:
320,140,82073,1,0,0:0:0:0:
200,200,82154,1,0,0:0:0:0:
320,140,82235,1,2,0:0:0:0:
204,204,82316,1,2,0:0:0:0:
320,140,82397,1,0,0:0:0:0:
204,204,82478,1,0,0:0:0:0:
320,140,82559,1,2,0:0:0:0:
204,208,82640,1,2,0:0:0:0:
320,140,82722,1,0,0:0:0:0:
204,208,82803,1,0,0:0:0:0:
320,140,82884,1,2,0:0:0:0:
204,208,82965,1,2,0:0:0:0:
204,208,83046,1,2,0:0:0:0:
204,208,83127,1,0,0:0:0:0:
320,140,83208,1,2,0:0:0:0:
204,208,83289,1,2,0:0:0:0:
320,140,83370,1,0,0:0:0:0:
208,208,83451,1,2,0:0:0:0:
320,140,83532,1,2,0:0:0:0:
208,208,83613,1,2,0:0:0:0:
208,208,83695,1,4,0:0:0:0:
320,140,83857,1,2,0:0:0:0:
320,140,84019,1,2,0:0:0:0:
320,140,84181,1,4,0:0:0:0:
320,140,84505,1,2,0:0:0:0:
320,140,84668,1,2,0:0:0:0:
216,212,84749,1,2,0:0:0:0:
320,140,84830,1,2,0:0:0:0:
160,184,84911,1,2,0:0:0:0:
320,140,84992,1,0,0:0:0:0:
320,140,85154,1,0,0:0:0:0:
320,140,85316,1,0,0:0:0:0:
320,140,85478,1,6,0:0:0:0:
320,140,85640,1,0,0:0:0:0:
320,140,85803,1,6,0:0:0:0:
320,140,85965,1,2,0:0:0:0:
140,112,86046,1,2,0:0:0:0:
148,116,86127,1,2,0:0:0:0:
272,176,86208,1,2,0:0:0:0:
320,140,86289,1,0,0:0:0:0:
320,140,86451,1,0,0:0:0:0:
320,140,86613,1,2,0:0:0:0:
320,140,86776,1,0,0:0:0:0:
320,140,86938,1,2,0:0:0:0:
100,184,87019,1,0,0:0:0:0:
320,140,87100,1,0,0:0:0:0:
144,200,87181,1,0,0:0:0:0:
144,200,87262,1,2,0:0:0:0:
256,220,87343,1,2,0:0:0:0:
256,220,87424,1,2,0:0:0:0:
264,224,87505,1,2,0:0:0:0:
320,140,87586,1,0,0:0:0:0:
320,140,87749,1,2,0:0:0:0:
236,216,87830,1,0,0:0:0:0:
320,140,87911,1,2,0:0:0:0:
232,212,87992,1,2,0:0:0:0:
320,140,88073,1,0,0:0:0:0:
236,216,88154,1,0,0:0:0:0:
320,140,88235,1,2,0:0:0:0:
232,216,88316,1,0,0:0:0:0:
320,140,88397,1,0,0:0:0:0:
232,216,88478,1,2,0:0:0:0:
320,140,88559,1,0,0:0:0:0:
232,216,88640,1,0,0:0:0:0:
320,140,88722,1,2,0:0:0:0:
232,216,88803,1,0,0:0:0:0:
320,140,88884,1,0,0:0:0:0:
232,216,88965,1,0,0:0:0:0:
236,216,89046,1,2,0:0:0:0:
236,216,89127,1,0,0:0:0:0:
320,140,89208,1,2,0:0:0:0:
236,216,89289,1,0,0:0:0:0:
320,140,89370,1,0,0:0:0:0:
236,220,89451,1,0,0:0:0:0:
320,140,89532,1,2,0:0:0:0:
236,216,89613,1,0,0:0:0:0:
320,140,89695,1,0,0:0:0:0:
236,220,89776,1,2,0:0:0:0:
320,140,89857,1,0,0:0:0:0:
236,224,89938,1,2,0:0:0:0:
320,140,90019,1,2,0:0:0:0:
236,224,90100,1,2,0:0:0:0:
236,224,90181,1,0,0:0:0:0:
236,224,90262,1,0,0:0:0:0:
320,140,90343,1,2,0:0:0:0:
236,224,90424,1,0,0:0:0:0:
236,224,90505,1,2,0:0:0:0:
236,224,90586,1,0,0:0:0:0:
320,140,90667,1,0,0:0:0:0:
236,224,90749,1,2,0:0:0:0:
236,224,90830,1,2,0:0:0:0:
236,220,90911,1,0,0:0:0:0:
320,140,90992,1,0,0:0:0:0:
236,224,91073,1,2,0:0:0:0:
236,224,91154,1,0,0:0:0:0:
236,220,91235,1,0,0:0:0:0:
320,140,91316,1,2,0:0:0:0:
240,228,91397,1,0,0:0:0:0:
320,140,91478,1,0,0:0:0:0:
240,228,91559,1,0,0:0:0:0:
320,140,91640,1,2,0:0:0:0:
240,228,91722,1,0,0:0:0:0:
320,140,91803,1,2,0:0:0:0:
240,228,91884,1,2,0:0:0:0:
320,140,91965,1,0,0:0:0:0:
240,228,92046,1,2,0:0:0:0:
240,228,92127,1,0,0:0:0:0:
240,228,92208,1,0,0:0:0:0:
320,140,92289,1,2,0:0:0:0:
240,228,92370,1,2,0:0:0:0:
320,140,92451,1,0,0:0:0:0:
240,232,92532,1,0,0:0:0:0:
320,140,92613,1,2,0:0:0:0:
244,232,92695,1,2,0:0:0:0:
244,232,92776,1,0,0:0:0:0:
244,232,92857,1,0,0:0:0:0:
320,140,92938,1,2,0:0:0:0:
244,232,93019,1,0,0:0:0:0:
320,140,93100,1,2,0:0:0:0:
244,232,93181,1,0,0:0:0:0:
320,140,93262,1,0,0:0:0:0:
244,232,93343,1,0,0:0:0:0:
320,140,93424,1,2,0:0:0:0:
244,232,93505,1,2,0:0:0:0:
244,232,93586,1,0,0:0:0:0:
244,232,93667,1,2,0:0:0:0:
320,140,93749,1,2,0:0:0:0:
184,152,93830,1,0,0:0:0:0:
320,140,93911,1,2,0:0:0:0:
200,68,93992,1,2,0:0:0:0:
320,140,94073,1,0,0:0:0:0:
152,148,94154,1,0,0:0:0:0:
320,140,94235,1,2,0:0:0:0:
240,140,94316,1,0,0:0:0:0:
320,140,94397,1,2,0:0:0:0:
232,220,94478,1,0,0:0:0:0:
320,140,94559,1,0,0:0:0:0:
236,216,94640,1,0,0:0:0:0:
236,216,94722,1,2,0:0:0:0:
248,220,94803,1,2,0:0:0:0:
320,140,94884,1,0,0:0:0:0:
248,220,94965,1,2,0:0:0:0:
320,140,95046,1,2,0:0:0:0:
248,220,95127,1,0,0:0:0:0:
320,140,95208,1,0,0:0:0:0:
248,220,95289,1,2,0:0:0:0:
320,140,95370,1,4,0:0:0:0:
320,140,95532,1,0,0:0:0:0:
248,220,95613,1,0,0:0:0:0:
320,140,95695,1,2,0:0:0:0:
320,140,95857,1,4,0:0:0:0:
136,168,96181,1,0,0:0:0:0:
320,140,96343,1,2,0:0:0:0:
248,220,96424,1,2,0:0:0:0:
320,140,96505,1,2,0:0:0:0:
248,220,96586,1,2,0:0:0:0:
320,140,96668,1,4,0:0:0:0:
248,220,96992,1,0,0:0:0:0:
320,140,97154,1,6,0:0:0:0:
248,220,97478,1,0,0:0:0:0:
320,140,97640,1,2,0:0:0:0:
248,220,97722,1,0,0:0:0:0:
320,140,97803,1,0,0:0:0:0:
248,220,97884,1,2,0:0:0:0:
320,140,97965,1,0,0:0:0:0:
248,220,98046,1,0,0:0:0:0:
320,140,98127,1,2,0:0:0:0:
248,220,98208,1,0,0:0:0:0:
316,144,98289,1,2,0:0:0:0:
248,220,98370,1,0,0:0:0:0:
316,144,98451,1,0,0:0:0:0:
248,220,98532,1,0,0:0:0:0:
316,144,98613,1,2,0:0:0:0:
248,220,98695,1,0,0:0:0:0:
316,144,98776,1,0,0:0:0:0:
248,220,98857,1,2,0:0:0:0:
316,144,98938,1,0,0:0:0:0:
248,220,99019,1,0,0:0:0:0:
316,144,99100,1,2,0:0:0:0:
248,220,99181,1,0,0:0:0:0:
316,144,99262,1,0,0:0:0:0:
248,220,99343,1,0,0:0:0:0:
316,144,99424,1,2,0:0:0:0:
248,220,99505,1,0,0:0:0:0:
316,148,99586,1,2,0:0:0:0:
248,220,99667,1,0,0:0:0:0:
316,148,99749,1,0,0:0:0:0:
248,220,99830,1,2,0:0:0:0:
312,152,99911,1,0,0:0:0:0:
248,220,99992,1,0,0:0:0:0:
312,152,100073,1,2,0:0:0:0:
248,220,100154,1,2,0:0:0:0:
312,152,100235,1,0,0:0:0:0:
248,220,100316,1,0,0:0:0:0:
248,220,100397,1,2,0:0:0:0:
248,220,100478,1,2,0:0:0:0:
312,152,100559,1,0,0:0:0:0:
248,220,100640,1,0,0:0:0:0:
312,152,100722,1,2,0:0:0:0:
248,220,100803,1,0,0:0:0:0:
200,276,100884,1,2,0:0:0:0:
248,220,100965,1,0,0:0:0:0:
200,276,101046,1,0,0:0:0:0:
248,220,101127,1,0,0:0:0:0:
200,276,101208,1,2,0:0:0:0:
248,220,101289,1,0,0:0:0:0:
200,276,101370,1,0,0:0:0:0:
248,220,101451,1,2,0:0:0:0:
200,276,101532,1,0,0:0:0:0:
248,220,101613,1,0,0:0:0:0:
200,276,101695,1,2,0:0:0:0:
248,220,101776,1,0,0:0:0:0:
200,276,101857,1,0,0:0:0:0:
248,220,101938,1,0,0:0:0:0:
200,276,102019,1,2,0:0:0:0:
248,220,102100,1,0,0:0:0:0:
200,276,102181,1,2,0:0:0:0:
248,220,102262,1,0,0:0:0:0:
200,276,102343,1,0,0:0:0:0:
252,224,102424,1,2,0:0:0:0:
200,276,102505,1,0,0:0:0:0:
252,224,102586,1,0,0:0:0:0:
200,276,102668,1,2,0:0:0:0:
252,228,102749,1,2,0:0:0:0:
200,276,102830,1,0,0:0:0:0:
252,228,102911,1,2,0:0:0:0:
200,276,102992,1,0,0:0:0:0:
252,228,103073,1,2,0:0:0:0:
200,276,103154,1,0,0:0:0:0:
252,228,103235,1,0,0:0:0:0:
200,276,103316,1,2,0:0:0:0:
252,228,103397,1,0,0:0:0:0:
200,276,103478,1,2,0:0:0:0:
116,188,103559,1,0,0:0:0:0:
200,276,103640,1,0,0:0:0:0:
180,208,103722,1,0,0:0:0:0:
220,204,103803,1,2,0:0:0:0:
180,208,103884,1,0,0:0:0:0:
200,276,103965,1,0,0:0:0:0:
236,212,104046,1,2,0:0:0:0:
200,276,104127,1,0,0:0:0:0:
236,212,104208,1,0,0:0:0:0:
236,212,104289,1,2,0:0:0:0:
248,216,104370,1,0,0:0:0:0:
252,216,104451,1,0,0:0:0:0:
252,216,104532,1,0,0:0:0:0:
200,276,104613,1,2,0:0:0:0:
252,216,104695,1,0,0:0:0:0:
200,276,104776,1,2,0:0:0:0:
252,216,104857,1,0,0:0:0:0:
200,276,104938,1,0,0:0:0:0:
60,184,105019,1,0,0:0:0:0:
232,212,105100,1,2,0:0:0:0:
236,216,105181,1,2,0:0:0:0:
200,276,105262,1,0,0:0:0:0:
236,216,105343,1,0,0:0:0:0:
200,276,105424,1,2,0:0:0:0:
216,192,105505,1,0,0:0:0:0:
200,276,105586,1,2,0:0:0:0:
216,192,105667,1,2,0:0:0:0:
200,276,105749,1,4,0:0:0:0:
200,276,105911,1,0,0:0:0:0:
200,276,106073,1,2,0:0:0:0:
200,276,106235,1,6,0:0:0:0:
200,276,106559,1,0,0:0:0:0:
200,276,106722,1,2,0:0:0:0:
128,192,106803,1,2,0:0:0:0:
200,276,106884,1,2,0:0:0:0:
140,196,106965,1,2,0:0:0:0:
200,276,107046,1,4,0:0:0:0:
200,276,107208,1,0,0:0:0:0:
200,276,107370,1,2,0:0:0:0:
200,276,107532,1,6,0:0:0:0:
200,276,107857,1,2,0:0:0:0:
200,276,108019,1,0,0:0:0:0:
96,180,108100,1,2,0:0:0:0:
200,276,108181,1,0,0:0:0:0:
176,200,108262,1,0,0:0:0:0:
200,276,108343,1,6,0:0:0:0:
176,176,108667,1,6,0:0:0:0:
184,192,108830,1,6,0:0:0:0:
196,192,109154,1,6,0:0:0:0:
200,276,109478,1,4,0:0:0:0:
