osu file format v14

[General]
AudioFilename: DJ Genki - ForceMotion.mp3
AudioLeadIn: 0
PreviewTime: 136003
Countdown: 0
SampleSet: Soft
StackLeniency: 0.7
Mode: 3
LetterboxInBreaks: 0
SpecialStyle: 0
WidescreenStoryboard: 0

[Editor]
DistanceSpacing: 0.5
BeatDivisor: 4
GridSize: 32
TimelineZoom: 2.6

[Metadata]
Title:ForceMotion
TitleUnicode:ForceMotion
Artist:DJ Genki
ArtistUnicode:DJ Genki
Creator:game rock
Version:Powerfull
Source:
Tags:Starry Orange Disc 2: DJ Genki "THE BEST" ForceMotion Comiket 86 JessiChan
BeatmapID:1184963
BeatmapSetID:560331

[Difficulty]
HPDrainRate:8
CircleSize:4
OverallDifficulty:8.5
ApproachRate:5
SliderMultiplier:1.4
SliderTickRate:1

[Events]
//Background and Video events
0,0,"BG.jpg",0,0
//Break Periods
//Storyboard Layer 0 (Background)
//Storyboard Layer 1 (Fail)
//Storyboard Layer 2 (Pass)
//Storyboard Layer 3 (Foreground)
//Storyboard Sound Samples

[TimingPoints]
1180,352.941176470588,4,2,1,40,1,0
46356,-100,4,2,1,40,0,1
68944,-100,4,2,1,40,0,0
136709,-100,4,2,1,40,0,1
159121,-100,4,2,1,40,0,0
159297,-100,4,2,1,40,0,1
181885,-100,4,2,1,40,0,0
193179,-100,4,2,1,40,0,1
203062,-100,4,2,1,40,0,0
204474,-100,4,2,1,40,0,1
226885,-100,4,2,1,40,0,0
227062,-100,4,2,1,40,0,1
249650,-100,4,2,1,40,0,0

[HitObjects]
192,192,1180,5,0,0:0:0:0:
320,192,1180,1,0,0:0:0:0:
448,192,1180,1,2,0:0:0:0:
64,192,1180,1,4,0:0:0:0:
448,192,1532,1,0,0:0:0:0:
320,192,1532,1,8,0:0:0:0:
64,192,1885,1,0,0:0:0:0:
192,192,1885,1,2,0:0:0:0:
192,192,2238,1,8,0:0:0:0:
448,192,2238,1,0,0:0:0:0:
192,192,2591,1,0,0:0:0:0:
320,192,2591,1,2,0:0:0:0:
192,192,2944,1,8,0:0:0:0:
64,192,2944,1,0,0:0:0:0:
320,192,3297,1,2,0:0:0:0:
64,192,3297,1,0,0:0:0:0:
320,192,3650,1,8,0:0:0:0:
448,192,3650,1,0,0:0:0:0:
192,192,4003,1,0,0:0:0:0:
320,192,4003,1,2,0:0:0:0:
64,192,4356,1,0,0:0:0:0:
448,192,4356,1,8,0:0:0:0:
64,192,4709,1,0,0:0:0:0:
320,192,4709,1,2,0:0:0:0:
448,192,5062,1,8,0:0:0:0:
192,192,5062,1,0,0:0:0:0:
64,192,5415,1,0,0:0:0:0:
192,192,5415,1,2,0:0:0:0:
320,192,5768,1,0,0:0:0:0:
448,192,5768,1,8,0:0:0:0:
192,192,6121,1,0,0:0:0:0:
320,192,6121,1,2,0:0:0:0:
64,192,6474,1,0,0:0:0:0:
448,192,6474,1,8,0:0:0:0:
192,192,6827,1,0,0:0:0:0:
320,192,6827,1,2,0:0:0:0:
448,192,7179,1,8,0:0:0:0:
320,192,7179,1,0,0:0:0:0:
64,192,7532,1,0,0:0:0:0:
192,192,7532,1,2,0:0:0:0:
192,192,7885,1,0,0:0:0:0:
448,192,7885,1,8,0:0:0:0:
192,192,8238,1,0,0:0:0:0:
320,192,8238,1,2,0:0:0:0:
64,192,8591,1,0,0:0:0:0:
192,192,8591,1,8,0:0:0:0:
320,192,8944,1,2,0:0:0:0:
64,192,8944,1,0,0:0:0:0:
320,192,9297,1,0,0:0:0:0:
448,192,9297,1,8,0:0:0:0:
192,192,9650,1,0,0:0:0:0:
320,192,9650,1,2,0:0:0:0:
64,192,10003,1,0,0:0:0:0:
448,192,10003,1,8,0:0:0:0:
64,192,10356,1,0,0:0:0:0:
320,192,10356,1,2,0:0:0:0:
192,192,10709,1,0,0:0:0:0:
448,192,10709,1,8,0:0:0:0:
64,192,11062,1,0,0:0:0:0:
192,192,11062,1,2,0:0:0:0:
320,192,11415,1,0,0:0:0:0:
448,192,11415,1,8,0:0:0:0:
192,192,11768,1,0,0:0:0:0:
320,192,11768,1,2,0:0:0:0:
64,192,12121,1,0,0:0:0:0:
448,192,12121,1,8,0:0:0:0:
64,192,12474,1,4,0:0:0:0:
192,192,12474,1,0,0:0:0:0:
320,192,12474,1,2,0:0:0:0:
448,192,12474,1,8,1:0:0:0:
192,192,12827,1,8,0:0:0:0:
320,192,12827,1,0,0:0:0:0:
448,192,12827,1,8,1:0:0:0:
64,192,13179,1,2,0:0:0:0:
192,192,13179,1,8,1:0:0:0:
64,192,13532,1,8,0:0:0:0:
320,192,13532,1,0,0:0:0:0:
448,192,13532,1,8,1:0:0:0:
448,192,13885,1,2,0:0:0:0:
192,192,13885,1,8,1:0:0:0:
64,192,14238,1,8,1:0:0:0:
192,192,14238,1,0,0:0:0:0:
320,192,14238,1,8,0:0:0:0:
448,192,14591,1,2,0:0:0:0:
320,192,14591,1,8,1:0:0:0:
64,192,14944,1,8,1:0:0:0:
192,192,14944,1,8,0:0:0:0:
320,192,14944,1,0,0:0:0:0:
448,192,15121,1,8,1:0:0:0:
320,192,15209,1,8,1:0:0:0:
192,192,15297,1,8,1:0:0:0:
64,192,15297,1,2,0:0:0:0:
192,192,15650,1,8,1:0:0:0:
320,192,15650,1,0,0:0:0:0:
448,192,15650,1,8,0:0:0:0:
192,192,16003,1,8,1:0:0:0:
320,192,16003,1,2,0:0:0:0:
64,192,16356,1,8,1:0:0:0:
320,192,16356,1,0,0:0:0:0:
448,192,16356,1,8,0:0:0:0:
64,192,16709,1,2,0:0:0:0:
192,192,16709,1,8,1:0:0:0:
448,192,17062,1,0,0:0:0:0:
64,192,17062,1,8,1:0:0:0:
320,192,17062,1,8,0:0:0:0:
64,192,17415,1,2,0:0:0:0:
448,192,17415,1,8,1:0:0:0:
192,192,17591,1,8,1:0:0:0:
448,192,17768,1,8,1:0:0:0:
64,192,17768,1,8,0:0:0:0:
320,192,17856,1,8,1:0:0:0:
64,192,17944,1,8,1:0:0:0:
192,192,18032,1,8,1:0:0:0:
320,192,18121,1,8,1:0:0:0:
448,192,18121,1,2,0:0:0:0:
320,192,18297,1,8,1:0:0:0:
64,192,18474,1,8,0:0:0:0:
192,192,18474,1,0,0:0:0:0:
448,192,18474,1,8,1:0:0:0:
192,192,18650,1,8,1:0:0:0:
448,192,18827,1,8,1:0:0:0:
64,192,18827,1,2,0:0:0:0:
448,192,19003,1,8,1:0:0:0:
320,192,19179,1,8,0:0:0:0:
64,192,19179,1,8,1:0:0:0:
192,192,19268,1,8,1:0:0:0:
448,192,19356,1,8,1:0:0:0:
320,192,19444,1,8,1:0:0:0:
192,192,19532,1,8,1:0:0:0:
64,192,19532,1,2,0:0:0:0:
448,192,19709,1,8,1:0:0:0:
64,192,19885,1,8,0:0:0:0:
192,192,19885,1,0,0:0:0:0:
320,192,19885,1,8,1:0:0:0:
448,192,20062,1,8,1:0:0:0:
64,192,20238,1,8,1:0:0:0:
320,192,20238,1,2,0:0:0:0:
192,192,20415,1,8,1:0:0:0:
64,192,20591,1,8,0:0:0:0:
448,192,20591,1,8,1:0:0:0:
320,192,20679,1,8,1:0:0:0:
64,192,20768,1,8,1:0:0:0:
192,192,20856,1,8,1:0:0:0:
64,192,20944,1,8,1:0:0:0:
448,192,20944,1,2,0:0:0:0:
320,192,21032,1,8,1:0:0:0:
192,192,21121,1,8,1:0:0:0:
320,192,21209,1,8,1:0:0:0:
64,192,21297,1,8,0:0:0:0:
448,192,21297,1,8,1:0:0:0:
192,192,21385,1,8,1:0:0:0:
320,192,21474,1,8,1:0:0:0:
192,192,21562,1,8,1:0:0:0:
448,192,21650,1,2,0:0:0:0:
64,192,21650,1,8,1:0:0:0:
448,192,21738,1,8,1:0:0:0:
64,192,21827,1,8,1:0:0:0:
192,192,21915,1,8,1:0:0:0:
448,192,22003,1,8,0:0:0:0:
320,192,22003,1,8,1:0:0:0:
192,192,22091,1,8,1:0:0:0:
64,192,22179,1,8,1:0:0:0:
320,192,22268,1,8,1:0:0:0:
192,192,22356,1,2,0:0:0:0:
448,192,22356,128,0,23768:0:0:0:0:
64,192,22532,1,0,0:0:0:0:
192,192,22709,1,0,0:0:0:0:
320,192,22709,1,8,0:0:0:0:
64,192,22885,1,0,0:0:0:0:
320,192,23062,1,0,0:0:0:0:
64,192,23238,1,0,0:0:0:0:
192,192,23415,1,0,0:0:0:0:
320,192,23415,1,8,0:0:0:0:
64,192,23591,1,0,0:0:0:0:
64,192,23768,1,4,0:0:0:0:
192,192,23768,1,2,0:0:0:0:
320,192,23768,1,0,0:0:0:0:
448,192,23944,1,0,0:0:0:0:
64,192,24121,1,0,0:0:0:0:
192,192,24121,1,0,0:0:0:0:
320,192,24121,1,8,0:0:0:0:
448,192,24297,1,0,0:0:0:0:
320,192,24474,1,2,0:0:0:0:
192,192,24474,1,0,0:0:0:0:
64,192,24650,1,0,0:0:0:0:
192,192,24827,1,8,0:0:0:0:
320,192,24827,1,0,0:0:0:0:
448,192,24827,1,0,0:0:0:0:
64,192,25003,1,0,0:0:0:0:
192,192,25179,1,0,0:0:0:0:
320,192,25179,1,2,0:0:0:0:
448,192,25356,1,0,0:0:0:0:
64,192,25532,1,0,0:0:0:0:
192,192,25532,1,0,0:0:0:0:
320,192,25532,1,0,0:0:0:0:
448,192,25709,1,8,0:0:0:0:
320,192,25885,1,2,0:0:0:0:
64,192,25885,1,0,0:0:0:0:
192,192,26062,1,0,0:0:0:0:
64,192,26238,1,8,0:0:0:0:
448,192,26238,1,0,0:0:0:0:
320,192,26238,1,0,0:0:0:0:
192,192,26415,1,0,0:0:0:0:
320,192,26591,1,0,0:0:0:0:
448,192,26591,1,2,0:0:0:0:
64,192,26768,1,0,0:0:0:0:
192,192,26944,1,8,0:0:0:0:
448,192,26944,1,0,0:0:0:0:
320,192,26944,1,0,0:0:0:0:
320,192,27121,1,0,0:0:0:0:
64,192,27297,1,0,0:0:0:0:
192,192,27297,1,2,0:0:0:0:
320,192,27474,1,0,0:0:0:0:
448,192,27650,1,8,0:0:0:0:
320,192,27650,1,0,0:0:0:0:
64,192,27650,1,0,0:0:0:0:
192,192,27827,1,0,0:0:0:0:
320,192,28003,1,2,0:0:0:0:
64,192,28003,1,0,0:0:0:0:
448,192,28179,1,0,0:0:0:0:
64,192,28356,1,0,0:0:0:0:
320,192,28356,1,0,0:0:0:0:
192,192,28356,1,8,0:0:0:0:
192,192,28532,1,0,0:0:0:0:
448,192,28709,1,0,0:0:0:0:
64,192,28709,1,2,0:0:0:0:
320,192,28885,1,0,0:0:0:0:
64,192,29062,1,0,0:0:0:0:
192,192,29062,1,0,0:0:0:0:
448,192,29062,1,8,0:0:0:0:
320,192,29238,1,0,0:0:0:0:
192,192,29415,1,0,0:0:0:0:
64,192,29415,1,0,0:0:0:0:
320,192,29591,1,0,0:0:0:0:
64,192,29768,1,0,0:0:0:0:
320,192,29768,1,8,0:0:0:0:
192,192,29768,1,0,0:0:0:0:
448,192,29944,1,0,0:0:0:0:
320,192,30121,1,2,0:0:0:0:
192,192,30121,1,0,0:0:0:0:
64,192,30297,1,0,0:0:0:0:
192,192,30474,1,8,0:0:0:0:
320,192,30474,1,0,0:0:0:0:
448,192,30474,1,0,0:0:0:0:
64,192,30650,1,0,0:0:0:0:
192,192,30827,1,0,0:0:0:0:
448,192,30827,1,0,0:0:0:0:
320,192,31003,1,2,0:0:0:0:
192,192,31179,1,0,0:0:0:0:
448,192,31179,1,8,0:0:0:0:
64,192,31179,1,0,0:0:0:0:
320,192,31356,1,0,0:0:0:0:
192,192,31532,1,2,0:0:0:0:
64,192,31532,1,0,0:0:0:0:
448,192,31709,1,0,0:0:0:0:
320,192,31885,1,0,0:0:0:0:
448,192,31885,1,0,0:0:0:0:
64,192,31885,1,8,0:0:0:0:
192,192,32062,1,0,0:0:0:0:
448,192,32238,1,2,0:0:0:0:
320,192,32238,1,0,0:0:0:0:
64,192,32415,1,0,0:0:0:0:
192,192,32591,1,8,0:0:0:0:
448,192,32591,1,0,0:0:0:0:
320,192,32591,1,0,0:0:0:0:
320,192,32768,1,0,0:0:0:0:
192,192,32944,1,2,0:0:0:0:
64,192,32944,1,0,0:0:0:0:
320,192,33121,1,0,0:0:0:0:
64,192,33297,1,0,0:0:0:0:
448,192,33297,1,8,0:0:0:0:
320,192,33297,1,0,0:0:0:0:
192,192,33474,1,0,0:0:0:0:
320,192,33650,1,2,0:0:0:0:
64,192,33650,1,0,0:0:0:0:
448,192,33827,1,0,0:0:0:0:
192,192,34003,1,8,0:0:0:0:
320,192,34003,1,0,0:0:0:0:
64,192,34003,1,0,0:0:0:0:
192,192,34179,1,0,0:0:0:0:
64,192,34356,1,2,0:0:0:0:
448,192,34356,1,0,0:0:0:0:
320,192,34532,1,0,0:0:0:0:
448,192,34709,1,8,0:0:0:0:
64,192,34709,1,0,0:0:0:0:
192,192,34709,1,0,0:0:0:0:
320,192,34885,1,0,0:0:0:0:
64,192,35062,1,4,0:0:0:0:
192,192,35062,1,0,0:0:0:0:
448,192,35062,1,0,0:0:0:0:
320,192,35062,1,8,1:0:0:0:
192,192,35238,1,0,0:0:0:0:
64,192,35415,1,8,1:0:0:0:
448,192,35415,1,8,0:0:0:0:
320,192,35415,1,0,0:0:0:0:
192,192,35591,1,0,0:0:0:0:
448,192,35768,1,8,1:0:0:0:
64,192,35768,1,2,0:0:0:0:
320,192,35944,1,0,0:0:0:0:
192,192,36121,1,8,1:0:0:0:
320,192,36121,1,0,0:0:0:0:
64,192,36121,1,8,0:0:0:0:
448,192,36297,1,0,0:0:0:0:
64,192,36474,1,2,0:0:0:0:
320,192,36474,1,0,0:0:0:0:
192,192,36650,1,8,1:0:0:0:
448,192,36827,1,8,1:0:0:0:
64,192,36827,1,8,0:0:0:0:
320,192,36827,1,0,0:0:0:0:
192,192,37003,1,0,0:0:0:0:
64,192,37179,1,8,1:0:0:0:
320,192,37179,1,2,0:0:0:0:
448,192,37356,1,0,0:0:0:0:
448,192,37532,1,8,1:0:0:0:
64,192,37532,1,2,0:0:0:0:
320,192,37532,1,0,0:0:0:0:
192,192,37709,1,8,1:0:0:0:
320,192,37797,1,8,1:0:0:0:
448,192,37885,1,8,1:0:0:0:
64,192,37885,1,0,0:0:0:0:
192,192,38062,1,0,0:0:0:0:
64,192,38238,1,8,1:0:0:0:
320,192,38238,1,0,0:0:0:0:
448,192,38238,1,8,0:0:0:0:
320,192,38415,1,0,0:0:0:0:
192,192,38591,1,2,0:0:0:0:
64,192,38591,1,8,1:0:0:0:
320,192,38768,1,0,0:0:0:0:
64,192,38944,1,8,0:0:0:0:
320,192,38944,1,0,0:0:0:0:
448,192,38944,1,8,1:0:0:0:
192,192,39121,1,2,0:0:0:0:
64,192,39297,1,0,0:0:0:0:
320,192,39297,1,8,1:0:0:0:
448,192,39474,1,0,0:0:0:0:
64,192,39650,1,8,0:0:0:0:
320,192,39650,1,8,1:0:0:0:
192,192,39650,1,0,0:0:0:0:
192,192,39827,1,0,0:0:0:0:
448,192,40003,1,2,0:0:0:0:
320,192,40003,1,8,1:0:0:0:
64,192,40003,1,0,0:0:0:0:
192,192,40179,1,8,1:0:0:0:
320,192,40356,1,8,0:0:0:0:
64,192,40356,1,8,1:0:0:0:
448,192,40444,1,8,1:0:0:0:
64,192,40532,1,8,1:0:0:0:
192,192,40621,1,8,1:0:0:0:
320,192,40709,1,2,0:0:0:0:
448,192,40709,1,8,1:0:0:0:
64,192,40885,1,8,1:0:0:0:
448,192,41062,1,8,0:0:0:0:
320,192,41062,1,0,0:0:0:0:
192,192,41062,1,8,1:0:0:0:
320,192,41238,1,8,1:0:0:0:
192,192,41415,1,8,1:0:0:0:
64,192,41415,1,2,0:0:0:0:
320,192,41591,1,8,1:0:0:0:
64,192,41768,1,8,1:0:0:0:
448,192,41856,1,8,1:0:0:0:
64,192,41944,1,8,1:0:0:0:
448,192,42032,1,8,1:0:0:0:
192,192,42121,1,8,1:0:0:0:
320,192,42121,1,2,0:0:0:0:
320,192,42297,1,8,1:0:0:0:
64,192,42474,1,8,0:0:0:0:
448,192,42474,1,8,1:0:0:0:
192,192,42474,1,0,0:0:0:0:
192,192,42650,1,8,1:0:0:0:
64,192,42827,1,8,1:0:0:0:
448,192,42827,1,2,0:0:0:0:
320,192,43003,1,8,1:0:0:0:
64,192,43179,1,8,1:0:0:0:
448,192,43179,1,8,0:0:0:0:
192,192,43268,1,8,1:0:0:0:
320,192,43356,1,8,1:0:0:0:
192,192,43444,1,8,1:0:0:0:
64,192,43532,5,2,0:0:0:0:
448,192,43532,1,8,1:0:0:0:
320,192,43621,1,8,1:0:0:0:
64,192,43709,1,8,1:0:0:0:
192,192,43797,1,8,1:0:0:0:
320,192,43885,1,8,0:0:0:0:
448,192,43885,1,8,1:0:0:0:
64,192,43974,1,8,1:0:0:0:
320,192,44062,1,8,1:0:0:0:
192,192,44150,1,8,1:0:0:0:
64,192,44238,1,8,1:0:0:0:
448,192,44238,1,2,0:0:0:0:
320,192,44327,1,8,1:0:0:0:
192,192,44415,1,8,1:0:0:0:
448,192,44503,1,8,1:0:0:0:
192,192,44591,1,8,0:0:0:0:
64,192,44591,1,8,1:0:0:0:
320,192,44679,1,8,1:0:0:0:
448,192,44768,1,8,1:0:0:0:
320,192,44856,1,8,1:0:0:0:
192,192,44944,1,2,0:0:0:0:
64,192,44944,128,0,45650:0:0:0:0:
448,192,45121,1,0,0:0:0:0:
320,192,45297,5,8,0:0:0:0:
448,192,45297,1,0,0:0:0:0:
192,192,45474,1,0,0:0:0:0:
448,192,45650,128,0,46003:0:0:0:0:
320,192,45650,1,0,0:0:0:0:
64,192,45827,1,0,0:0:0:0:
192,192,46003,1,0,0:0:0:0:
320,192,46003,1,4,0:0:0:0:
64,192,46003,1,8,0:0:0:0:
64,192,46356,5,4,0:0:0:0:
192,192,46356,1,2,0:0:0:0:
320,192,46356,1,0,0:0:0:0:
448,192,46356,1,0,0:0:0:0:
320,192,46532,1,0,0:0:0:0:
192,192,46709,1,8,0:0:0:0:
64,192,46709,1,0,0:0:0:0:
448,192,46709,1,0,0:0:0:0:
320,192,46885,1,0,0:0:0:0:
192,192,47062,1,2,0:0:0:0:
64,192,47062,1,0,0:0:0:0:
320,192,47238,1,0,0:0:0:0:
192,192,47327,1,0,0:0:0:0:
64,192,47415,1,0,0:0:0:0:
320,192,47415,1,8,0:0:0:0:
448,192,47415,1,0,0:0:0:0:
192,192,47591,1,0,0:0:0:0:
320,192,47768,1,2,0:0:0:0:
448,192,47768,1,0,0:0:0:0:
192,192,47944,1,0,0:0:0:0:
64,192,48121,1,0,0:0:0:0:
320,192,48121,1,8,0:0:0:0:
448,192,48121,1,0,0:0:0:0:
64,192,48297,1,0,0:0:0:0:
448,192,48474,1,0,0:0:0:0:
192,192,48474,1,2,0:0:0:0:
64,192,48650,1,0,0:0:0:0:
192,192,48738,1,0,0:0:0:0:
320,192,48827,1,8,0:0:0:0:
64,192,48827,1,0,0:0:0:0:
448,192,48827,1,0,0:0:0:0:
320,192,49003,1,0,0:0:0:0:
320,192,49179,1,2,0:0:0:0:
192,192,49179,1,0,0:0:0:0:
448,192,49356,1,0,0:0:0:0:
320,192,49532,1,8,0:0:0:0:
192,192,49532,1,0,0:0:0:0:
64,192,49532,1,0,0:0:0:0:
448,192,49709,1,0,0:0:0:0:
64,192,49885,1,0,0:0:0:0:
192,192,49885,1,2,0:0:0:0:
320,192,50062,1,0,0:0:0:0:
192,192,50150,1,0,0:0:0:0:
64,192,50238,1,0,0:0:0:0:
448,192,50238,1,0,0:0:0:0:
320,192,50238,1,8,0:0:0:0:
192,192,50415,1,0,0:0:0:0:
64,192,50591,1,0,0:0:0:0:
320,192,50591,1,2,0:0:0:0:
192,192,50768,1,0,0:0:0:0:
192,192,50944,1,0,0:0:0:0:
320,192,50944,1,8,0:0:0:0:
448,192,50944,1,0,0:0:0:0:
64,192,51121,1,0,0:0:0:0:
192,192,51297,1,0,0:0:0:0:
320,192,51297,1,2,0:0:0:0:
448,192,51474,1,0,0:0:0:0:
192,192,51562,1,0,0:0:0:0:
320,192,51650,1,8,0:0:0:0:
64,192,51650,1,0,0:0:0:0:
448,192,51650,1,0,0:0:0:0:
192,192,51738,1,0,0:0:0:0:
448,192,51827,1,0,0:0:0:0:
64,192,52003,1,0,0:0:0:0:
320,192,52003,1,2,0:0:0:0:
192,192,52179,1,0,0:0:0:0:
448,192,52356,1,0,0:0:0:0:
320,192,52356,1,8,0:0:0:0:
192,192,52356,1,0,0:0:0:0:
64,192,52532,1,0,0:0:0:0:
192,192,52709,1,0,0:0:0:0:
320,192,52709,1,2,0:0:0:0:
448,192,52885,1,0,0:0:0:0:
320,192,52974,1,0,0:0:0:0:
192,192,53062,1,0,0:0:0:0:
64,192,53150,1,0,0:0:0:0:
448,192,53238,1,0,0:0:0:0:
320,192,53415,1,2,0:0:0:0:
64,192,53415,1,0,0:0:0:0:
192,192,53591,1,0,0:0:0:0:
320,192,53768,1,8,0:0:0:0:
448,192,53768,1,0,0:0:0:0:
192,192,53768,1,0,0:0:0:0:
64,192,53944,1,0,0:0:0:0:
192,192,54121,1,2,0:0:0:0:
448,192,54121,1,0,0:0:0:0:
320,192,54297,1,0,0:0:0:0:
192,192,54385,1,0,0:0:0:0:
64,192,54474,1,0,0:0:0:0:
192,192,54562,1,0,0:0:0:0:
320,192,54650,1,0,0:0:0:0:
64,192,54827,1,0,0:0:0:0:
448,192,54827,1,2,0:0:0:0:
448,192,55003,1,0,0:0:0:0:
64,192,55179,1,0,0:0:0:0:
192,192,55179,1,0,0:0:0:0:
320,192,55179,1,8,0:0:0:0:
320,192,55356,1,0,0:0:0:0:
448,192,55532,1,0,0:0:0:0:
192,192,55532,1,2,0:0:0:0:
64,192,55709,1,0,0:0:0:0:
320,192,55797,1,0,0:0:0:0:
192,192,55885,1,0,0:0:0:0:
448,192,55974,1,0,0:0:0:0:
320,192,56062,1,0,0:0:0:0:
64,192,56238,1,0,0:0:0:0:
192,192,56238,1,2,0:0:0:0:
320,192,56415,1,0,0:0:0:0:
64,192,56591,1,0,0:0:0:0:
192,192,56591,1,0,0:0:0:0:
448,192,56591,1,8,0:0:0:0:
320,192,56768,1,0,0:0:0:0:
192,192,56944,1,2,0:0:0:0:
448,192,56944,1,0,0:0:0:0:
320,192,57121,1,0,0:0:0:0:
448,192,57209,1,0,0:0:0:0:
192,192,57297,1,0,0:0:0:0:
64,192,57297,1,8,0:0:0:0:
448,192,57385,1,0,0:0:0:0:
320,192,57474,1,0,0:0:0:0:
320,192,57650,1,2,0:0:0:0:
64,192,57650,1,8,1:0:0:0:
448,192,57650,1,4,0:0:0:0:
192,192,57650,1,0,0:0:0:0:
192,192,57827,1,0,0:0:0:0:
64,192,58003,1,8,1:0:0:0:
448,192,58003,1,0,0:0:0:0:
320,192,58003,1,8,0:0:0:0:
320,192,58179,1,0,0:0:0:0:
192,192,58356,1,2,0:0:0:0:
64,192,58356,1,8,1:0:0:0:
320,192,58532,1,0,0:0:0:0:
192,192,58621,1,0,0:0:0:0:
64,192,58709,1,8,1:0:0:0:
320,192,58709,1,0,0:0:0:0:
448,192,58709,1,8,0:0:0:0:
192,192,58885,1,0,0:0:0:0:
320,192,59062,1,2,0:0:0:0:
448,192,59062,1,8,1:0:0:0:
192,192,59238,1,0,0:0:0:0:
64,192,59415,1,8,1:0:0:0:
320,192,59415,1,0,0:0:0:0:
448,192,59415,1,8,0:0:0:0:
64,192,59591,1,0,0:0:0:0:
448,192,59768,1,8,1:0:0:0:
192,192,59768,1,2,0:0:0:0:
64,192,59944,1,0,0:0:0:0:
192,192,60032,1,0,0:0:0:0:
448,192,60121,1,8,0:0:0:0:
320,192,60121,1,0,0:0:0:0:
64,192,60121,1,8,1:0:0:0:
320,192,60297,1,0,0:0:0:0:
192,192,60474,1,8,1:0:0:0:
320,192,60474,1,2,0:0:0:0:
448,192,60650,1,0,0:0:0:0:
320,192,60827,1,8,0:0:0:0:
192,192,60827,1,0,0:0:0:0:
64,192,60827,1,8,1:0:0:0:
448,192,61003,1,0,0:0:0:0:
64,192,61179,1,2,0:0:0:0:
192,192,61179,1,8,1:0:0:0:
320,192,61356,1,0,0:0:0:0:
192,192,61444,1,0,0:0:0:0:
320,192,61532,1,8,0:0:0:0:
64,192,61532,1,8,1:0:0:0:
448,192,61532,1,0,0:0:0:0:
192,192,61709,1,0,0:0:0:0:
320,192,61885,1,2,0:0:0:0:
64,192,61885,1,8,1:0:0:0:
192,192,62062,1,0,0:0:0:0:
448,192,62238,1,8,1:0:0:0:
320,192,62238,1,0,0:0:0:0:
192,192,62238,1,8,0:0:0:0:
64,192,62415,1,0,0:0:0:0:
320,192,62591,1,2,0:0:0:0:
192,192,62591,1,8,1:0:0:0:
448,192,62768,1,0,0:0:0:0:
192,192,62856,1,0,0:0:0:0:
64,192,62944,1,8,1:0:0:0:
448,192,62944,1,8,0:0:0:0:
320,192,63032,1,8,1:0:0:0:
192,192,63121,1,8,1:0:0:0:
448,192,63209,1,8,1:0:0:0:
64,192,63297,1,8,1:0:0:0:
320,192,63297,1,2,0:0:0:0:
192,192,63474,1,8,1:0:0:0:
320,192,63650,1,0,0:0:0:0:
192,192,63650,1,8,0:0:0:0:
448,192,63650,1,8,1:0:0:0:
64,192,63827,1,8,1:0:0:0:
192,192,64003,1,8,1:0:0:0:
320,192,64003,1,2,0:0:0:0:
448,192,64179,1,8,1:0:0:0:
64,192,64356,1,8,1:0:0:0:
448,192,64356,1,8,0:0:0:0:
320,192,64444,1,8,1:0:0:0:
192,192,64532,1,8,1:0:0:0:
448,192,64621,1,8,1:0:0:0:
320,192,64709,1,8,1:0:0:0:
64,192,64709,1,2,0:0:0:0:
192,192,64885,1,8,1:0:0:0:
192,192,65062,1,8,0:0:0:0:
320,192,65062,1,0,0:0:0:0:
448,192,65062,1,8,1:0:0:0:
64,192,65238,1,8,1:0:0:0:
448,192,65415,1,8,1:0:0:0:
192,192,65415,1,2,0:0:0:0:
64,192,65591,1,8,1:0:0:0:
448,192,65768,1,8,0:0:0:0:
64,192,65768,1,8,1:0:0:0:
320,192,65856,1,8,1:0:0:0:
192,192,65944,1,8,1:0:0:0:
320,192,66032,1,8,1:0:0:0:
448,192,66121,1,2,0:0:0:0:
64,192,66121,1,8,1:0:0:0:
192,192,66209,1,8,1:0:0:0:
320,192,66297,1,8,1:0:0:0:
192,192,66385,1,8,1:0:0:0:
64,192,66474,1,8,1:0:0:0:
448,192,66474,1,8,0:0:0:0:
192,192,66562,1,8,1:0:0:0:
320,192,66650,1,8,1:0:0:0:
448,192,66738,1,8,1:0:0:0:
320,192,66827,1,2,0:0:0:0:
64,192,66827,1,8,1:0:0:0:
192,192,66915,1,8,1:0:0:0:
64,192,67003,1,8,1:0:0:0:
192,192,67091,1,8,1:0:0:0:
320,192,67179,1,8,1:0:0:0:
448,192,67179,1,8,0:0:0:0:
192,192,67268,1,8,1:0:0:0:
64,192,67356,1,8,1:0:0:0:
192,192,67444,1,8,1:0:0:0:
448,192,67532,128,0,68944:0:0:0:0:
320,192,67532,1,2,0:0:0:0:
64,192,67532,1,0,0:0:0:0:
192,192,67709,1,0,0:0:0:0:
64,192,67885,1,0,0:0:0:0:
320,192,67885,1,8,0:0:0:0:
192,192,68062,1,0,0:0:0:0:
64,192,68238,1,0,0:0:0:0:
192,192,68238,1,2,0:0:0:0:
320,192,68415,1,0,0:0:0:0:
192,192,68503,1,0,0:0:0:0:
64,192,68591,1,0,0:0:0:0:
320,192,68591,1,8,0:0:0:0:
192,192,68768,1,0,0:0:0:0:
64,192,68944,1,2,0:0:0:0:
320,192,68944,128,4,71768:0:0:0:0:
192,192,69121,1,0,0:0:0:0:
448,192,69297,1,0,0:0:0:0:
64,192,69474,1,0,0:0:0:0:
192,192,69650,1,0,0:0:0:0:
448,192,69827,1,0,0:0:0:0:
64,192,70003,1,0,0:0:0:0:
448,192,70179,1,0,0:0:0:0:
64,192,70356,1,0,0:0:0:0:
192,192,70532,1,0,0:0:0:0:
448,192,70709,1,0,0:0:0:0:
64,192,70885,1,0,0:0:0:0:
192,192,71062,1,0,0:0:0:0:
448,192,71238,1,0,0:0:0:0:
64,192,71415,1,0,0:0:0:0:
448,192,71591,1,0,0:0:0:0:
192,192,71768,128,0,74591:0:0:0:0:
448,192,71768,1,0,0:0:0:0:
320,192,71944,1,0,0:0:0:0:
64,192,72121,1,0,0:0:0:0:
448,192,72297,1,0,0:0:0:0:
320,192,72474,1,0,0:0:0:0:
64,192,72650,1,0,0:0:0:0:
448,192,72827,1,0,0:0:0:0:
64,192,73003,1,0,0:0:0:0:
448,192,73179,1,0,0:0:0:0:
320,192,73356,1,0,0:0:0:0:
64,192,73532,1,0,0:0:0:0:
448,192,73709,1,0,0:0:0:0:
320,192,73885,1,0,0:0:0:0:
64,192,74062,1,0,0:0:0:0:
448,192,74238,1,0,0:0:0:0:
64,192,74415,1,0,0:0:0:0:
64,192,74591,128,0,77415:0:0:0:0:
448,192,74591,1,0,0:0:0:0:
320,192,74768,1,0,0:0:0:0:
448,192,74944,1,0,0:0:0:0:
192,192,75121,1,0,0:0:0:0:
320,192,75297,1,0,0:0:0:0:
448,192,75474,1,0,0:0:0:0:
192,192,75650,1,0,0:0:0:0:
448,192,75827,1,0,0:0:0:0:
192,192,76003,1,0,0:0:0:0:
320,192,76179,1,0,0:0:0:0:
448,192,76356,1,0,0:0:0:0:
192,192,76532,1,0,0:0:0:0:
320,192,76709,1,0,0:0:0:0:
448,192,76885,1,0,0:0:0:0:
192,192,77062,1,0,0:0:0:0:
448,192,77238,1,0,0:0:0:0:
448,192,77415,128,0,80238:0:0:0:0:
320,192,77415,1,0,0:0:0:0:
192,192,77591,1,0,0:0:0:0:
64,192,77768,1,0,0:0:0:0:
320,192,77944,1,0,0:0:0:0:
192,192,78121,1,0,0:0:0:0:
64,192,78297,1,0,0:0:0:0:
320,192,78474,1,0,0:0:0:0:
64,192,78650,1,0,0:0:0:0:
320,192,78827,1,0,0:0:0:0:
192,192,79003,1,0,0:0:0:0:
64,192,79179,1,0,0:0:0:0:
320,192,79356,1,0,0:0:0:0:
192,192,79532,1,0,0:0:0:0:
64,192,79709,1,0,0:0:0:0:
320,192,79885,1,0,0:0:0:0:
64,192,80062,1,0,0:0:0:0:
64,192,80238,1,4,0:0:0:0:
192,192,80238,1,2,0:0:0:0:
320,192,80238,128,0,83062:0:0:0:0:
192,192,80415,1,0,0:0:0:0:
448,192,80591,1,0,0:0:0:0:
64,192,80768,1,0,0:0:0:0:
192,192,80944,1,0,0:0:0:0:
448,192,81121,1,0,0:0:0:0:
64,192,81297,1,0,0:0:0:0:
448,192,81474,1,0,0:0:0:0:
64,192,81650,1,0,0:0:0:0:
192,192,81827,1,0,0:0:0:0:
448,192,82003,1,0,0:0:0:0:
64,192,82179,1,0,0:0:0:0:
192,192,82356,1,0,0:0:0:0:
448,192,82532,1,0,0:0:0:0:
64,192,82709,1,0,0:0:0:0:
448,192,82885,1,0,0:0:0:0:
192,192,83062,128,0,85885:0:0:0:0:
448,192,83062,1,0,0:0:0:0:
320,192,83238,1,0,0:0:0:0:
64,192,83415,1,0,0:0:0:0:
448,192,83591,1,0,0:0:0:0:
320,192,83768,1,0,0:0:0:0:
64,192,83944,1,0,0:0:0:0:
448,192,84121,1,0,0:0:0:0:
64,192,84297,1,0,0:0:0:0:
448,192,84474,1,0,0:0:0:0:
320,192,84650,1,0,0:0:0:0:
64,192,84827,1,0,0:0:0:0:
448,192,85003,1,0,0:0:0:0:
320,192,85179,1,0,0:0:0:0:
64,192,85356,1,0,0:0:0:0:
448,192,85532,1,0,0:0:0:0:
64,192,85709,1,0,0:0:0:0:
64,192,85885,128,0,88709:0:0:0:0:
448,192,85885,1,0,0:0:0:0:
320,192,86062,1,0,0:0:0:0:
448,192,86238,1,0,0:0:0:0:
192,192,86415,1,0,0:0:0:0:
320,192,86591,1,0,0:0:0:0:
448,192,86768,1,0,0:0:0:0:
192,192,86944,1,0,0:0:0:0:
448,192,87121,1,0,0:0:0:0:
192,192,87297,1,0,0:0:0:0:
320,192,87474,1,0,0:0:0:0:
448,192,87650,1,0,0:0:0:0:
192,192,87827,1,0,0:0:0:0:
320,192,88003,1,0,0:0:0:0:
448,192,88179,1,0,0:0:0:0:
192,192,88356,1,0,0:0:0:0:
448,192,88532,1,0,0:0:0:0:
448,192,88709,128,0,91532:0:0:0:0:
320,192,88709,1,0,0:0:0:0:
192,192,88885,1,0,0:0:0:0:
64,192,89062,1,0,0:0:0:0:
320,192,89238,1,0,0:0:0:0:
192,192,89415,1,0,0:0:0:0:
64,192,89591,1,0,0:0:0:0:
320,192,89768,1,0,0:0:0:0:
64,192,89944,1,0,0:0:0:0:
320,192,90121,1,0,0:0:0:0:
192,192,90297,1,0,0:0:0:0:
64,192,90474,1,0,0:0:0:0:
320,192,90650,1,0,0:0:0:0:
64,192,90827,1,0,0:0:0:0:
64,192,91532,1,0,0:0:0:0:
192,192,91709,1,0,0:0:0:0:
320,192,91885,1,0,0:0:0:0:
64,192,92062,1,0,0:0:0:0:
192,192,92238,1,0,0:0:0:0:
320,192,92415,1,0,0:0:0:0:
448,192,92591,1,0,0:0:0:0:
192,192,92768,1,0,0:0:0:0:
64,192,92944,1,0,0:0:0:0:
192,192,93121,1,0,0:0:0:0:
320,192,93297,1,0,0:0:0:0:
64,192,93474,1,0,0:0:0:0:
192,192,93650,1,0,0:0:0:0:
320,192,93827,1,0,0:0:0:0:
448,192,94003,1,0,0:0:0:0:
192,192,94179,1,0,0:0:0:0:
448,192,94356,1,0,0:0:0:0:
320,192,94532,1,0,0:0:0:0:
192,192,94709,1,0,0:0:0:0:
448,192,94885,1,0,0:0:0:0:
320,192,95062,1,0,0:0:0:0:
192,192,95238,1,0,0:0:0:0:
64,192,95415,1,0,0:0:0:0:
320,192,95591,1,0,0:0:0:0:
448,192,95768,1,0,0:0:0:0:
320,192,95944,1,0,0:0:0:0:
192,192,96121,1,0,0:0:0:0:
448,192,96297,1,0,0:0:0:0:
320,192,96474,1,0,0:0:0:0:
192,192,96650,1,0,0:0:0:0:
64,192,96827,1,0,0:0:0:0:
320,192,97003,1,0,0:0:0:0:
64,192,97179,1,0,0:0:0:0:
448,192,97356,1,0,0:0:0:0:
320,192,97532,1,0,0:0:0:0:
64,192,97709,1,0,0:0:0:0:
448,192,97885,1,0,0:0:0:0:
320,192,98062,1,0,0:0:0:0:
64,192,98238,1,0,0:0:0:0:
192,192,98415,1,0,0:0:0:0:
64,192,98591,1,0,0:0:0:0:
448,192,98768,1,0,0:0:0:0:
320,192,98944,1,0,0:0:0:0:
64,192,99121,1,0,0:0:0:0:
448,192,99297,1,0,0:0:0:0:
320,192,99474,1,0,0:0:0:0:
64,192,99650,1,0,0:0:0:0:
192,192,99827,1,0,0:0:0:0:
64,192,100003,1,0,0:0:0:0:
192,192,100179,1,0,0:0:0:0:
320,192,100356,1,0,0:0:0:0:
64,192,100532,1,0,0:0:0:0:
192,192,100709,1,0,0:0:0:0:
320,192,100885,1,0,0:0:0:0:
448,192,101062,1,0,0:0:0:0:
192,192,101238,1,0,0:0:0:0:
448,192,101415,1,0,0:0:0:0:
320,192,101591,1,0,0:0:0:0:
192,192,101768,1,0,0:0:0:0:
448,192,101944,1,0,0:0:0:0:
320,192,102121,1,0,0:0:0:0:
192,192,102297,1,0,0:0:0:0:
64,192,102474,1,0,0:0:0:0:
320,192,102650,1,0,0:0:0:0:
64,192,102827,1,0,0:0:0:0:
192,192,103003,1,0,0:0:0:0:
320,192,103179,1,0,0:0:0:0:
64,192,103356,1,0,0:0:0:0:
192,192,103532,1,0,0:0:0:0:
320,192,103709,1,0,0:0:0:0:
448,192,103885,1,0,0:0:0:0:
192,192,104062,1,0,0:0:0:0:
64,192,104238,1,0,0:0:0:0:
192,192,104415,1,0,0:0:0:0:
320,192,104591,1,0,0:0:0:0:
64,192,104768,1,0,0:0:0:0:
192,192,104944,1,0,0:0:0:0:
320,192,105121,1,0,0:0:0:0:
448,192,105297,1,0,0:0:0:0:
192,192,105474,1,0,0:0:0:0:
448,192,105650,1,0,0:0:0:0:
320,192,105827,1,0,0:0:0:0:
192,192,106003,1,0,0:0:0:0:
448,192,106179,1,0,0:0:0:0:
320,192,106356,1,0,0:0:0:0:
192,192,106532,1,0,0:0:0:0:
64,192,106709,1,0,0:0:0:0:
320,192,106885,1,0,0:0:0:0:
448,192,107062,1,0,0:0:0:0:
320,192,107238,1,0,0:0:0:0:
192,192,107415,1,0,0:0:0:0:
448,192,107591,1,0,0:0:0:0:
320,192,107768,1,0,0:0:0:0:
192,192,107944,1,0,0:0:0:0:
448,192,108121,1,0,0:0:0:0:
192,192,108297,1,0,0:0:0:0:
64,192,108474,1,0,0:0:0:0:
320,192,108650,1,0,0:0:0:0:
448,192,108827,1,0,0:0:0:0:
64,192,109003,1,0,0:0:0:0:
448,192,109179,1,0,0:0:0:0:
320,192,109356,1,0,0:0:0:0:
64,192,109532,1,0,0:0:0:0:
192,192,109709,1,0,0:0:0:0:
64,192,109885,1,0,0:0:0:0:
448,192,110062,1,0,0:0:0:0:
320,192,110238,1,0,0:0:0:0:
64,192,110415,1,0,0:0:0:0:
448,192,110591,1,0,0:0:0:0:
320,192,110768,1,0,0:0:0:0:
64,192,110944,1,0,0:0:0:0:
192,192,111121,1,0,0:0:0:0:
64,192,111297,1,0,0:0:0:0:
192,192,111474,1,0,0:0:0:0:
320,192,111650,1,0,0:0:0:0:
64,192,111827,1,0,0:0:0:0:
192,192,112003,1,0,0:0:0:0:
320,192,112179,1,0,0:0:0:0:
448,192,112356,1,0,0:0:0:0:
192,192,112532,1,0,0:0:0:0:
448,192,112709,1,0,0:0:0:0:
320,192,112885,1,0,0:0:0:0:
192,192,113062,1,0,0:0:0:0:
448,192,113238,1,0,0:0:0:0:
320,192,113415,1,0,0:0:0:0:
192,192,113591,1,0,0:0:0:0:
448,192,113768,1,0,0:0:0:0:
320,192,113944,1,0,0:0:0:0:
64,192,114121,1,0,0:0:0:0:
192,192,114121,1,2,0:0:0:0:
448,192,114121,1,4,0:0:0:0:
320,192,114474,1,0,0:0:0:0:
320,192,115003,1,0,0:0:0:0:
64,192,115532,1,0,0:0:0:0:
64,192,115885,1,0,0:0:0:0:
320,192,116415,1,0,0:0:0:0:
64,192,116768,1,0,0:0:0:0:
320,192,116944,1,0,0:0:0:0:
320,192,117297,1,0,0:0:0:0:
320,192,117827,1,0,0:0:0:0:
64,192,118356,1,0,0:0:0:0:
64,192,118709,1,0,0:0:0:0:
320,192,119238,1,0,0:0:0:0:
64,192,119591,1,0,0:0:0:0:
448,192,119768,1,0,0:0:0:0:
448,192,120121,1,0,0:0:0:0:
192,192,120650,1,0,0:0:0:0:
448,192,121179,1,0,0:0:0:0:
448,192,121532,1,0,0:0:0:0:
64,192,122062,1,0,0:0:0:0:
64,192,122415,1,0,0:0:0:0:
320,192,122591,1,0,0:0:0:0:
320,192,122944,1,0,0:0:0:0:
320,192,123474,1,0,0:0:0:0:
64,192,124003,1,0,0:0:0:0:
64,192,124356,5,0,0:0:0:0:
320,192,124885,1,0,0:0:0:0:
64,192,125238,1,0,0:0:0:0:
448,192,125415,5,4,0:0:0:0:
64,192,125415,1,2,0:0:0:0:
320,192,125768,1,8,1:0:0:0:
192,192,125768,1,0,0:0:0:0:
448,192,126121,1,8,1:0:0:0:
64,192,126121,1,0,0:0:0:0:
320,192,126297,1,0,0:0:0:0:
448,192,126474,1,8,1:0:0:0:
192,192,126474,1,0,0:0:0:0:
320,192,126827,1,8,1:0:0:0:
192,192,126827,1,0,0:0:0:0:
64,192,127179,1,0,0:0:0:0:
320,192,127179,1,8,1:0:0:0:
192,192,127532,1,0,0:0:0:0:
448,192,127532,1,8,1:0:0:0:
320,192,127709,1,0,0:0:0:0:
64,192,127885,1,0,0:0:0:0:
192,192,127885,1,8,1:0:0:0:
320,192,128062,1,0,0:0:0:0:
64,192,128238,1,0,0:0:0:0:
448,192,128238,1,2,0:0:0:0:
320,192,128591,1,8,1:0:0:0:
192,192,128591,1,0,0:0:0:0:
64,192,128944,1,0,0:0:0:0:
448,192,128944,1,8,1:0:0:0:
320,192,129121,1,0,0:0:0:0:
192,192,129297,1,0,0:0:0:0:
448,192,129297,1,8,1:0:0:0:
192,192,129650,1,0,0:0:0:0:
320,192,129650,1,8,1:0:0:0:
64,192,130003,1,0,0:0:0:0:
320,192,130003,1,8,1:0:0:0:
192,192,130356,1,0,0:0:0:0:
448,192,130356,1,8,1:0:0:0:
320,192,130532,1,0,0:0:0:0:
448,192,130709,1,0,0:0:0:0:
64,192,130709,1,0,0:0:0:0:
320,192,130797,1,8,1:0:0:0:
64,192,130885,1,8,1:0:0:0:
192,192,130974,1,8,1:0:0:0:
320,192,131062,1,2,0:0:0:0:
64,192,131062,1,0,0:0:0:0:
448,192,131062,1,4,0:0:0:0:
192,192,131238,1,8,1:0:0:0:
320,192,131415,1,8,1:0:0:0:
448,192,131415,1,0,0:0:0:0:
192,192,131591,1,8,1:0:0:0:
320,192,131768,1,0,0:0:0:0:
64,192,131768,1,8,1:0:0:0:
192,192,131944,1,8,1:0:0:0:
448,192,132121,1,0,0:0:0:0:
320,192,132121,1,8,1:0:0:0:
64,192,132209,1,8,1:0:0:0:
448,192,132297,1,8,1:0:0:0:
64,192,132385,1,8,1:0:0:0:
448,192,132474,1,2,0:0:0:0:
192,192,132474,1,0,0:0:0:0:
320,192,132650,1,8,1:0:0:0:
64,192,132827,1,0,0:0:0:0:
192,192,132827,1,8,1:0:0:0:
448,192,133003,1,8,1:0:0:0:
320,192,133179,1,8,1:0:0:0:
64,192,133179,1,0,0:0:0:0:
192,192,133356,1,8,1:0:0:0:
320,192,133532,1,8,1:0:0:0:
448,192,133532,1,0,0:0:0:0:
64,192,133621,1,8,1:0:0:0:
320,192,133709,1,8,1:0:0:0:
192,192,133797,1,8,1:0:0:0:
448,192,133885,1,2,0:0:0:0:
64,192,133885,1,0,1:0:0:0:
320,192,133974,1,8,1:0:0:0:
64,192,134062,1,8,1:0:0:0:
192,192,134150,1,8,1:0:0:0:
320,192,134238,1,2,0:0:0:0:
448,192,134238,1,2,0:0:0:0:
64,192,134327,1,8,1:0:0:0:
192,192,134415,1,8,1:0:0:0:
320,192,134503,1,8,1:0:0:0:
448,192,134591,1,2,0:0:0:0:
64,192,134591,1,0,0:0:0:0:
192,192,134679,1,8,1:0:0:0:
448,192,134768,1,8,1:0:0:0:
320,192,134856,1,8,1:0:0:0:
64,192,134944,1,2,0:0:0:0:
192,192,134944,1,0,0:0:0:0:
448,192,135032,1,8,1:0:0:0:
320,192,135121,1,8,1:0:0:0:
192,192,135209,1,8,1:0:0:0:
64,192,135297,1,2,0:0:0:0:
448,192,135297,128,0,136003:0:0:0:0:
192,192,135650,1,8,1:0:0:0:
64,192,135650,1,0,0:0:0:0:
320,192,136003,128,0,136709:0:0:0:0:
64,192,136003,1,2,0:0:0:0:
192,192,136179,1,8,0:0:0:0:
448,192,136179,1,8,1:0:0:0:
64,192,136356,1,2,0:0:0:0:
448,192,136532,1,8,1:0:0:0:
192,192,136532,1,0,0:0:0:0:
64,192,136709,1,4,0:0:0:0:
448,192,136709,1,0,0:0:0:0:
192,192,136709,1,2,0:0:0:0:
320,192,136885,1,0,0:0:0:0:
64,192,137062,1,0,0:0:0:0:
448,192,137062,1,8,0:0:0:0:
192,192,137062,1,0,0:0:0:0:
320,192,137238,1,0,0:0:0:0:
448,192,137415,1,0,0:0:0:0:
64,192,137415,1,2,0:0:0:0:
192,192,137591,1,0,0:0:0:0:
64,192,137679,1,0,0:0:0:0:
448,192,137768,1,8,0:0:0:0:
192,192,137768,1,0,0:0:0:0:
320,192,137768,1,0,0:0:0:0:
320,192,137944,1,0,0:0:0:0:
192,192,138121,1,2,0:0:0:0:
64,192,138121,1,0,0:0:0:0:
448,192,138297,1,0,0:0:0:0:
64,192,138474,1,0,0:0:0:0:
192,192,138474,1,0,0:0:0:0:
320,192,138474,1,8,0:0:0:0:
448,192,138650,1,0,0:0:0:0:
320,192,138827,1,2,0:0:0:0:
192,192,138827,1,0,0:0:0:0:
64,192,139003,1,0,0:0:0:0:
192,192,139091,1,0,0:0:0:0:
320,192,139179,1,8,0:0:0:0:
448,192,139179,1,0,0:0:0:0:
64,192,139179,1,0,0:0:0:0:
192,192,139356,1,0,0:0:0:0:
320,192,139532,1,2,0:0:0:0:
64,192,139532,1,0,0:0:0:0:
448,192,139709,1,0,0:0:0:0:
320,192,139885,1,8,0:0:0:0:
192,192,139885,1,0,0:0:0:0:
64,192,139885,1,0,0:0:0:0:
448,192,140062,1,0,0:0:0:0:
320,192,140238,1,2,0:0:0:0:
192,192,140238,1,0,0:0:0:0:
64,192,140415,1,0,0:0:0:0:
192,192,140503,1,0,0:0:0:0:
320,192,140591,1,8,0:0:0:0:
448,192,140591,1,0,0:0:0:0:
64,192,140591,1,0,0:0:0:0:
192,192,140768,1,0,0:0:0:0:
320,192,140944,1,2,0:0:0:0:
448,192,140944,1,0,0:0:0:0:
64,192,141121,1,0,0:0:0:0:
448,192,141297,1,0,0:0:0:0:
320,192,141297,1,8,0:0:0:0:
192,192,141297,1,0,0:0:0:0:
64,192,141474,1,0,0:0:0:0:
192,192,141650,1,0,0:0:0:0:
320,192,141650,1,2,0:0:0:0:
448,192,141827,1,0,0:0:0:0:
320,192,141915,1,0,0:0:0:0:
192,192,142003,1,0,0:0:0:0:
64,192,142003,1,8,0:0:0:0:
448,192,142003,1,0,0:0:0:0:
320,192,142091,1,0,0:0:0:0:
192,192,142179,1,0,0:0:0:0:
64,192,142268,1,0,0:0:0:0:
192,192,142356,1,2,0:0:0:0:
448,192,142356,1,0,0:0:0:0:
320,192,142356,1,0,0:0:0:0:
320,192,142532,1,0,0:0:0:0:
448,192,142709,1,0,0:0:0:0:
192,192,142709,1,8,0:0:0:0:
64,192,142709,1,0,0:0:0:0:
320,192,142885,1,0,0:0:0:0:
192,192,143062,1,2,0:0:0:0:
64,192,143062,1,0,0:0:0:0:
320,192,143238,1,0,0:0:0:0:
448,192,143327,1,0,0:0:0:0:
320,192,143415,1,0,0:0:0:0:
64,192,143503,1,0,0:0:0:0:
192,192,143591,1,0,0:0:0:0:
320,192,143768,1,2,0:0:0:0:
192,192,143768,1,0,0:0:0:0:
448,192,143944,1,0,0:0:0:0:
320,192,144121,1,8,0:0:0:0:
192,192,144121,1,0,0:0:0:0:
64,192,144121,1,0,0:0:0:0:
192,192,144297,1,0,0:0:0:0:
320,192,144474,1,0,0:0:0:0:
448,192,144474,1,2,0:0:0:0:
64,192,144650,1,0,0:0:0:0:
192,192,144738,1,0,0:0:0:0:
320,192,144827,1,0,0:0:0:0:
64,192,144915,1,0,0:0:0:0:
192,192,145003,1,0,0:0:0:0:
64,192,145179,1,0,0:0:0:0:
448,192,145179,1,0,0:0:0:0:
192,192,145179,1,2,0:0:0:0:
320,192,145356,1,0,0:0:0:0:
64,192,145532,1,0,0:0:0:0:
320,192,145532,1,0,0:0:0:0:
448,192,145532,1,8,0:0:0:0:
192,192,145709,1,0,0:0:0:0:
320,192,145885,1,0,0:0:0:0:
448,192,145885,1,2,0:0:0:0:
64,192,146062,1,0,0:0:0:0:
192,192,146150,1,0,0:0:0:0:
448,192,146238,1,0,0:0:0:0:
320,192,146327,1,0,0:0:0:0:
192,192,146415,1,0,0:0:0:0:
64,192,146591,1,0,0:0:0:0:
192,192,146591,1,2,0:0:0:0:
320,192,146768,1,0,0:0:0:0:
448,192,146944,1,0,0:0:0:0:
192,192,146944,1,8,0:0:0:0:
64,192,146944,1,0,0:0:0:0:
320,192,147121,1,0,0:0:0:0:
192,192,147297,1,2,0:0:0:0:
64,192,147297,1,0,0:0:0:0:
448,192,147474,1,0,0:0:0:0:
320,192,147562,1,0,0:0:0:0:
448,192,147650,1,0,0:0:0:0:
64,192,147650,1,0,0:0:0:0:
192,192,147650,1,8,0:0:0:0:
320,192,147738,1,0,0:0:0:0:
192,192,147827,1,0,0:0:0:0:
320,192,147915,1,0,0:0:0:0:
64,192,148003,1,4,0:0:0:0:
448,192,148003,1,0,0:0:0:0:
192,192,148003,1,2,0:0:0:0:
320,192,148179,1,0,0:0:0:0:
64,192,148356,1,0,0:0:0:0:
320,192,148356,1,0,0:0:0:0:
448,192,148356,1,8,0:0:0:0:
192,192,148532,1,0,0:0:0:0:
448,192,148709,1,0,0:0:0:0:
320,192,148709,1,2,0:0:0:0:
192,192,148885,1,0,0:0:0:0:
64,192,148974,1,0,0:0:0:0:
448,192,149062,1,0,0:0:0:0:
320,192,149062,1,8,0:0:0:0:
192,192,149062,1,0,0:0:0:0:
320,192,149238,1,0,0:0:0:0:
192,192,149415,1,2,0:0:0:0:
64,192,149415,1,0,0:0:0:0:
448,192,149591,1,0,0:0:0:0:
64,192,149768,1,0,0:0:0:0:
192,192,149768,1,0,0:0:0:0:
320,192,149768,1,8,0:0:0:0:
448,192,149944,1,0,0:0:0:0:
320,192,150121,1,2,0:0:0:0:
192,192,150121,1,0,0:0:0:0:
64,192,150297,1,0,0:0:0:0:
192,192,150385,1,0,0:0:0:0:
64,192,150474,1,0,0:0:0:0:
320,192,150474,1,8,0:0:0:0:
448,192,150474,1,0,0:0:0:0:
192,192,150650,1,0,0:0:0:0:
64,192,150827,1,0,0:0:0:0:
320,192,150827,1,2,0:0:0:0:
448,192,151003,1,0,0:0:0:0:
320,192,151179,1,8,0:0:0:0:
192,192,151179,1,0,0:0:0:0:
64,192,151179,1,0,0:0:0:0:
448,192,151356,1,0,0:0:0:0:
320,192,151532,1,2,0:0:0:0:
192,192,151532,1,0,0:0:0:0:
64,192,151709,1,0,0:0:0:0:
192,192,151797,1,0,0:0:0:0:
64,192,151885,1,0,0:0:0:0:
320,192,151885,1,0,0:0:0:0:
448,192,151885,1,8,0:0:0:0:
192,192,152062,1,0,0:0:0:0:
320,192,152238,1,2,0:0:0:0:
448,192,152238,1,0,0:0:0:0:
64,192,152415,1,0,0:0:0:0:
448,192,152591,1,0,0:0:0:0:
320,192,152591,1,0,0:0:0:0:
192,192,152591,1,8,0:0:0:0:
64,192,152768,1,0,0:0:0:0:
192,192,152944,1,0,0:0:0:0:
320,192,152944,1,2,0:0:0:0:
448,192,153121,1,0,0:0:0:0:
320,192,153209,1,0,0:0:0:0:
448,192,153297,1,0,0:0:0:0:
64,192,153297,1,0,0:0:0:0:
192,192,153297,1,8,0:0:0:0:
320,192,153385,1,0,0:0:0:0:
192,192,153474,1,0,0:0:0:0:
64,192,153562,1,0,0:0:0:0:
192,192,153650,1,0,0:0:0:0:
320,192,153650,1,4,0:0:0:0:
448,192,153650,1,2,0:0:0:0:
192,192,153827,1,0,0:0:0:0:
448,192,154003,1,8,0:0:0:0:
64,192,154003,1,0,0:0:0:0:
192,192,154003,1,0,0:0:0:0:
320,192,154179,1,0,0:0:0:0:
64,192,154356,1,0,0:0:0:0:
192,192,154356,1,2,0:0:0:0:
320,192,154532,1,0,0:0:0:0:
448,192,154621,1,0,0:0:0:0:
320,192,154709,1,0,0:0:0:0:
64,192,154797,1,0,0:0:0:0:
192,192,154885,1,0,0:0:0:0:
320,192,155062,1,2,0:0:0:0:
448,192,155062,1,0,0:0:0:0:
192,192,155238,1,0,0:0:0:0:
448,192,155415,1,0,0:0:0:0:
64,192,155415,1,0,0:0:0:0:
320,192,155415,1,8,0:0:0:0:
192,192,155591,1,0,0:0:0:0:
320,192,155768,1,0,0:0:0:0:
448,192,155768,1,2,0:0:0:0:
64,192,155944,1,0,0:0:0:0:
192,192,156032,1,0,0:0:0:0:
320,192,156121,1,0,0:0:0:0:
64,192,156209,1,0,0:0:0:0:
320,192,156297,1,0,0:0:0:0:
192,192,156385,1,0,0:0:0:0:
64,192,156474,1,2,0:0:0:0:
320,192,156474,1,4,0:0:0:0:
448,192,156562,1,0,0:0:0:0:
320,192,156650,1,0,0:0:0:0:
192,192,156738,1,0,0:0:0:0:
448,192,156827,1,8,0:0:0:0:
64,192,156827,1,0,0:0:0:0:
192,192,156915,1,0,0:0:0:0:
320,192,157003,1,0,0:0:0:0:
64,192,157091,1,0,0:0:0:0:
320,192,157179,1,2,0:0:0:0:
192,192,157179,1,0,0:0:0:0:
448,192,157268,1,0,0:0:0:0:
64,192,157356,1,0,0:0:0:0:
192,192,157444,1,0,0:0:0:0:
320,192,157532,1,0,0:0:0:0:
448,192,157532,1,8,0:0:0:0:
192,192,157621,1,0,0:0:0:0:
448,192,157709,1,0,0:0:0:0:
320,192,157797,1,0,0:0:0:0:
64,192,157885,1,0,0:0:0:0:
192,192,157885,1,2,0:0:0:0:
320,192,157974,1,0,0:0:0:0:
448,192,158062,1,0,0:0:0:0:
64,192,158150,1,0,0:0:0:0:
192,192,158238,1,0,0:0:0:0:
320,192,158238,1,8,0:0:0:0:
448,192,158327,1,0,0:0:0:0:
192,192,158415,1,0,0:0:0:0:
320,192,158503,1,0,0:0:0:0:
192,192,158591,5,0,0:0:0:0:
64,192,158591,1,2,0:0:0:0:
448,192,158591,1,2,0:0:0:0:
448,192,158856,1,2,0:0:0:0:
320,192,158856,1,0,0:0:0:0:
64,192,158856,1,2,0:0:0:0:
192,192,159121,1,0,0:0:0:0:
64,192,159121,1,2,0:0:0:0:
448,192,159121,1,2,0:0:0:0:
64,192,159297,1,4,0:0:0:0:
448,192,159297,1,2,0:0:0:0:
192,192,159297,1,0,0:0:0:0:
320,192,159297,1,0,0:0:0:0:
320,192,159474,1,0,0:0:0:0:
64,192,159650,1,0,0:0:0:0:
192,192,159650,1,8,0:0:0:0:
448,192,159650,1,0,0:0:0:0:
320,192,159827,1,2,0:0:0:0:
192,192,160003,1,0,0:0:0:0:
448,192,160003,1,0,0:0:0:0:
64,192,160179,1,0,0:0:0:0:
192,192,160268,1,0,0:0:0:0:
64,192,160356,1,0,0:0:0:0:
320,192,160356,1,0,0:0:0:0:
448,192,160356,1,8,0:0:0:0:
192,192,160532,1,0,0:0:0:0:
320,192,160709,1,2,0:0:0:0:
448,192,160709,1,0,0:0:0:0:
64,192,160885,1,0,0:0:0:0:
320,192,161062,1,8,0:0:0:0:
192,192,161062,1,0,0:0:0:0:
64,192,161062,1,0,0:0:0:0:
448,192,161238,1,0,0:0:0:0:
320,192,161415,1,2,0:0:0:0:
192,192,161415,1,0,0:0:0:0:
64,192,161591,1,0,0:0:0:0:
448,192,161679,1,0,0:0:0:0:
192,192,161768,1,0,0:0:0:0:
320,192,161768,1,8,0:0:0:0:
64,192,161768,1,0,0:0:0:0:
448,192,161944,1,0,0:0:0:0:
192,192,162121,1,2,0:0:0:0:
64,192,162121,1,0,0:0:0:0:
320,192,162297,1,0,0:0:0:0:
448,192,162474,1,8,0:0:0:0:
192,192,162474,1,0,0:0:0:0:
64,192,162474,1,0,0:0:0:0:
320,192,162650,1,0,0:0:0:0:
192,192,162827,1,2,0:0:0:0:
448,192,162827,1,0,0:0:0:0:
320,192,163003,1,0,0:0:0:0:
64,192,163091,1,0,0:0:0:0:
448,192,163179,1,8,0:0:0:0:
192,192,163179,1,0,0:0:0:0:
320,192,163179,1,0,0:0:0:0:
64,192,163356,1,0,0:0:0:0:
192,192,163532,1,0,0:0:0:0:
320,192,163532,1,2,0:0:0:0:
448,192,163709,1,0,0:0:0:0:
192,192,163885,1,0,0:0:0:0:
64,192,163885,1,0,0:0:0:0:
320,192,163885,1,8,0:0:0:0:
192,192,164062,1,0,0:0:0:0:
320,192,164238,1,2,0:0:0:0:
448,192,164238,1,0,0:0:0:0:
64,192,164415,1,0,0:0:0:0:
192,192,164503,1,0,0:0:0:0:
320,192,164591,1,0,0:0:0:0:
448,192,164591,1,8,0:0:0:0:
64,192,164591,1,0,0:0:0:0:
192,192,164679,1,0,0:0:0:0:
320,192,164768,1,0,0:0:0:0:
192,192,164856,1,0,0:0:0:0:
64,192,164944,1,0,0:0:0:0:
448,192,164944,1,8,0:0:0:0:
192,192,165121,1,0,0:0:0:0:
64,192,165297,1,0,0:0:0:0:
320,192,165297,1,0,0:0:0:0:
448,192,165297,1,8,0:0:0:0:
192,192,165474,1,0,0:0:0:0:
320,192,165650,1,0,0:0:0:0:
448,192,165650,1,2,0:0:0:0:
192,192,165827,1,0,0:0:0:0:
448,192,165915,1,0,0:0:0:0:
320,192,166003,1,0,0:0:0:0:
192,192,166003,1,0,0:0:0:0:
64,192,166003,1,8,0:0:0:0:
448,192,166179,1,0,0:0:0:0:
320,192,166356,1,2,0:0:0:0:
192,192,166356,1,0,0:0:0:0:
64,192,166532,1,0,0:0:0:0:
320,192,166709,1,0,0:0:0:0:
448,192,166709,1,8,0:0:0:0:
192,192,166709,1,0,0:0:0:0:
192,192,166885,1,0,0:0:0:0:
64,192,167062,1,2,0:0:0:0:
320,192,167062,1,0,0:0:0:0:
192,192,167238,1,0,0:0:0:0:
448,192,167327,1,0,0:0:0:0:
192,192,167415,1,0,0:0:0:0:
320,192,167415,1,8,0:0:0:0:
64,192,167415,1,0,0:0:0:0:
448,192,167591,1,0,0:0:0:0:
320,192,167768,1,0,0:0:0:0:
192,192,167768,1,2,0:0:0:0:
64,192,167944,1,0,0:0:0:0:
192,192,168121,1,8,0:0:0:0:
320,192,168121,1,0,0:0:0:0:
448,192,168121,1,0,0:0:0:0:
320,192,168297,1,0,0:0:0:0:
192,192,168474,1,2,0:0:0:0:
64,192,168474,1,0,0:0:0:0:
448,192,168650,1,0,0:0:0:0:
192,192,168738,1,0,0:0:0:0:
320,192,168827,1,0,0:0:0:0:
448,192,168827,1,0,0:0:0:0:
64,192,168827,1,8,0:0:0:0:
192,192,169003,1,0,0:0:0:0:
192,192,169179,1,0,0:0:0:0:
448,192,169179,1,2,0:0:0:0:
320,192,169356,1,0,0:0:0:0:
192,192,169532,1,0,0:0:0:0:
64,192,169532,1,8,0:0:0:0:
448,192,169532,1,0,0:0:0:0:
320,192,169709,1,0,0:0:0:0:
192,192,169885,1,0,0:0:0:0:
64,192,169885,1,2,0:0:0:0:
320,192,170062,1,0,0:0:0:0:
448,192,170150,1,0,0:0:0:0:
320,192,170238,1,0,0:0:0:0:
192,192,170238,1,0,0:0:0:0:
64,192,170238,1,2,0:0:0:0:
448,192,170327,1,0,0:0:0:0:
320,192,170415,1,0,0:0:0:0:
64,192,170591,1,2,0:0:0:0:
320,192,170591,1,4,0:0:0:0:
448,192,170591,1,8,1:0:0:0:
192,192,170591,1,0,0:0:0:0:
320,192,170768,1,0,0:0:0:0:
64,192,170944,1,8,1:0:0:0:
448,192,170944,1,8,0:0:0:0:
192,192,170944,1,0,0:0:0:0:
192,192,171121,1,0,0:0:0:0:
448,192,171297,1,8,0:0:0:0:
320,192,171297,1,8,1:0:0:0:
64,192,171474,1,0,0:0:0:0:
192,192,171562,1,0,0:0:0:0:
64,192,171650,1,8,1:0:0:0:
320,192,171650,1,0,0:0:0:0:
448,192,171650,1,8,0:0:0:0:
192,192,171827,1,0,0:0:0:0:
320,192,172003,1,2,0:0:0:0:
448,192,172003,1,8,1:0:0:0:
64,192,172179,1,0,0:0:0:0:
320,192,172356,1,8,0:0:0:0:
64,192,172356,1,8,1:0:0:0:
192,192,172356,1,0,0:0:0:0:
448,192,172532,1,0,0:0:0:0:
192,192,172709,1,8,1:0:0:0:
320,192,172709,1,2,0:0:0:0:
64,192,172885,1,0,0:0:0:0:
448,192,172974,1,0,0:0:0:0:
192,192,173062,1,0,0:0:0:0:
320,192,173062,1,8,0:0:0:0:
64,192,173062,1,8,1:0:0:0:
448,192,173238,1,0,0:0:0:0:
64,192,173415,1,8,1:0:0:0:
192,192,173415,1,2,0:0:0:0:
320,192,173591,1,0,0:0:0:0:
64,192,173768,1,8,1:0:0:0:
192,192,173768,1,0,0:0:0:0:
448,192,173768,1,8,0:0:0:0:
320,192,173944,1,0,0:0:0:0:
192,192,174121,1,8,1:0:0:0:
448,192,174121,1,2,0:0:0:0:
320,192,174297,1,0,0:0:0:0:
64,192,174385,1,0,0:0:0:0:
192,192,174474,1,8,0:0:0:0:
320,192,174474,1,0,0:0:0:0:
448,192,174474,1,8,1:0:0:0:
64,192,174650,1,0,0:0:0:0:
320,192,174827,1,8,1:0:0:0:
192,192,174827,1,2,0:0:0:0:
448,192,175003,1,0,0:0:0:0:
192,192,175179,1,0,0:0:0:0:
320,192,175179,1,8,0:0:0:0:
64,192,175179,1,8,1:0:0:0:
192,192,175356,1,0,0:0:0:0:
448,192,175532,1,8,1:0:0:0:
320,192,175532,1,2,0:0:0:0:
192,192,175709,1,0,0:0:0:0:
320,192,175797,1,0,0:0:0:0:
192,192,175885,1,0,0:0:0:0:
448,192,175885,1,8,0:0:0:0:
64,192,175885,1,8,1:0:0:0:
320,192,175974,1,8,1:0:0:0:
64,192,176062,1,8,1:0:0:0:
192,192,176150,1,8,1:0:0:0:
320,192,176238,1,8,1:0:0:0:
448,192,176238,1,2,0:0:0:0:
192,192,176415,1,8,1:0:0:0:
64,192,176591,1,8,0:0:0:0:
448,192,176591,1,8,1:0:0:0:
320,192,176591,1,0,0:0:0:0:
192,192,176768,1,8,1:0:0:0:
448,192,176944,1,8,1:0:0:0:
320,192,176944,1,2,0:0:0:0:
192,192,177121,1,8,1:0:0:0:
64,192,177297,1,8,0:0:0:0:
448,192,177297,1,8,1:0:0:0:
192,192,177297,1,2,0:0:0:0:
320,192,177385,1,8,1:0:0:0:
64,192,177474,1,8,1:0:0:0:
192,192,177562,1,8,1:0:0:0:
320,192,177650,1,8,1:0:0:0:
448,192,177650,1,2,0:0:0:0:
64,192,177827,1,8,1:0:0:0:
320,192,178003,1,0,0:0:0:0:
192,192,178003,1,8,0:0:0:0:
448,192,178003,1,8,1:0:0:0:
192,192,178179,1,8,1:0:0:0:
320,192,178356,1,2,0:0:0:0:
64,192,178356,1,8,1:0:0:0:
192,192,178532,1,8,1:0:0:0:
64,192,178709,1,8,1:0:0:0:
448,192,178709,1,8,0:0:0:0:
320,192,178709,1,0,0:0:0:0:
192,192,178797,1,8,1:0:0:0:
448,192,178885,1,8,1:0:0:0:
320,192,178974,1,8,1:0:0:0:
192,192,179062,1,2,0:0:0:0:
64,192,179062,1,8,1:0:0:0:
448,192,179150,1,8,1:0:0:0:
320,192,179238,1,8,1:0:0:0:
192,192,179327,1,8,1:0:0:0:
320,192,179415,1,8,0:0:0:0:
64,192,179415,1,8,1:0:0:0:
448,192,179503,1,8,1:0:0:0:
320,192,179591,1,8,1:0:0:0:
64,192,179679,1,8,1:0:0:0:
320,192,179768,1,8,1:0:0:0:
192,192,179768,1,2,0:0:0:0:
448,192,179856,1,8,1:0:0:0:
320,192,179944,1,8,1:0:0:0:
64,192,180032,1,8,1:0:0:0:
448,192,180121,1,8,1:0:0:0:
320,192,180121,1,8,0:0:0:0:
64,192,180209,1,8,1:0:0:0:
320,192,180297,1,8,1:0:0:0:
192,192,180385,1,8,1:0:0:0:
64,192,180474,128,0,181179:0:0:0:0:
320,192,180474,1,2,0:0:0:0:
448,192,180474,1,0,0:0:0:0:
192,192,180650,1,0,0:0:0:0:
320,192,180827,1,0,0:0:0:0:
448,192,180827,1,8,0:0:0:0:
192,192,181003,1,0,0:0:0:0:
448,192,181179,128,0,181885:0:0:0:0:
320,192,181179,1,2,0:0:0:0:
64,192,181356,1,0,0:0:0:0:
192,192,181444,1,0,0:0:0:0:
320,192,181532,1,8,0:0:0:0:
64,192,181532,1,0,0:0:0:0:
192,192,181709,1,0,0:0:0:0:
320,192,181885,1,0,0:0:0:0:
64,192,181885,1,0,0:0:0:0:
192,192,182062,1,0,0:0:0:0:
320,192,182238,1,0,0:0:0:0:
64,192,182415,1,0,0:0:0:0:
192,192,182591,1,0,0:0:0:0:
320,192,182768,1,0,0:0:0:0:
448,192,182944,1,0,0:0:0:0:
192,192,183121,1,0,0:0:0:0:
64,192,183297,1,0,0:0:0:0:
192,192,183474,1,0,0:0:0:0:
320,192,183650,1,0,0:0:0:0:
64,192,183827,1,0,0:0:0:0:
192,192,184003,1,0,0:0:0:0:
320,192,184179,1,0,0:0:0:0:
448,192,184356,1,0,0:0:0:0:
192,192,184532,1,0,0:0:0:0:
448,192,184709,1,0,0:0:0:0:
320,192,184885,1,0,0:0:0:0:
192,192,185062,1,0,0:0:0:0:
448,192,185238,1,0,0:0:0:0:
320,192,185415,1,0,0:0:0:0:
192,192,185591,1,0,0:0:0:0:
64,192,185768,1,0,0:0:0:0:
320,192,185944,1,0,0:0:0:0:
448,192,186121,1,0,0:0:0:0:
320,192,186297,1,0,0:0:0:0:
192,192,186474,1,0,0:0:0:0:
448,192,186650,1,0,0:0:0:0:
320,192,186827,1,0,0:0:0:0:
192,192,187003,1,0,0:0:0:0:
64,192,187179,1,0,0:0:0:0:
320,192,187356,1,0,0:0:0:0:
64,192,187532,1,0,0:0:0:0:
448,192,187709,1,0,0:0:0:0:
320,192,187885,1,0,0:0:0:0:
64,192,188062,1,0,0:0:0:0:
448,192,188238,1,0,0:0:0:0:
320,192,188415,1,0,0:0:0:0:
64,192,188591,1,0,0:0:0:0:
192,192,188768,1,0,0:0:0:0:
64,192,188944,1,0,0:0:0:0:
448,192,189121,1,0,0:0:0:0:
320,192,189297,1,0,0:0:0:0:
64,192,189474,1,0,0:0:0:0:
448,192,189650,1,0,0:0:0:0:
320,192,189827,1,0,0:0:0:0:
64,192,190003,1,0,0:0:0:0:
192,192,190179,1,0,0:0:0:0:
64,192,190356,1,0,0:0:0:0:
192,192,190532,1,0,0:0:0:0:
320,192,190709,1,0,0:0:0:0:
64,192,190885,1,0,0:0:0:0:
192,192,191062,1,0,0:0:0:0:
320,192,191238,1,0,0:0:0:0:
448,192,191415,1,0,0:0:0:0:
192,192,191591,1,0,0:0:0:0:
448,192,191768,1,0,0:0:0:0:
320,192,191944,1,0,0:0:0:0:
192,192,192121,5,0,0:0:0:0:
448,192,192297,1,0,0:0:0:0:
320,192,192474,1,0,0:0:0:0:
192,192,192650,1,0,0:0:0:0:
64,192,192827,1,0,0:0:0:0:
320,192,193003,1,0,0:0:0:0:
64,192,193179,5,2,0:0:0:0:
192,192,193179,1,4,0:0:0:0:
448,192,193179,1,0,0:0:0:0:
320,192,193268,1,0,0:0:0:0:
448,192,193356,1,0,0:0:0:0:
192,192,193444,1,0,0:0:0:0:
64,192,193532,1,2,0:0:0:0:
448,192,193532,1,0,0:0:0:0:
320,192,193621,1,0,0:0:0:0:
192,192,193709,1,0,0:0:0:0:
64,192,193797,1,0,0:0:0:0:
320,192,193885,1,0,0:0:0:0:
448,192,193885,1,2,0:0:0:0:
192,192,193974,1,0,0:0:0:0:
64,192,194062,1,0,0:0:0:0:
448,192,194150,1,0,0:0:0:0:
192,192,194238,1,2,0:0:0:0:
64,192,194238,1,0,0:0:0:0:
320,192,194327,1,0,0:0:0:0:
448,192,194415,1,0,0:0:0:0:
64,192,194503,1,0,0:0:0:0:
192,192,194591,1,2,0:0:0:0:
320,192,194591,1,0,0:0:0:0:
448,192,194679,1,0,0:0:0:0:
320,192,194768,1,0,0:0:0:0:
192,192,194856,1,0,0:0:0:0:
64,192,194944,1,0,0:0:0:0:
448,192,194944,1,2,0:0:0:0:
192,192,195032,1,0,0:0:0:0:
320,192,195121,1,0,0:0:0:0:
192,192,195209,1,0,0:0:0:0:
64,192,195297,1,0,0:0:0:0:
448,192,195297,1,2,0:0:0:0:
320,192,195385,1,0,0:0:0:0:
192,192,195474,1,0,0:0:0:0:
448,192,195562,1,0,0:0:0:0:
192,192,195650,1,0,0:0:0:0:
320,192,195650,1,2,0:0:0:0:
64,192,195738,1,0,0:0:0:0:
192,192,195827,1,0,0:0:0:0:
448,192,195915,1,0,0:0:0:0:
320,192,196003,1,2,0:0:0:0:
192,192,196003,1,0,0:0:0:0:
64,192,196003,1,4,0:0:0:0:
448,192,196091,1,0,0:0:0:0:
320,192,196179,1,0,0:0:0:0:
64,192,196268,1,0,0:0:0:0:
320,192,196356,1,2,0:0:0:0:
192,192,196356,1,0,0:0:0:0:
448,192,196444,1,0,0:0:0:0:
320,192,196532,1,0,0:0:0:0:
192,192,196621,1,0,0:0:0:0:
64,192,196709,1,0,0:0:0:0:
448,192,196709,1,2,0:0:0:0:
320,192,196797,1,0,0:0:0:0:
192,192,196885,1,0,0:0:0:0:
448,192,196974,1,0,0:0:0:0:
320,192,197062,1,2,0:0:0:0:
192,192,197062,1,0,0:0:0:0:
64,192,197150,1,0,0:0:0:0:
192,192,197238,1,0,0:0:0:0:
448,192,197327,1,0,0:0:0:0:
320,192,197415,1,2,0:0:0:0:
192,192,197415,1,0,0:0:0:0:
64,192,197503,1,0,0:0:0:0:
192,192,197591,1,0,0:0:0:0:
448,192,197679,1,0,0:0:0:0:
64,192,197768,1,0,0:0:0:0:
192,192,197768,1,2,0:0:0:0:
320,192,197856,1,0,0:0:0:0:
448,192,197944,1,0,0:0:0:0:
192,192,198032,1,0,0:0:0:0:
320,192,198121,1,2,0:0:0:0:
448,192,198121,1,0,0:0:0:0:
192,192,198209,1,0,0:0:0:0:
64,192,198297,1,0,0:0:0:0:
448,192,198385,1,0,0:0:0:0:
64,192,198474,1,0,0:0:0:0:
192,192,198474,1,2,0:0:0:0:
320,192,198562,1,0,0:0:0:0:
448,192,198650,1,0,0:0:0:0:
192,192,198738,1,0,0:0:0:0:
448,192,198827,1,2,0:0:0:0:
64,192,198827,1,4,0:0:0:0:
320,192,198827,1,0,0:0:0:0:
192,192,198915,1,0,0:0:0:0:
448,192,199003,1,2,0:0:0:0:
320,192,199003,1,0,0:0:0:0:
64,192,199091,1,0,0:0:0:0:
320,192,199179,1,2,0:0:0:0:
192,192,199179,1,0,0:0:0:0:
448,192,199268,1,0,0:0:0:0:
320,192,199356,1,0,0:0:0:0:
64,192,199356,1,2,0:0:0:0:
192,192,199444,1,0,0:0:0:0:
64,192,199532,1,0,0:0:0:0:
320,192,199532,1,2,0:0:0:0:
448,192,199621,1,0,0:0:0:0:
192,192,199709,1,0,0:0:0:0:
320,192,199709,1,2,0:0:0:0:
64,192,199797,1,0,0:0:0:0:
448,192,199885,1,2,0:0:0:0:
320,192,199885,1,0,0:0:0:0:
64,192,199974,1,0,0:0:0:0:
192,192,200062,1,0,0:0:0:0:
320,192,200062,1,2,0:0:0:0:
448,192,200150,1,0,0:0:0:0:
192,192,200238,1,4,0:0:0:0:
320,192,200238,1,2,0:0:0:0:
64,192,200238,1,0,0:0:0:0:
448,192,200327,1,0,0:0:0:0:
64,192,200415,1,0,0:0:0:0:
192,192,200415,1,2,0:0:0:0:
320,192,200503,1,0,0:0:0:0:
448,192,200591,1,2,0:0:0:0:
192,192,200591,1,0,0:0:0:0:
64,192,200679,1,0,0:0:0:0:
320,192,200768,1,0,0:0:0:0:
448,192,200768,1,2,0:0:0:0:
192,192,200856,1,0,0:0:0:0:
448,192,200944,1,2,0:0:0:0:
64,192,200944,1,0,0:0:0:0:
320,192,201032,1,0,0:0:0:0:
192,192,201121,1,2,0:0:0:0:
64,192,201121,1,0,0:0:0:0:
320,192,201209,1,0,0:0:0:0:
192,192,201297,1,0,0:0:0:0:
448,192,201297,1,2,0:0:0:0:
64,192,201385,1,0,0:0:0:0:
320,192,201474,1,2,0:0:0:0:
192,192,201474,1,0,0:0:0:0:
64,192,201562,1,0,0:0:0:0:
448,192,201650,5,4,0:0:0:0:
320,192,201650,1,2,0:0:0:0:
64,192,201738,1,0,0:0:0:0:
192,192,201738,1,2,0:0:0:0:
320,192,201827,1,2,0:0:0:0:
448,192,201827,1,0,0:0:0:0:
64,192,201915,1,0,0:0:0:0:
192,192,201915,1,2,0:0:0:0:
320,192,202003,1,2,0:0:0:0:
448,192,202003,1,4,0:0:0:0:
64,192,202091,1,0,0:0:0:0:
192,192,202091,1,2,0:0:0:0:
320,192,202179,1,2,0:0:0:0:
448,192,202179,1,0,0:0:0:0:
64,192,202268,1,0,0:0:0:0:
192,192,202268,1,2,0:0:0:0:
320,192,202356,1,2,0:0:0:0:
448,192,202356,1,4,0:0:0:0:
64,192,202444,1,0,0:0:0:0:
192,192,202444,1,2,0:0:0:0:
320,192,202532,1,2,0:0:0:0:
448,192,202532,1,0,0:0:0:0:
64,192,202621,1,0,0:0:0:0:
192,192,202621,1,2,0:0:0:0:
320,192,202709,1,2,0:0:0:0:
448,192,202709,1,4,0:0:0:0:
64,192,202797,1,0,0:0:0:0:
192,192,202797,1,2,0:0:0:0:
320,192,202885,1,2,0:0:0:0:
448,192,202885,1,0,0:0:0:0:
64,192,202974,1,0,0:0:0:0:
192,192,202974,1,2,0:0:0:0:
320,192,203062,128,0,203768:0:0:0:0:
448,192,203062,1,0,0:0:0:0:
192,192,203238,1,0,0:0:0:0:
64,192,203415,1,0,0:0:0:0:
448,192,203591,1,0,0:0:0:0:
448,192,203768,128,0,204474:0:0:0:0:
64,192,203768,1,0,0:0:0:0:
192,192,203944,1,0,0:0:0:0:
320,192,204121,1,0,0:0:0:0:
192,192,204297,1,0,0:0:0:0:
64,192,204474,1,2,0:0:0:0:
320,192,204474,1,0,0:0:0:0:
192,192,204650,1,0,0:0:0:0:
448,192,204827,1,0,0:0:0:0:
64,192,204827,1,0,0:0:0:0:
320,192,204827,1,8,0:0:0:0:
320,192,205003,1,0,0:0:0:0:
64,192,205179,1,0,0:0:0:0:
192,192,205179,1,2,0:0:0:0:
448,192,205356,1,0,0:0:0:0:
320,192,205444,1,0,0:0:0:0:
448,192,205532,1,0,0:0:0:0:
192,192,205532,1,0,0:0:0:0:
64,192,205532,1,8,0:0:0:0:
320,192,205709,1,0,0:0:0:0:
192,192,205885,1,2,0:0:0:0:
64,192,205885,1,0,0:0:0:0:
448,192,206062,1,0,0:0:0:0:
192,192,206238,1,8,0:0:0:0:
448,192,206238,1,0,0:0:0:0:
320,192,206238,1,0,0:0:0:0:
64,192,206415,1,0,0:0:0:0:
320,192,206591,1,0,0:0:0:0:
192,192,206591,1,2,0:0:0:0:
448,192,206768,1,0,0:0:0:0:
64,192,206856,1,0,0:0:0:0:
320,192,206944,1,0,0:0:0:0:
192,192,206944,1,8,0:0:0:0:
448,192,206944,1,0,0:0:0:0:
64,192,207121,1,0,0:0:0:0:
320,192,207297,1,0,0:0:0:0:
448,192,207297,1,2,0:0:0:0:
192,192,207474,1,0,0:0:0:0:
64,192,207650,1,0,0:0:0:0:
320,192,207650,1,0,0:0:0:0:
448,192,207650,1,8,0:0:0:0:
192,192,207827,1,0,0:0:0:0:
320,192,208003,1,2,0:0:0:0:
64,192,208003,1,0,0:0:0:0:
320,192,208179,1,0,0:0:0:0:
448,192,208268,1,0,0:0:0:0:
320,192,208356,1,0,0:0:0:0:
192,192,208356,1,0,0:0:0:0:
64,192,208356,1,8,0:0:0:0:
448,192,208532,1,0,0:0:0:0:
192,192,208709,1,2,0:0:0:0:
320,192,208709,1,0,0:0:0:0:
64,192,208885,1,0,0:0:0:0:
192,192,209062,1,0,0:0:0:0:
320,192,209062,1,0,0:0:0:0:
448,192,209062,1,8,0:0:0:0:
320,192,209238,1,0,0:0:0:0:
192,192,209415,1,2,0:0:0:0:
64,192,209415,1,0,0:0:0:0:
448,192,209591,1,0,0:0:0:0:
320,192,209679,1,0,0:0:0:0:
448,192,209768,1,0,0:0:0:0:
192,192,209768,1,0,0:0:0:0:
64,192,209768,1,8,0:0:0:0:
320,192,209856,1,0,0:0:0:0:
192,192,209944,1,0,0:0:0:0:
320,192,210032,1,0,0:0:0:0:
448,192,210121,1,0,0:0:0:0:
64,192,210121,1,8,0:0:0:0:
320,192,210297,1,0,0:0:0:0:
448,192,210474,1,8,0:0:0:0:
192,192,210474,1,0,0:0:0:0:
64,192,210474,1,0,0:0:0:0:
320,192,210650,1,0,0:0:0:0:
192,192,210827,1,2,0:0:0:0:
64,192,210827,1,0,0:0:0:0:
320,192,211003,1,0,0:0:0:0:
64,192,211091,1,0,0:0:0:0:
192,192,211179,1,0,0:0:0:0:
448,192,211179,1,8,0:0:0:0:
320,192,211179,1,0,0:0:0:0:
64,192,211356,1,0,0:0:0:0:
192,192,211532,1,2,0:0:0:0:
320,192,211532,1,0,0:0:0:0:
448,192,211709,1,0,0:0:0:0:
192,192,211885,1,0,0:0:0:0:
320,192,211885,1,0,0:0:0:0:
64,192,211885,1,8,0:0:0:0:
320,192,212062,1,0,0:0:0:0:
448,192,212238,1,2,0:0:0:0:
192,192,212238,1,0,0:0:0:0:
448,192,212415,1,0,0:0:0:0:
64,192,212503,1,0,0:0:0:0:
192,192,212591,1,8,0:0:0:0:
448,192,212591,1,0,0:0:0:0:
320,192,212591,1,0,0:0:0:0:
64,192,212768,1,0,0:0:0:0:
320,192,212944,1,2,0:0:0:0:
192,192,212944,1,0,0:0:0:0:
448,192,213121,1,0,0:0:0:0:
320,192,213297,1,8,0:0:0:0:
64,192,213297,1,0,0:0:0:0:
192,192,213297,1,0,0:0:0:0:
192,192,213474,1,0,0:0:0:0:
448,192,213650,1,0,0:0:0:0:
320,192,213650,1,2,0:0:0:0:
64,192,213827,1,0,0:0:0:0:
320,192,213915,1,0,0:0:0:0:
192,192,214003,1,0,0:0:0:0:
64,192,214003,1,0,0:0:0:0:
448,192,214003,1,8,0:0:0:0:
320,192,214179,1,0,0:0:0:0:
320,192,214356,1,0,0:0:0:0:
64,192,214356,1,2,0:0:0:0:
192,192,214532,1,0,0:0:0:0:
320,192,214709,1,0,0:0:0:0:
64,192,214709,1,0,0:0:0:0:
448,192,214709,1,8,0:0:0:0:
192,192,214885,1,0,0:0:0:0:
448,192,215062,1,2,0:0:0:0:
320,192,215062,1,0,0:0:0:0:
192,192,215238,1,0,0:0:0:0:
64,192,215327,1,0,0:0:0:0:
320,192,215415,1,0,0:0:0:0:
192,192,215415,1,0,0:0:0:0:
448,192,215415,1,2,0:0:0:0:
64,192,215503,1,0,0:0:0:0:
192,192,215591,1,0,0:0:0:0:
448,192,215768,1,0,0:0:0:0:
320,192,215768,1,2,0:0:0:0:
64,192,215768,1,4,0:0:0:0:
192,192,215768,1,0,0:0:0:0:
192,192,215944,1,0,0:0:0:0:
448,192,216121,1,0,0:0:0:0:
320,192,216121,1,8,0:0:0:0:
64,192,216121,1,0,0:0:0:0:
320,192,216297,1,0,0:0:0:0:
192,192,216474,1,2,0:0:0:0:
64,192,216474,1,0,0:0:0:0:
448,192,216650,1,0,0:0:0:0:
320,192,216738,1,0,0:0:0:0:
448,192,216827,1,0,0:0:0:0:
192,192,216827,1,0,0:0:0:0:
64,192,216827,1,8,0:0:0:0:
320,192,217003,1,0,0:0:0:0:
64,192,217179,1,0,0:0:0:0:
192,192,217179,1,2,0:0:0:0:
448,192,217356,1,0,0:0:0:0:
192,192,217532,1,8,0:0:0:0:
448,192,217532,1,0,0:0:0:0:
320,192,217532,1,0,0:0:0:0:
64,192,217709,1,0,0:0:0:0:
320,192,217885,1,0,0:0:0:0:
192,192,217885,1,2,0:0:0:0:
448,192,218062,1,0,0:0:0:0:
64,192,218150,1,0,0:0:0:0:
448,192,218238,1,0,0:0:0:0:
320,192,218238,1,0,0:0:0:0:
192,192,218238,1,8,0:0:0:0:
64,192,218415,1,0,0:0:0:0:
320,192,218591,1,0,0:0:0:0:
448,192,218591,1,2,0:0:0:0:
192,192,218768,1,0,0:0:0:0:
64,192,218944,1,0,0:0:0:0:
320,192,218944,1,0,0:0:0:0:
448,192,218944,1,8,0:0:0:0:
192,192,219121,1,0,0:0:0:0:
64,192,219297,1,0,0:0:0:0:
320,192,219297,1,2,0:0:0:0:
320,192,219474,1,0,0:0:0:0:
448,192,219562,1,0,0:0:0:0:
320,192,219650,1,0,0:0:0:0:
192,192,219650,1,0,0:0:0:0:
64,192,219650,1,8,0:0:0:0:
448,192,219827,1,0,0:0:0:0:
192,192,220003,1,2,0:0:0:0:
320,192,220003,1,0,0:0:0:0:
64,192,220179,1,0,0:0:0:0:
448,192,220356,1,8,0:0:0:0:
192,192,220356,1,0,0:0:0:0:
320,192,220356,1,0,0:0:0:0:
320,192,220532,1,0,0:0:0:0:
192,192,220709,1,2,0:0:0:0:
64,192,220709,1,0,0:0:0:0:
320,192,220885,1,0,0:0:0:0:
192,192,220974,1,0,0:0:0:0:
448,192,221062,1,0,0:0:0:0:
64,192,221062,1,8,0:0:0:0:
320,192,221062,1,0,0:0:0:0:
192,192,221150,1,0,0:0:0:0:
320,192,221238,1,0,0:0:0:0:
448,192,221327,1,0,0:0:0:0:
64,192,221415,1,8,0:0:0:0:
192,192,221415,1,0,0:0:0:0:
320,192,221591,1,0,0:0:0:0:
448,192,221768,1,8,0:0:0:0:
64,192,221768,1,0,0:0:0:0:
192,192,221768,1,0,0:0:0:0:
320,192,221944,1,0,0:0:0:0:
64,192,222121,1,0,0:0:0:0:
192,192,222121,1,2,0:0:0:0:
320,192,222297,1,0,0:0:0:0:
64,192,222385,1,0,0:0:0:0:
192,192,222474,1,0,0:0:0:0:
448,192,222474,1,8,0:0:0:0:
320,192,222474,1,0,0:0:0:0:
64,192,222650,1,0,0:0:0:0:
192,192,222827,1,2,0:0:0:0:
320,192,222827,1,0,0:0:0:0:
448,192,223003,1,0,0:0:0:0:
192,192,223179,1,0,0:0:0:0:
64,192,223179,1,8,0:0:0:0:
320,192,223179,1,0,0:0:0:0:
320,192,223356,1,0,0:0:0:0:
192,192,223532,1,0,0:0:0:0:
448,192,223532,1,2,0:0:0:0:
448,192,223709,1,0,0:0:0:0:
64,192,223797,1,0,0:0:0:0:
192,192,223885,1,8,0:0:0:0:
448,192,223885,1,0,0:0:0:0:
320,192,223885,1,0,0:0:0:0:
64,192,224062,1,0,0:0:0:0:
320,192,224238,1,2,0:0:0:0:
448,192,224238,1,0,0:0:0:0:
192,192,224327,1,0,0:0:0:0:
448,192,224415,1,0,0:0:0:0:
320,192,224503,1,0,0:0:0:0:
192,192,224591,1,8,0:0:0:0:
64,192,224591,1,0,0:0:0:0:
448,192,224679,1,0,0:0:0:0:
320,192,224768,1,0,0:0:0:0:
64,192,224856,1,0,0:0:0:0:
192,192,224944,1,0,0:0:0:0:
320,192,224944,1,2,0:0:0:0:
448,192,225032,1,0,0:0:0:0:
64,192,225121,1,0,0:0:0:0:
192,192,225209,1,0,0:0:0:0:
320,192,225297,1,0,0:0:0:0:
448,192,225297,1,8,0:0:0:0:
192,192,225385,1,0,0:0:0:0:
64,192,225474,1,0,0:0:0:0:
448,192,225562,1,0,0:0:0:0:
320,192,225650,1,2,0:0:0:0:
64,192,225650,1,0,0:0:0:0:
192,192,225738,1,0,0:0:0:0:
320,192,225827,1,0,0:0:0:0:
448,192,225915,5,0,0:0:0:0:
192,192,226003,1,0,0:0:0:0:
320,192,226003,1,8,0:0:0:0:
64,192,226091,1,0,0:0:0:0:
320,192,226179,1,0,0:0:0:0:
192,192,226268,1,0,0:0:0:0:
320,192,226356,5,0,0:0:0:0:
448,192,226356,1,2,0:0:0:0:
64,192,226356,1,2,0:0:0:0:
192,192,226621,1,0,0:0:0:0:
64,192,226621,1,2,0:0:0:0:
448,192,226621,1,2,0:0:0:0:
64,192,226885,1,2,0:0:0:0:
448,192,226885,1,2,0:0:0:0:
320,192,226885,1,0,0:0:0:0:
64,192,227062,5,2,0:0:0:0:
192,192,227062,1,4,0:0:0:0:
320,192,227062,1,0,0:0:0:0:
448,192,227062,128,0,227238:0:0:0:0:
192,192,227238,5,0,0:0:0:0:
64,192,227415,1,8,0:0:0:0:
192,192,227415,1,0,0:0:0:0:
320,192,227415,128,0,227591:0:0:0:0:
448,192,227591,1,0,0:0:0:0:
192,192,227768,1,2,0:0:0:0:
64,192,227768,1,0,0:0:0:0:
320,192,227944,1,0,0:0:0:0:
448,192,228032,1,0,0:0:0:0:
320,192,228121,1,0,0:0:0:0:
64,192,228121,1,8,0:0:0:0:
192,192,228121,1,0,0:0:0:0:
192,192,228297,1,0,0:0:0:0:
320,192,228474,1,2,0:0:0:0:
64,192,228474,128,0,228650:0:0:0:0:
448,192,228650,1,0,0:0:0:0:
448,192,228827,1,8,0:0:0:0:
320,192,228827,1,0,0:0:0:0:
192,192,228827,128,0,229003:0:0:0:0:
64,192,229003,1,0,0:0:0:0:
192,192,229179,1,2,0:0:0:0:
320,192,229179,1,0,0:0:0:0:
448,192,229356,1,0,0:0:0:0:
320,192,229444,1,0,0:0:0:0:
448,192,229532,1,0,0:0:0:0:
192,192,229532,1,8,0:0:0:0:
64,192,229532,1,0,0:0:0:0:
320,192,229709,1,0,0:0:0:0:
192,192,229885,1,2,0:0:0:0:
448,192,229885,128,0,230062:0:0:0:0:
64,192,230062,1,0,0:0:0:0:
64,192,230238,1,8,0:0:0:0:
320,192,230238,128,0,230415:0:0:0:0:
192,192,230238,1,0,0:0:0:0:
448,192,230415,1,0,0:0:0:0:
192,192,230591,1,2,0:0:0:0:
320,192,230591,1,0,0:0:0:0:
448,192,230768,1,0,0:0:0:0:
320,192,230856,1,0,0:0:0:0:
448,192,230944,1,0,0:0:0:0:
192,192,230944,1,8,0:0:0:0:
64,192,230944,1,0,0:0:0:0:
320,192,231121,1,0,0:0:0:0:
192,192,231297,1,2,0:0:0:0:
64,192,231297,128,0,231474:0:0:0:0:
448,192,231474,1,0,0:0:0:0:
448,192,231650,1,0,0:0:0:0:
320,192,231650,1,8,0:0:0:0:
192,192,231650,128,0,231827:0:0:0:0:
64,192,231827,1,0,0:0:0:0:
320,192,232003,1,0,0:0:0:0:
192,192,232003,1,2,0:0:0:0:
64,192,232179,1,0,0:0:0:0:
192,192,232268,1,0,0:0:0:0:
64,192,232356,1,0,0:0:0:0:
448,192,232356,1,8,0:0:0:0:
320,192,232356,1,0,0:0:0:0:
192,192,232444,1,0,0:0:0:0:
320,192,232532,1,0,0:0:0:0:
448,192,232621,1,0,0:0:0:0:
192,192,232709,1,2,0:0:0:0:
64,192,232709,128,0,232885:0:0:0:0:
320,192,232885,1,0,0:0:0:0:
64,192,233062,1,0,0:0:0:0:
320,192,233062,1,8,0:0:0:0:
448,192,233062,128,0,233238:0:0:0:0:
192,192,233238,1,0,0:0:0:0:
448,192,233415,1,0,0:0:0:0:
320,192,233415,1,2,0:0:0:0:
320,192,233591,1,0,0:0:0:0:
192,192,233679,1,0,0:0:0:0:
64,192,233768,1,0,0:0:0:0:
448,192,233856,1,0,0:0:0:0:
320,192,233944,1,0,0:0:0:0:
448,192,234121,1,2,0:0:0:0:
192,192,234121,128,0,234297:0:0:0:0:
320,192,234297,1,0,0:0:0:0:
192,192,234474,1,8,0:0:0:0:
64,192,234474,1,0,0:0:0:0:
448,192,234474,128,0,234650:0:0:0:0:
320,192,234650,1,0,0:0:0:0:
192,192,234827,1,0,0:0:0:0:
64,192,234827,1,2,0:0:0:0:
192,192,235003,1,0,0:0:0:0:
320,192,235091,1,0,0:0:0:0:
448,192,235179,1,0,0:0:0:0:
64,192,235268,1,0,0:0:0:0:
192,192,235356,1,0,0:0:0:0:
64,192,235532,1,2,0:0:0:0:
320,192,235532,128,0,235709:0:0:0:0:
192,192,235709,1,0,0:0:0:0:
448,192,235885,1,8,0:0:0:0:
320,192,235885,1,0,0:0:0:0:
64,192,235885,128,0,236062:0:0:0:0:
192,192,236062,1,0,0:0:0:0:
320,192,236238,1,0,0:0:0:0:
192,192,236238,1,2,0:0:0:0:
448,192,236415,1,0,0:0:0:0:
320,192,236503,1,0,0:0:0:0:
192,192,236591,1,0,0:0:0:0:
64,192,236679,1,0,0:0:0:0:
192,192,236768,1,0,0:0:0:0:
320,192,236944,1,2,0:0:0:0:
448,192,236944,128,0,237121:0:0:0:0:
192,192,237121,1,0,0:0:0:0:
320,192,237297,1,0,0:0:0:0:
64,192,237297,128,0,237474:0:0:0:0:
448,192,237297,1,8,0:0:0:0:
192,192,237474,1,0,0:0:0:0:
320,192,237650,1,2,0:0:0:0:
448,192,237650,1,0,0:0:0:0:
64,192,237827,1,0,0:0:0:0:
192,192,237915,1,0,0:0:0:0:
320,192,238003,1,8,0:0:0:0:
448,192,238003,1,0,0:0:0:0:
64,192,238003,1,0,0:0:0:0:
192,192,238091,1,0,0:0:0:0:
320,192,238179,1,0,0:0:0:0:
192,192,238268,1,0,0:0:0:0:
64,192,238356,1,8,1:0:0:0:
320,192,238356,1,2,0:0:0:0:
448,192,238356,128,4,238532:0:0:0:0:
192,192,238532,1,0,0:0:0:0:
320,192,238709,128,0,238885:0:0:0:0:
192,192,238709,1,8,1:0:0:0:
64,192,238709,1,8,0:0:0:0:
448,192,238885,1,0,0:0:0:0:
64,192,239062,1,8,1:0:0:0:
192,192,239062,1,2,0:0:0:0:
320,192,239238,1,0,0:0:0:0:
448,192,239327,1,0,0:0:0:0:
64,192,239415,1,8,0:0:0:0:
192,192,239415,1,0,0:0:0:0:
320,192,239415,1,8,1:0:0:0:
192,192,239591,1,0,0:0:0:0:
320,192,239768,1,8,1:0:0:0:
64,192,239768,128,2,239944:0:0:0:0:
448,192,239944,1,0,0:0:0:0:
192,192,240121,128,0,240297:0:0:0:0:
448,192,240121,1,8,0:0:0:0:
320,192,240121,1,8,1:0:0:0:
64,192,240297,1,0,0:0:0:0:
320,192,240474,1,8,1:0:0:0:
192,192,240474,1,2,0:0:0:0:
448,192,240650,1,0,0:0:0:0:
320,192,240738,1,0,0:0:0:0:
448,192,240827,1,8,1:0:0:0:
64,192,240827,1,0,0:0:0:0:
192,192,240827,1,8,0:0:0:0:
320,192,241003,1,0,0:0:0:0:
448,192,241179,128,2,241356:0:0:0:0:
192,192,241179,1,8,1:0:0:0:
64,192,241356,1,0,0:0:0:0:
320,192,241532,128,0,241709:0:0:0:0:
192,192,241532,1,8,1:0:0:0:
64,192,241532,1,8,0:0:0:0:
448,192,241709,1,0,0:0:0:0:
192,192,241885,1,2,0:0:0:0:
320,192,241885,1,8,1:0:0:0:
448,192,242062,1,0,0:0:0:0:
320,192,242150,1,0,0:0:0:0:
192,192,242238,1,8,0:0:0:0:
64,192,242238,1,0,0:0:0:0:
448,192,242238,1,8,1:0:0:0:
320,192,242415,1,0,0:0:0:0:
192,192,242591,1,8,1:0:0:0:
64,192,242591,128,2,242768:0:0:0:0:
448,192,242768,1,0,0:0:0:0:
192,192,242944,128,0,243121:0:0:0:0:
320,192,242944,1,8,0:0:0:0:
448,192,242944,1,8,1:0:0:0:
64,192,243121,1,0,0:0:0:0:
192,192,243297,1,2,0:0:0:0:
320,192,243297,1,8,1:0:0:0:
64,192,243474,1,8,1:0:0:0:
192,192,243562,1,0,0:0:0:0:
448,192,243650,1,8,0:0:0:0:
64,192,243650,1,8,1:0:0:0:
320,192,243650,1,0,0:0:0:0:
192,192,243738,1,8,1:0:0:0:
448,192,243827,1,8,1:0:0:0:
320,192,243915,1,8,1:0:0:0:
192,192,244003,1,8,1:0:0:0:
64,192,244003,128,2,244179:0:0:0:0:
320,192,244179,1,8,1:0:0:0:
448,192,244356,128,0,244532:0:0:0:0:
320,192,244356,1,8,0:0:0:0:
64,192,244356,1,8,1:0:0:0:
192,192,244532,1,8,1:0:0:0:
448,192,244709,1,8,1:0:0:0:
320,192,244709,1,2,0:0:0:0:
64,192,244885,1,8,1:0:0:0:
320,192,244974,1,8,1:0:0:0:
64,192,245062,1,8,1:0:0:0:
192,192,245150,1,8,1:0:0:0:
448,192,245238,1,8,1:0:0:0:
320,192,245327,5,8,1:0:0:0:
448,192,245415,1,8,1:0:0:0:
192,192,245415,128,2,245591:0:0:0:0:
320,192,245591,1,8,1:0:0:0:
64,192,245768,1,8,1:0:0:0:
448,192,245768,128,0,245944:0:0:0:0:
192,192,245768,1,8,0:0:0:0:
320,192,245944,1,8,1:0:0:0:
192,192,246121,1,8,1:0:0:0:
64,192,246121,1,2,0:0:0:0:
320,192,246297,1,8,1:0:0:0:
64,192,246474,1,8,0:0:0:0:
448,192,246474,1,8,1:0:0:0:
192,192,246474,1,0,0:0:0:0:
320,192,246562,1,8,1:0:0:0:
64,192,246650,1,8,1:0:0:0:
192,192,246738,1,8,1:0:0:0:
448,192,246827,1,2,0:0:0:0:
320,192,246827,1,8,1:0:0:0:
64,192,246915,1,8,1:0:0:0:
192,192,247003,1,8,1:0:0:0:
320,192,247091,1,8,1:0:0:0:
64,192,247179,1,8,0:0:0:0:
448,192,247179,1,8,1:0:0:0:
320,192,247268,1,8,1:0:0:0:
192,192,247356,1,8,1:0:0:0:
448,192,247444,1,8,1:0:0:0:
192,192,247532,1,8,1:0:0:0:
320,192,247532,1,2,0:0:0:0:
64,192,247621,1,8,1:0:0:0:
448,192,247709,1,8,1:0:0:0:
320,192,247797,1,8,1:0:0:0:
192,192,247885,1,8,0:0:0:0:
64,192,247885,1,8,1:0:0:0:
320,192,247974,1,8,1:0:0:0:
64,192,248062,1,8,1:0:0:0:
192,192,248150,1,8,1:0:0:0:
448,192,248238,1,0,0:0:0:0:
320,192,248238,1,2,0:0:0:0:
64,192,248238,128,0,249650:0:0:0:0:
192,192,248415,1,0,0:0:0:0:
192,192,248591,1,0,0:0:0:0:
448,192,248591,1,8,0:0:0:0:
320,192,248768,1,0,0:0:0:0:
320,192,248944,1,2,0:0:0:0:
448,192,248944,1,0,0:0:0:0:
192,192,249121,1,0,0:0:0:0:
320,192,249209,1,0,0:0:0:0:
448,192,249297,1,8,0:0:0:0:
192,192,249297,1,0,0:0:0:0:
320,192,249474,1,0,0:0:0:0:
320,192,249650,1,2,0:0:0:0:
448,192,249650,1,4,0:0:0:0:
192,192,249650,1,0,0:0:0:0:
320,192,249827,1,0,0:0:0:0:
64,192,250003,1,0,0:0:0:0:
192,192,250003,1,0,0:0:0:0:
448,192,250003,1,8,0:0:0:0:
320,192,250179,1,0,0:0:0:0:
192,192,250356,1,2,0:0:0:0:
64,192,250356,1,0,0:0:0:0:
448,192,250532,1,0,0:0:0:0:
64,192,250709,1,0,0:0:0:0:
192,192,250709,1,0,0:0:0:0:
320,192,250709,1,8,0:0:0:0:
192,192,250885,1,0,0:0:0:0:
320,192,251062,1,2,0:0:0:0:
448,192,251062,1,0,0:0:0:0:
192,192,251238,1,0,0:0:0:0:
64,192,251415,1,0,0:0:0:0:
320,192,251415,1,0,0:0:0:0:
448,192,251415,1,8,0:0:0:0:
448,192,251591,1,0,0:0:0:0:
192,192,251768,1,0,0:0:0:0:
320,192,251768,1,2,0:0:0:0:
64,192,251944,1,0,0:0:0:0:
448,192,252121,1,0,0:0:0:0:
320,192,252121,1,0,0:0:0:0:
192,192,252121,1,8,0:0:0:0:
64,192,252297,1,0,0:0:0:0:
320,192,252474,1,2,0:0:0:0:
64,192,252474,1,0,0:0:0:0:
448,192,252650,1,0,0:0:0:0:
64,192,252827,1,0,0:0:0:0:
192,192,252827,1,0,0:0:0:0:
320,192,252827,1,8,0:0:0:0:
448,192,253003,1,0,0:0:0:0:
320,192,253179,1,2,0:0:0:0:
192,192,253179,1,0,0:0:0:0:
64,192,253356,1,0,0:0:0:0:
192,192,253532,1,8,0:0:0:0:
448,192,253532,1,0,0:0:0:0:
320,192,253532,1,0,0:0:0:0:
192,192,253709,1,0,0:0:0:0:
64,192,253885,1,0,0:0:0:0:
320,192,253885,1,2,0:0:0:0:
192,192,254062,1,0,0:0:0:0:
64,192,254238,1,0,0:0:0:0:
320,192,254238,1,0,0:0:0:0:
448,192,254238,1,8,0:0:0:0:
192,192,254415,1,0,0:0:0:0:
448,192,254591,1,0,0:0:0:0:
320,192,254591,1,2,0:0:0:0:
64,192,254768,1,0,0:0:0:0:
448,192,254944,1,8,0:0:0:0:
192,192,254944,1,0,0:0:0:0:
320,192,254944,1,0,0:0:0:0:
64,192,255121,1,0,0:0:0:0:
192,192,255297,1,0,0:0:0:0:
448,192,255297,1,2,0:0:0:0:
320,192,255474,1,0,0:0:0:0:
64,192,255650,1,0,0:0:0:0:
448,192,255650,1,8,0:0:0:0:
192,192,255650,1,0,0:0:0:0:
320,192,255827,1,0,0:0:0:0:
192,192,256003,1,2,0:0:0:0:
64,192,256003,1,0,0:0:0:0:
448,192,256179,1,0,0:0:0:0:
64,192,256356,1,0,0:0:0:0:
192,192,256356,1,0,0:0:0:0:
320,192,256356,1,8,0:0:0:0:
192,192,256532,1,0,0:0:0:0:
448,192,256709,1,0,0:0:0:0:
320,192,256709,1,2,0:0:0:0:
192,192,256885,1,0,0:0:0:0:
320,192,257062,1,0,0:0:0:0:
448,192,257062,1,8,0:0:0:0:
64,192,257062,1,0,0:0:0:0:
448,192,257238,1,0,0:0:0:0:
192,192,257415,1,0,0:0:0:0:
320,192,257415,1,2,0:0:0:0:
64,192,257591,1,0,0:0:0:0:
320,192,257768,1,0,0:0:0:0:
192,192,257768,1,8,0:0:0:0:
448,192,257768,1,0,0:0:0:0:
64,192,257944,1,0,0:0:0:0:
64,192,258121,1,0,0:0:0:0:
320,192,258121,1,2,0:0:0:0:
448,192,258297,1,0,0:0:0:0:
64,192,258474,1,0,0:0:0:0:
320,192,258474,1,8,0:0:0:0:
192,192,258474,1,0,0:0:0:0:
448,192,258650,1,0,0:0:0:0:
192,192,258827,1,0,0:0:0:0:
320,192,258827,1,2,0:0:0:0:
64,192,259003,1,0,0:0:0:0:
320,192,259179,1,0,0:0:0:0:
448,192,259179,1,0,0:0:0:0:
192,192,259179,1,8,0:0:0:0:
192,192,259356,1,0,0:0:0:0:
320,192,259532,1,2,0:0:0:0:
64,192,259532,1,0,0:0:0:0:
192,192,259709,1,0,0:0:0:0:
64,192,259885,1,0,0:0:0:0:
448,192,259885,1,8,0:0:0:0:
320,192,259885,1,0,0:0:0:0:
192,192,260062,1,0,0:0:0:0:
448,192,260238,1,0,0:0:0:0:
320,192,260238,1,2,0:0:0:0:
64,192,260415,1,0,0:0:0:0:
320,192,260591,1,0,0:0:0:0:
448,192,260591,1,8,0:0:0:0:
192,192,260591,1,0,0:0:0:0:
64,192,260768,1,0,0:0:0:0:
64,192,260944,1,2,0:0:0:0:
192,192,260944,1,0,0:0:0:0:
320,192,260944,1,8,1:0:0:0:
448,192,260944,1,4,0:0:0:0:
448,192,261121,1,0,0:0:0:0:
64,192,261297,1,8,0:0:0:0:
320,192,261297,1,8,1:0:0:0:
192,192,261297,1,0,0:0:0:0:
320,192,261474,1,0,0:0:0:0:
64,192,261650,1,8,1:0:0:0:
448,192,261650,1,2,0:0:0:0:
192,192,261827,1,0,0:0:0:0:
320,192,262003,1,8,1:0:0:0:
448,192,262003,1,0,0:0:0:0:
64,192,262003,1,0,0:0:0:0:
192,192,262179,1,2,0:0:0:0:
64,192,262356,1,0,0:0:0:0:
320,192,262356,1,8,1:0:0:0:
192,192,262532,1,8,1:0:0:0:
64,192,262709,1,0,0:0:0:0:
320,192,262709,1,0,0:0:0:0:
448,192,262709,1,0,0:0:0:0:
448,192,262885,1,0,0:0:0:0:
192,192,263062,1,2,0:0:0:0:
64,192,263062,1,8,1:0:0:0:
192,192,263238,1,0,0:0:0:0:
64,192,263415,1,8,1:0:0:0:
320,192,263415,1,8,0:0:0:0:
448,192,263415,1,0,0:0:0:0:
320,192,263591,1,8,1:0:0:0:
64,192,263679,1,8,1:0:0:0:
320,192,263768,1,8,1:0:0:0:
448,192,263768,1,2,0:0:0:0:
448,192,263944,1,0,0:0:0:0:
64,192,264121,1,8,1:0:0:0:
192,192,264121,1,0,0:0:0:0:
320,192,264121,1,8,0:0:0:0:
448,192,264297,1,0,0:0:0:0:
64,192,264474,1,8,1:0:0:0:
192,192,264474,1,2,0:0:0:0:
320,192,264650,1,0,0:0:0:0:
64,192,264827,1,8,0:0:0:0:
320,192,264827,1,0,0:0:0:0:
448,192,264827,1,8,1:0:0:0:
192,192,265003,1,0,0:0:0:0:
448,192,265179,1,8,1:0:0:0:
320,192,265179,1,2,0:0:0:0:
64,192,265356,1,0,0:0:0:0:
64,192,265532,1,8,0:0:0:0:
320,192,265532,1,8,1:0:0:0:
448,192,265532,1,0,0:0:0:0:
192,192,265709,1,0,0:0:0:0:
448,192,265885,1,2,0:0:0:0:
64,192,265885,1,8,1:0:0:0:
320,192,266062,1,8,1:0:0:0:
64,192,266238,1,8,0:0:0:0:
448,192,266238,1,8,1:0:0:0:
320,192,266327,1,8,1:0:0:0:
192,192,266415,1,8,1:0:0:0:
448,192,266503,1,8,1:0:0:0:
320,192,266591,1,2,0:0:0:0:
192,192,266591,1,8,1:0:0:0:
64,192,266768,1,8,1:0:0:0:
192,192,266944,1,8,1:0:0:0:
320,192,266944,1,0,0:0:0:0:
448,192,266944,1,8,0:0:0:0:
192,192,267121,1,8,1:0:0:0:
320,192,267297,1,8,1:0:0:0:
64,192,267297,1,2,0:0:0:0:
192,192,267474,1,8,1:0:0:0:
320,192,267650,1,8,1:0:0:0:
448,192,267650,1,8,0:0:0:0:
192,192,267738,1,8,1:0:0:0:
64,192,267827,1,8,1:0:0:0:
448,192,267915,1,8,1:0:0:0:
320,192,268003,1,8,1:0:0:0:
192,192,268003,1,2,0:0:0:0:
192,192,268179,1,8,1:0:0:0:
320,192,268356,1,0,0:0:0:0:
448,192,268356,1,8,0:0:0:0:
64,192,268356,1,8,1:0:0:0:
192,192,268532,1,8,1:0:0:0:
320,192,268709,1,8,1:0:0:0:
448,192,268709,1,2,0:0:0:0:
64,192,268885,1,8,1:0:0:0:
64,192,269062,1,8,1:0:0:0:
448,192,269062,1,8,0:0:0:0:
192,192,269150,1,8,1:0:0:0:
320,192,269238,1,8,1:0:0:0:
448,192,269327,1,8,1:0:0:0:
192,192,269415,1,2,0:0:0:0:
320,192,269415,1,8,1:0:0:0:
64,192,269503,1,8,1:0:0:0:
192,192,269591,1,8,1:0:0:0:
448,192,269679,1,8,1:0:0:0:
320,192,269768,1,8,1:0:0:0:
64,192,269768,1,8,0:0:0:0:
192,192,269856,1,8,1:0:0:0:
320,192,269944,1,8,1:0:0:0:
64,192,270032,1,8,1:0:0:0:
192,192,270121,1,2,0:0:0:0:
320,192,270121,1,8,1:0:0:0:
448,192,270209,1,8,1:0:0:0:
320,192,270297,1,8,1:0:0:0:
192,192,270385,1,8,1:0:0:0:
64,192,270474,1,8,0:0:0:0:
320,192,270474,1,8,1:0:0:0:
448,192,270562,1,8,0:1:0:0:
64,192,270650,1,8,0:1:0:0:
320,192,270738,1,8,0:1:0:0:
64,192,270827,128,0,271532:0:0:0:0:
448,192,270827,1,2,0:0:0:0:
192,192,271003,1,0,0:0:0:0:
320,192,271179,1,0,0:0:0:0:
448,192,271179,1,8,0:0:0:0:
320,192,271356,1,0,0:0:0:0:
448,192,271532,128,0,272238:0:0:0:0:
192,192,271532,1,2,0:0:0:0:
320,192,271709,1,0,0:0:0:0:
192,192,271885,1,8,0:0:0:0:
64,192,271885,1,0,0:0:0:0:
320,192,272062,1,0,0:0:0:0:
64,192,272238,1,2,0:0:0:0:
192,192,272238,1,4,0:0:0:0:
320,192,272238,1,0,0:0:0:0:
64,192,272591,1,0,0:0:0:0:
192,192,272591,1,8,0:0:0:0:
448,192,272944,1,0,0:0:0:0:
320,192,272944,1,2,0:0:0:0:
320,192,273297,1,8,0:0:0:0:
64,192,273297,1,0,0:0:0:0:
320,192,273650,1,0,0:0:0:0:
192,192,273650,1,2,0:0:0:0:
320,192,274003,1,8,0:0:0:0:
448,192,274003,1,0,0:0:0:0:
192,192,274356,1,2,0:0:0:0:
448,192,274356,1,0,0:0:0:0:
64,192,274709,1,0,0:0:0:0:
320,192,274709,1,2,0:0:0:0:
320,192,275062,1,2,0:0:0:0:
448,192,275062,1,0,0:0:0:0:
448,192,275415,1,0,0:0:0:0:
64,192,275415,1,8,0:0:0:0:
448,192,275768,1,0,0:0:0:0:
192,192,275768,1,2,0:0:0:0:
64,192,276121,1,8,0:0:0:0:
320,192,276121,1,0,0:0:0:0:
448,192,276474,1,0,0:0:0:0:
320,192,276474,1,2,0:0:0:0:
192,192,276827,1,0,0:0:0:0:
64,192,276827,1,8,0:0:0:0:
320,192,277179,1,0,0:0:0:0:
192,192,277179,1,2,0:0:0:0:
448,192,277532,1,0,0:0:0:0:
64,192,277532,1,8,0:0:0:0:
320,192,277885,1,0,0:0:0:0:
192,192,277885,1,2,0:0:0:0:
64,192,278238,1,0,0:0:0:0:
192,192,278238,1,8,0:0:0:0:
448,192,278591,1,0,0:0:0:0:
320,192,278591,1,2,0:0:0:0:
320,192,278944,1,8,0:0:0:0:
64,192,278944,1,0,0:0:0:0:
320,192,279297,1,0,0:0:0:0:
192,192,279297,1,2,0:0:0:0:
320,192,279650,1,8,0:0:0:0:
448,192,279650,1,0,0:0:0:0:
192,192,280003,1,2,0:0:0:0:
448,192,280003,1,0,0:0:0:0:
64,192,280356,1,0,0:0:0:0:
320,192,280356,1,2,0:0:0:0:
320,192,280709,1,2,0:0:0:0:
448,192,280709,1,0,0:0:0:0:
448,192,281062,1,0,0:0:0:0:
64,192,281062,1,8,0:0:0:0:
448,192,281415,1,0,0:0:0:0:
192,192,281415,1,2,0:0:0:0:
64,192,281768,1,8,0:0:0:0:
320,192,281768,1,0,0:0:0:0:
448,192,282121,1,0,0:0:0:0:
320,192,282121,1,2,0:0:0:0:
192,192,282474,1,0,0:0:0:0:
64,192,282474,1,8,0:0:0:0:
320,192,282827,1,0,0:0:0:0:
192,192,282827,1,2,0:0:0:0:
448,192,283179,1,0,0:0:0:0:
64,192,283179,1,8,0:0:0:0:
64,192,283532,1,4,0:0:0:0:
192,192,283532,1,0,0:0:0:0:
320,192,283532,1,0,0:0:0:0:
448,192,283532,1,8,1:0:0:0:
64,192,283885,1,8,0:0:0:0:
192,192,283885,1,0,0:0:0:0:
448,192,283885,1,8,1:0:0:0:
192,192,284238,1,2,0:0:0:0:
320,192,284238,1,8,1:0:0:0:
64,192,284591,1,8,0:0:0:0:
320,192,284591,1,0,0:0:0:0:
448,192,284591,1,8,1:0:0:0:
64,192,284944,1,8,1:0:0:0:
192,192,284944,1,2,0:0:0:0:
448,192,285297,1,8,1:0:0:0:
192,192,285297,1,0,0:0:0:0:
64,192,285297,1,8,0:0:0:0:
320,192,285650,1,2,0:0:0:0:
448,192,285650,1,8,1:0:0:0:
64,192,286003,1,8,0:0:0:0:
192,192,286003,1,0,0:0:0:0:
320,192,286003,1,8,1:0:0:0:
448,192,286179,1,8,1:0:0:0:
192,192,286268,1,8,1:0:0:0:
320,192,286356,1,8,1:0:0:0:
448,192,286356,1,2,0:0:0:0:
64,192,286709,1,8,0:0:0:0:
448,192,286709,1,8,1:0:0:0:
320,192,286709,1,0,0:0:0:0:
320,192,287062,1,8,1:0:0:0:
192,192,287062,1,2,0:0:0:0:
320,192,287415,1,0,0:0:0:0:
448,192,287415,1,8,1:0:0:0:
192,192,287415,1,8,0:0:0:0:
64,192,287768,1,8,1:0:0:0:
320,192,287768,1,2,0:0:0:0:
64,192,288121,1,8,0:0:0:0:
320,192,288121,1,8,1:0:0:0:
192,192,288121,1,0,0:0:0:0:
192,192,288474,1,2,0:0:0:0:
64,192,288474,1,8,1:0:0:0:
320,192,288650,1,8,1:0:0:0:
64,192,288827,1,8,0:0:0:0:
448,192,288827,1,8,1:0:0:0:
320,192,288915,1,8,1:0:0:0:
64,192,289003,1,8,1:0:0:0:
192,192,289091,1,8,1:0:0:0:
320,192,289179,1,8,1:0:0:0:
448,192,289179,1,2,0:0:0:0:
64,192,289356,1,8,1:0:0:0:
448,192,289532,1,8,0:0:0:0:
320,192,289532,1,0,0:0:0:0:
192,192,289532,1,8,1:0:0:0:
320,192,289709,1,8,1:0:0:0:
64,192,289885,1,8,1:0:0:0:
192,192,289885,1,2,0:0:0:0:
448,192,290062,1,8,1:0:0:0:
64,192,290238,1,8,0:0:0:0:
448,192,290238,1,8,1:0:0:0:
320,192,290327,1,8,1:0:0:0:
192,192,290415,1,8,1:0:0:0:
64,192,290503,1,8,1:0:0:0:
320,192,290591,1,8,1:0:0:0:
192,192,290591,1,2,0:0:0:0:
448,192,290768,1,8,1:0:0:0:
64,192,290944,1,8,1:0:0:0:
320,192,290944,1,0,0:0:0:0:
192,192,290944,1,8,0:0:0:0:
448,192,291121,1,8,1:0:0:0:
320,192,291297,1,8,1:0:0:0:
192,192,291297,1,2,0:0:0:0:
64,192,291474,1,8,1:0:0:0:
448,192,291650,1,8,1:0:0:0:
192,192,291650,1,8,0:0:0:0:
64,192,291738,1,8,1:0:0:0:
448,192,291827,1,8,1:0:0:0:
320,192,291915,1,8,1:0:0:0:
192,192,292003,1,2,0:0:0:0:
64,192,292003,1,8,1:0:0:0:
448,192,292091,1,8,1:0:0:0:
320,192,292179,1,8,1:0:0:0:
64,192,292268,1,8,1:0:0:0:
192,192,292356,1,8,0:0:0:0:
320,192,292356,1,8,1:0:0:0:
448,192,292444,1,8,1:0:0:0:
64,192,292532,1,8,1:0:0:0:
192,192,292621,1,8,1:0:0:0:
320,192,292709,1,8,1:0:0:0:
448,192,292709,1,2,0:0:0:0:
192,192,292797,1,8,1:0:0:0:
64,192,292885,1,8,1:0:0:0:
448,192,292974,1,8,1:0:0:0:
320,192,293062,1,8,1:0:0:0:
192,192,293062,1,8,0:0:0:0:
64,192,293150,1,8,1:0:0:0:
448,192,293238,1,8,1:0:0:0:
320,192,293327,1,8,1:0:0:0:
448,192,293415,128,0,294827:0:0:0:0:
64,192,293415,1,8,1:0:0:0:
192,192,293503,1,8,1:0:0:0:
320,192,293591,1,8,1:0:0:0:
64,192,293679,1,8,1:0:0:0:
192,192,293768,1,8,1:0:0:0:
320,192,293856,1,8,1:0:0:0:
64,192,293944,1,8,1:0:0:0:
320,192,294032,1,8,1:0:0:0:
64,192,294121,1,8,1:0:0:0:
192,192,294209,1,8,1:0:0:0:
320,192,294297,1,8,1:0:0:0:
64,192,294385,1,8,1:0:0:0:
192,192,294474,1,8,1:0:0:0:
320,192,294562,1,8,1:0:0:0:
64,192,294650,1,8,1:0:0:0:
320,192,294738,1,8,1:0:0:0:
64,192,294827,1,0,0:0:0:0:
