osu file format v12

[General]
AudioFilename: Dear You.mp3
AudioLeadIn: 2000
PreviewTime: 88171
Countdown: 0
SampleSet: Soft
StackLeniency: 0.7
Mode: 3
LetterboxInBreaks: 0
SpecialStyle: 0
WidescreenStoryboard: 0

[Editor]
Bookmarks: 55175,66202,77230
DistanceSpacing: 0.5
BeatDivisor: 4
GridSize: 4
TimelineZoom: 1.499999

[Metadata]
Title:Dear You
TitleUnicode:Dear You
Artist:DJ Genericname
ArtistUnicode:DJ Genericname
Creator:Taiwan-NAK
Version:7K NM+
Source:Higurashi no Naku Koro ni
Tags:Simple_Star Rumia-
BeatmapID:414680
BeatmapSetID:153316

[Difficulty]
HPDrainRate:7
CircleSize:7
OverallDifficulty:7
ApproachRate:9
SliderMultiplier:1.6
SliderTickRate:1

[Events]
//Background and Video events
0,0,"Dear You.jpg",0,0
//Break Periods
//Storyboard Layer 0 (Background)
//Storyboard Layer 1 (Fail)
//Storyboard Layer 2 (Pass)
//Storyboard Layer 3 (Foreground)
//Storyboard Sound Samples
//Background Colour Transformations
3,100,163,162,255

[TimingPoints]
38,344.609729481362,4,2,1,35,1,0
11065,-100,4,2,1,40,0,0
33120,-100,4,2,1,30,0,0
55175,-100,4,2,1,40,0,0
88257,-100,4,2,1,35,0,1
110312,-100,4,2,1,30,0,0

[Colours]
Combo1 : 255,0,128
Combo2 : 0,128,255
Combo3 : 128,0,255

[HitObjects]
475,192,38,5,4,0:0:0:0:
256,192,38,1,4,0:0:0:0:
402,192,210,1,0,0:0:0:0:
182,192,382,1,0,0:0:0:0:
36,192,554,1,0,0:0:0:0:
475,192,727,1,0,0:0:0:0:
329,192,899,1,0,0:0:0:0:
36,192,1071,1,0,0:0:0:0:
182,192,1244,1,0,0:0:0:0:
256,192,1416,1,0,0:0:0:0:
402,192,1416,1,0,0:0:0:0:
36,192,1588,1,0,0:0:0:0:
329,192,1761,1,0,0:0:0:0:
109,192,1933,1,0,0:0:0:0:
182,192,2105,1,0,0:0:0:0:
329,192,2277,1,0,0:0:0:0:
182,192,2450,1,0,0:0:0:0:
475,192,2622,1,0,0:0:0:0:
182,192,2794,1,0,0:0:0:0:
36,192,2794,1,0,0:0:0:0:
475,192,2967,1,0,0:0:0:0:
329,192,3139,1,0,0:0:0:0:
182,192,3311,1,0,0:0:0:0:
109,192,3484,1,0,0:0:0:0:
256,192,3656,1,0,0:0:0:0:
402,192,3828,1,0,0:0:0:0:
475,192,4001,1,0,0:0:0:0:
36,192,4173,1,0,0:0:0:0:
329,192,4173,1,0,0:0:0:0:
182,192,4345,1,0,0:0:0:0:
402,192,4517,1,0,0:0:0:0:
256,192,4690,1,0,0:0:0:0:
36,192,4862,1,0,0:0:0:0:
182,192,5034,1,0,0:0:0:0:
329,192,5207,1,0,0:0:0:0:
475,192,5379,1,0,0:0:0:0:
109,192,5551,1,0,0:0:0:0:
256,192,5551,1,0,0:0:0:0:
329,192,5724,1,0,0:0:0:0:
475,192,5896,1,0,0:0:0:0:
329,192,6068,1,0,0:0:0:0:
402,192,6240,1,0,0:0:0:0:
256,192,6413,1,0,0:0:0:0:
475,192,6585,1,0,0:0:0:0:
329,192,6757,1,0,0:0:0:0:
182,192,6930,1,0,0:0:0:0:
36,192,6930,1,0,0:0:0:0:
329,192,7102,1,0,0:0:0:0:
256,192,7274,1,0,0:0:0:0:
402,192,7447,1,0,0:0:0:0:
475,192,7619,1,0,0:0:0:0:
329,192,7791,1,0,0:0:0:0:
109,192,7964,1,0,0:0:0:0:
256,192,8136,1,0,0:0:0:0:
329,192,8308,1,0,0:0:0:0:
36,192,8308,1,0,0:0:0:0:
109,192,8480,1,0,0:0:0:0:
256,192,8653,1,0,0:0:0:0:
402,192,8825,1,0,0:0:0:0:
329,192,8997,1,0,0:0:0:0:
36,192,8997,1,0,0:0:0:0:
475,192,9170,1,0,0:0:0:0:
329,192,9342,1,0,0:0:0:0:
182,192,9514,1,0,0:0:0:0:
109,192,9687,1,0,0:0:0:0:
402,192,9687,1,0,0:0:0:0:
256,192,9859,1,0,0:0:0:0:
36,192,10031,1,0,0:0:0:0:
256,192,10203,1,0,0:0:0:0:
475,192,10376,1,0,0:0:0:0:
182,192,10548,1,0,0:0:0:0:
402,192,10720,1,8,0:0:0:0:
109,192,10893,1,0,0:0:0:0:
256,192,11065,1,6,0:0:0:0:
475,192,11065,1,0,0:0:0:0:
475,192,11754,1,0,0:0:0:0:
402,192,11927,1,2,0:0:0:0:
329,192,12099,1,8,0:0:0:0:
402,192,12271,1,0,0:0:0:0:
256,192,12443,1,2,0:0:0:0:
36,192,12443,1,2,0:0:0:0:
36,192,13133,1,0,0:0:0:0:
329,192,13305,1,2,0:0:0:0:
402,192,13477,1,8,0:0:0:0:
475,192,13650,1,0,0:0:0:0:
182,192,13822,1,2,0:0:0:0:
36,192,13822,1,2,0:0:0:0:
402,192,13822,1,0,0:0:0:0:
475,192,14511,1,0,0:0:0:0:
329,192,14683,1,2,0:0:0:0:
109,192,14856,1,8,0:0:0:0:
256,192,15028,1,0,0:0:0:0:
36,192,15200,1,2,0:0:0:0:
329,192,15200,1,0,0:0:0:0:
109,192,15545,1,8,0:0:0:0:
402,192,15545,1,0,0:0:0:0:
182,192,15890,1,0,0:0:0:0:
475,192,15890,1,0,0:0:0:0:
402,192,16062,1,0,0:0:0:0:
256,192,16234,1,8,0:0:0:0:
109,192,16406,1,0,0:0:0:0:
36,192,16579,1,2,0:0:0:0:
329,192,16579,1,0,0:0:0:0:
475,192,16579,1,0,0:0:0:0:
109,192,17268,1,0,0:0:0:0:
256,192,17440,1,2,0:0:0:0:
475,192,17613,1,8,0:0:0:0:
329,192,17785,1,0,0:0:0:0:
182,192,17957,1,2,0:0:0:0:
36,192,17957,1,2,0:0:0:0:
402,192,17957,1,0,0:0:0:0:
475,192,18646,1,0,0:0:0:0:
256,192,18819,1,2,0:0:0:0:
36,192,18991,1,8,0:0:0:0:
182,192,19163,1,0,0:0:0:0:
256,192,19336,1,2,0:0:0:0:
402,192,19336,1,0,0:0:0:0:
36,192,19336,1,0,0:0:0:0:
109,192,20025,1,0,0:0:0:0:
182,192,20197,1,2,0:0:0:0:
329,192,20369,1,8,0:0:0:0:
402,192,20542,1,0,0:0:0:0:
182,192,20714,1,2,0:0:0:0:
475,192,20714,1,0,0:0:0:0:
402,192,21059,1,0,0:0:0:0:
109,192,21059,1,0,0:0:0:0:
182,192,21231,1,0,0:0:0:0:
36,192,21403,1,0,0:0:0:0:
329,192,21403,1,0,0:0:0:0:
402,192,21748,1,8,0:0:0:0:
256,192,21920,1,0,0:0:0:0:
182,192,22093,1,6,0:0:0:0:
36,192,22093,1,4,0:0:0:0:
475,192,22093,1,0,0:0:0:0:
36,192,22782,1,0,0:0:0:0:
182,192,22954,1,2,0:0:0:0:
329,192,23126,1,8,0:0:0:0:
256,192,23299,1,0,0:0:0:0:
182,192,23471,1,2,0:0:0:0:
36,192,23471,1,0,0:0:0:0:
402,192,23471,1,0,0:0:0:0:
109,192,24160,1,0,0:0:0:0:
182,192,24332,1,2,0:0:0:0:
329,192,24505,1,8,0:0:0:0:
402,192,24677,1,0,0:0:0:0:
475,192,24849,1,2,0:0:0:0:
256,192,24849,1,2,0:0:0:0:
109,192,24849,1,0,0:0:0:0:
329,192,25538,1,0,0:0:0:0:
475,192,25711,1,2,0:0:0:0:
402,192,25883,1,8,0:0:0:0:
329,192,26055,1,0,0:0:0:0:
256,192,26228,1,2,0:0:0:0:
36,192,26228,1,0,0:0:0:0:
109,192,26572,1,8,0:0:0:0:
329,192,26572,1,0,0:0:0:0:
475,192,26917,1,0,0:0:0:0:
256,192,26917,1,0,0:0:0:0:
109,192,27089,1,2,0:0:0:0:
475,192,27262,1,8,0:0:0:0:
402,192,27434,1,0,0:0:0:0:
329,192,27606,1,2,0:0:0:0:
182,192,27606,1,2,0:0:0:0:
36,192,27606,1,0,0:0:0:0:
475,192,28295,1,0,0:0:0:0:
402,192,28468,1,2,0:0:0:0:
109,192,28640,1,8,0:0:0:0:
182,192,28812,1,0,0:0:0:0:
402,192,28985,1,2,0:0:0:0:
256,192,28985,1,0,0:0:0:0:
36,192,28985,1,0,0:0:0:0:
329,192,29674,1,0,0:0:0:0:
402,192,29846,1,2,0:0:0:0:
475,192,30019,1,8,0:0:0:0:
402,192,30191,1,0,0:0:0:0:
256,192,30363,1,2,0:0:0:0:
36,192,30363,1,0,0:0:0:0:
329,192,30363,1,0,0:0:0:0:
109,192,31052,1,0,0:0:0:0:
256,192,31225,1,2,0:0:0:0:
475,192,31397,1,8,0:0:0:0:
329,192,31569,1,0,0:0:0:0:
182,192,31742,1,2,0:0:0:0:
36,192,31742,1,0,0:0:0:0:
109,192,32086,1,8,0:0:0:0:
402,192,32086,1,0,0:0:0:0:
182,192,32431,1,0,0:0:0:0:
329,192,32431,1,0,0:0:0:0:
36,192,32603,1,2,0:0:0:0:
329,192,32775,1,8,0:0:0:0:
475,192,32948,1,0,0:0:0:0:
256,192,33120,1,4,0:0:0:0:
36,192,33120,1,4,0:0:0:0:
402,192,33120,1,0,0:0:0:0:
109,192,33809,1,0,0:0:0:0:
256,192,33982,1,0,0:0:0:0:
475,192,34154,1,0,0:0:0:0:
329,192,34326,1,0,0:0:0:0:
182,192,34498,1,0,0:0:0:0:
36,192,34498,1,0,0:0:0:0:
402,192,34498,1,0,0:0:0:0:
475,192,35188,1,0,0:0:0:0:
402,192,35360,1,0,0:0:0:0:
256,192,35532,1,0,0:0:0:0:
329,192,35705,1,0,0:0:0:0:
402,192,35877,1,0,0:0:0:0:
182,192,35877,1,0,0:0:0:0:
36,192,35877,1,0,0:0:0:0:
329,192,36222,1,0,0:0:0:0:
109,192,36222,1,0,0:0:0:0:
402,192,36394,1,0,0:0:0:0:
475,192,36566,1,0,0:0:0:0:
256,192,36738,1,0,0:0:0:0:
109,192,36911,1,0,0:0:0:0:
329,192,37083,1,0,0:0:0:0:
182,192,37255,1,0,0:0:0:0:
36,192,37255,1,0,0:0:0:0:
256,192,37600,1,0,0:0:0:0:
402,192,37600,1,0,0:0:0:0:
109,192,37945,1,0,0:0:0:0:
329,192,37945,1,0,0:0:0:0:
475,192,38117,1,0,0:0:0:0:
329,192,38289,1,0,0:0:0:0:
402,192,38461,1,0,0:0:0:0:
182,192,38634,1,0,0:0:0:0:
36,192,38634,1,0,0:0:0:0:
475,192,38634,1,0,0:0:0:0:
329,192,39323,1,0,0:0:0:0:
475,192,39495,1,0,0:0:0:0:
402,192,39668,1,0,0:0:0:0:
329,192,39840,1,0,0:0:0:0:
256,192,40012,1,0,0:0:0:0:
36,192,40012,1,0,0:0:0:0:
475,192,40012,1,0,0:0:0:0:
329,192,40701,1,0,0:0:0:0:
109,192,40874,1,0,0:0:0:0:
402,192,41046,1,0,0:0:0:0:
182,192,41218,1,0,0:0:0:0:
475,192,41391,1,0,0:0:0:0:
329,192,41391,1,0,0:0:0:0:
36,192,41391,1,0,0:0:0:0:
182,192,42080,1,0,0:0:0:0:
36,192,42252,1,0,0:0:0:0:
109,192,42424,1,0,0:0:0:0:
182,192,42597,1,0,0:0:0:0:
475,192,42769,1,0,0:0:0:0:
256,192,42769,1,0,0:0:0:0:
402,192,43114,1,0,0:0:0:0:
182,192,43114,1,0,0:0:0:0:
329,192,43458,1,0,0:0:0:0:
109,192,43458,1,0,0:0:0:0:
475,192,43631,1,0,0:0:0:0:
329,192,43803,1,0,0:0:0:0:
402,192,43975,1,0,0:0:0:0:
256,192,44148,1,4,0:0:0:0:
36,192,44148,1,0,0:0:0:0:
475,192,44148,1,0,0:0:0:0:
36,192,44837,1,0,0:0:0:0:
109,192,45009,1,0,0:0:0:0:
182,192,45181,1,0,0:0:0:0:
109,192,45354,1,0,0:0:0:0:
256,192,45526,1,0,0:0:0:0:
475,192,45526,1,0,0:0:0:0:
36,192,45526,1,0,0:0:0:0:
402,192,46215,1,0,0:0:0:0:
256,192,46388,1,0,0:0:0:0:
329,192,46560,1,0,0:0:0:0:
402,192,46732,1,0,0:0:0:0:
475,192,46904,1,0,0:0:0:0:
256,192,46904,1,0,0:0:0:0:
36,192,46904,1,0,0:0:0:0:
402,192,47249,1,0,0:0:0:0:
182,192,47249,1,0,0:0:0:0:
109,192,47594,1,0,0:0:0:0:
329,192,47594,1,0,0:0:0:0:
475,192,47766,1,0,0:0:0:0:
329,192,47938,1,0,0:0:0:0:
402,192,48111,1,0,0:0:0:0:
329,192,48283,1,0,0:0:0:0:
256,192,48283,1,0,0:0:0:0:
109,192,48283,1,0,0:0:0:0:
402,192,48627,1,0,0:0:0:0:
475,192,48972,1,0,0:0:0:0:
402,192,49144,1,0,0:0:0:0:
329,192,49317,1,0,0:0:0:0:
256,192,49489,1,0,0:0:0:0:
36,192,49661,1,0,0:0:0:0:
329,192,49661,1,0,0:0:0:0:
475,192,49661,1,0,0:0:0:0:
475,192,50351,1,0,0:0:0:0:
402,192,50523,1,0,0:0:0:0:
182,192,50695,1,0,0:0:0:0:
256,192,50867,1,0,0:0:0:0:
182,192,51040,1,0,0:0:0:0:
475,192,51040,1,0,0:0:0:0:
36,192,51040,1,0,0:0:0:0:
329,192,51729,1,0,0:0:0:0:
36,192,51901,1,0,0:0:0:0:
475,192,52074,1,0,0:0:0:0:
182,192,52246,1,0,0:0:0:0:
256,192,52418,1,2,0:0:0:0:
36,192,52418,1,2,0:0:0:0:
402,192,52418,1,0,0:0:0:0:
329,192,52763,1,8,0:0:0:0:
109,192,52763,1,0,0:0:0:0:
182,192,53107,1,2,0:0:0:0:
402,192,53107,1,0,0:0:0:0:
256,192,53452,1,8,0:0:0:0:
475,192,53452,1,0,0:0:0:0:
402,192,53797,1,2,0:0:0:0:
36,192,53797,1,0,0:0:0:0:
182,192,53797,1,0,0:0:0:0:
475,192,54141,1,8,0:0:0:0:
329,192,54486,1,2,0:0:0:0:
36,192,54830,1,8,0:0:0:0:
182,192,55003,1,0,0:0:0:0:
256,192,55175,5,6,0:0:0:0:
402,192,55347,1,0,0:0:0:0:
182,192,55520,1,8,0:0:0:0:
36,192,55520,1,0,0:0:0:0:
475,192,55864,1,0,0:0:0:0:
329,192,56037,1,2,0:0:0:0:
36,192,56209,1,8,0:0:0:0:
182,192,56209,1,0,0:0:0:0:
329,192,56381,1,0,0:0:0:0:
36,192,56553,1,2,0:0:0:0:
182,192,56726,1,0,0:0:0:0:
329,192,56898,1,8,0:0:0:0:
475,192,56898,1,0,0:0:0:0:
109,192,57243,1,0,0:0:0:0:
402,192,57415,1,2,0:0:0:0:
182,192,57587,1,8,0:0:0:0:
36,192,57587,1,0,0:0:0:0:
475,192,57760,1,0,0:0:0:0:
329,192,57932,1,2,0:0:0:0:
109,192,57932,1,2,0:0:0:0:
182,192,58104,1,0,0:0:0:0:
475,192,58277,1,8,0:0:0:0:
36,192,58277,1,0,0:0:0:0:
256,192,58621,1,0,0:0:0:0:
109,192,58793,1,2,0:0:0:0:
329,192,58966,1,8,0:0:0:0:
475,192,58966,1,0,0:0:0:0:
109,192,59310,128,2,59655:0:0:0:0:
402,192,59655,128,8,60000:0:0:0:0:
182,192,60000,128,0,60344:0:0:0:0:
475,192,60344,128,8,60689:0:0:0:0:
256,192,60689,1,2,0:0:0:0:
36,192,60689,1,2,0:0:0:0:
329,192,60861,1,0,0:0:0:0:
109,192,61033,1,8,0:0:0:0:
402,192,61033,1,0,0:0:0:0:
256,192,61378,1,0,0:0:0:0:
109,192,61550,1,2,0:0:0:0:
329,192,61723,1,8,0:0:0:0:
475,192,61723,1,0,0:0:0:0:
109,192,62067,1,2,0:0:0:0:
402,192,62240,1,0,0:0:0:0:
182,192,62412,1,8,0:0:0:0:
36,192,62412,1,0,0:0:0:0:
329,192,62756,1,0,0:0:0:0:
475,192,62929,1,2,0:0:0:0:
109,192,63101,1,8,0:0:0:0:
256,192,63101,1,0,0:0:0:0:
36,192,63446,1,2,0:0:0:0:
109,192,63618,1,0,0:0:0:0:
182,192,63790,1,8,0:0:0:0:
256,192,63963,1,0,0:0:0:0:
109,192,64135,1,0,0:0:0:0:
182,192,64307,1,2,0:0:0:0:
402,192,64480,1,8,0:0:0:0:
475,192,64652,1,0,0:0:0:0:
36,192,64824,1,2,0:0:0:0:
182,192,64996,1,2,0:0:0:0:
475,192,65169,1,8,0:0:0:0:
329,192,65341,1,0,0:0:0:0:
36,192,65513,1,0,0:0:0:0:
182,192,65686,1,2,0:0:0:0:
329,192,65858,1,8,0:0:0:0:
475,192,66030,1,0,0:0:0:0:
402,192,66203,1,4,0:0:0:0:
36,192,66203,1,0,0:0:0:0:
256,192,66375,1,0,0:0:0:0:
109,192,66547,1,0,0:0:0:0:
256,192,66719,1,0,0:0:0:0:
475,192,66892,1,0,0:0:0:0:
329,192,67064,1,0,0:0:0:0:
182,192,67236,1,0,0:0:0:0:
36,192,67236,1,0,0:0:0:0:
402,192,67581,1,0,0:0:0:0:
109,192,67753,1,0,0:0:0:0:
329,192,67926,1,0,0:0:0:0:
475,192,67926,1,0,0:0:0:0:
329,192,68098,1,0,0:0:0:0:
182,192,68270,1,0,0:0:0:0:
182,192,68443,1,0,0:0:0:0:
36,192,68615,1,0,0:0:0:0:
36,192,68787,1,0,0:0:0:0:
475,192,68959,1,0,0:0:0:0:
329,192,69132,1,0,0:0:0:0:
182,192,69304,1,0,0:0:0:0:
36,192,69304,1,0,0:0:0:0:
329,192,69476,1,0,0:0:0:0:
475,192,69649,1,0,0:0:0:0:
109,192,69821,1,0,0:0:0:0:
256,192,69993,1,0,0:0:0:0:
402,192,69993,1,0,0:0:0:0:
109,192,70166,1,0,0:0:0:0:
36,192,70338,1,0,0:0:0:0:
182,192,70510,1,0,0:0:0:0:
475,192,70682,1,0,0:0:0:0:
256,192,70855,1,0,0:0:0:0:
402,192,71027,1,0,0:0:0:0:
182,192,71199,1,0,0:0:0:0:
329,192,71372,1,0,0:0:0:0:
109,192,71544,1,0,0:0:0:0:
256,192,71716,1,0,0:0:0:0:
402,192,71716,1,0,0:0:0:0:
36,192,71889,1,0,0:0:0:0:
256,192,72061,1,0,0:0:0:0:
109,192,72233,1,0,0:0:0:0:
329,192,72406,1,0,0:0:0:0:
182,192,72578,1,0,0:0:0:0:
402,192,72750,1,0,0:0:0:0:
256,192,72922,1,0,0:0:0:0:
475,192,73095,128,0,74473:0:0:0:0:
36,192,73095,1,0,0:0:0:0:
182,192,73095,1,0,0:0:0:0:
329,192,73439,1,0,0:0:0:0:
109,192,73784,1,0,0:0:0:0:
182,192,73956,1,0,0:0:0:0:
256,192,74129,1,0,0:0:0:0:
329,192,74301,1,0,0:0:0:0:
36,192,74473,128,0,75852:0:0:0:0:
402,192,74473,1,0,0:0:0:0:
182,192,74473,1,0,0:0:0:0:
329,192,74818,1,0,0:0:0:0:
182,192,75162,1,0,0:0:0:0:
475,192,75335,1,0,0:0:0:0:
402,192,75507,1,0,0:0:0:0:
329,192,75679,1,0,0:0:0:0:
182,192,75852,1,0,0:0:0:0:
475,192,76024,1,0,0:0:0:0:
402,192,76196,1,0,0:0:0:0:
329,192,76369,1,0,0:0:0:0:
182,192,76541,1,0,0:0:0:0:
256,192,76713,1,0,0:0:0:0:
329,192,76885,1,0,0:0:0:0:
402,192,77058,1,0,0:0:0:0:
475,192,77230,1,6,0:0:0:0:
36,192,77230,1,0,0:0:0:0:
182,192,77575,1,8,0:0:0:0:
329,192,77575,1,0,0:0:0:0:
109,192,77919,1,0,0:0:0:0:
402,192,78092,1,2,0:0:0:0:
182,192,78264,1,8,0:0:0:0:
329,192,78264,1,0,0:0:0:0:
256,192,78609,1,2,0:0:0:0:
256,192,78781,1,0,0:0:0:0:
109,192,78953,1,8,0:0:0:0:
402,192,78953,1,0,0:0:0:0:
329,192,79470,1,0,0:0:0:0:
109,192,79642,1,8,0:0:0:0:
402,192,79642,1,0,0:0:0:0:
182,192,79987,1,2,0:0:0:0:
329,192,80159,1,0,0:0:0:0:
475,192,80332,1,8,0:0:0:0:
36,192,80332,1,0,0:0:0:0:
109,192,80676,1,0,0:0:0:0:
256,192,80848,1,2,0:0:0:0:
475,192,81021,1,8,0:0:0:0:
36,192,81021,1,0,0:0:0:0:
109,192,81365,1,2,0:0:0:0:
329,192,81365,1,2,0:0:0:0:
182,192,81710,1,8,0:0:0:0:
402,192,81710,1,0,0:0:0:0:
256,192,82055,1,0,0:0:0:0:
475,192,82055,1,0,0:0:0:0:
402,192,82399,1,0,0:0:0:0:
182,192,82399,128,0,82744:0:0:0:0:
36,192,82744,128,0,83088:0:0:0:0:
329,192,83088,1,8,0:0:0:0:
475,192,83088,1,8,0:0:0:0:
182,192,83778,128,0,84122:0:0:0:0:
329,192,84122,128,0,84467:0:0:0:0:
182,192,84467,1,8,0:0:0:0:
36,192,84467,1,8,0:0:0:0:
109,192,85156,128,8,85501:0:0:0:0:
402,192,85501,128,2,85845:0:0:0:0:
36,192,85845,128,2,86190:0:0:0:0:
475,192,86190,128,2,86535:0:0:0:0:
256,192,86535,128,2,86879:0:0:0:0:
109,192,86879,128,2,87568:0:0:0:0:
329,192,87224,1,8,0:0:0:0:
475,192,87224,1,0,0:0:0:0:
402,192,87568,128,2,88258:0:0:0:0:
329,192,87913,1,8,0:0:0:0:
182,192,87913,1,0,0:0:0:0:
475,192,88258,1,6,0:0:0:0:
36,192,88258,1,0,0:0:0:0:
182,192,88602,1,8,0:0:0:0:
402,192,88602,1,0,0:0:0:0:
256,192,88947,1,0,0:0:0:0:
109,192,89119,1,2,0:0:0:0:
329,192,89291,1,8,0:0:0:0:
475,192,89291,1,0,0:0:0:0:
36,192,89636,1,2,0:0:0:0:
109,192,89981,1,8,0:0:0:0:
402,192,89981,1,0,0:0:0:0:
36,192,90325,1,0,0:0:0:0:
182,192,90498,1,2,0:0:0:0:
475,192,90670,1,8,0:0:0:0:
329,192,90670,1,0,0:0:0:0:
402,192,91014,1,2,0:0:0:0:
109,192,91014,1,2,0:0:0:0:
329,192,91359,1,8,0:0:0:0:
36,192,91359,1,0,0:0:0:0:
182,192,91704,1,0,0:0:0:0:
329,192,91876,1,2,0:0:0:0:
109,192,92221,1,0,0:0:0:0:
256,192,92393,1,2,0:0:0:0:
475,192,92393,1,2,0:0:0:0:
402,192,92738,1,8,0:0:0:0:
182,192,92738,1,0,0:0:0:0:
329,192,93082,1,0,0:0:0:0:
109,192,93082,1,0,0:0:0:0:
256,192,93427,1,8,0:0:0:0:
36,192,93427,1,0,0:0:0:0:
182,192,93771,1,2,0:0:0:0:
402,192,93771,1,2,0:0:0:0:
329,192,94116,1,8,0:0:0:0:
109,192,94116,1,0,0:0:0:0:
402,192,94461,1,0,0:0:0:0:
256,192,94633,1,2,0:0:0:0:
109,192,94805,1,8,0:0:0:0:
475,192,95150,1,2,0:0:0:0:
182,192,95150,1,2,0:0:0:0:
402,192,95494,1,8,0:0:0:0:
109,192,95494,1,0,0:0:0:0:
329,192,95839,1,0,0:0:0:0:
182,192,96011,1,2,0:0:0:0:
36,192,96184,1,8,0:0:0:0:
182,192,96356,1,0,0:0:0:0:
475,192,96528,1,2,0:0:0:0:
36,192,96528,1,2,0:0:0:0:
402,192,96873,1,8,0:0:0:0:
109,192,96873,1,0,0:0:0:0:
256,192,97217,1,0,0:0:0:0:
402,192,97390,1,2,0:0:0:0:
182,192,97562,1,8,0:0:0:0:
36,192,97734,1,0,0:0:0:0:
475,192,97907,128,2,98251:0:0:0:0:
36,192,98251,128,8,98596:0:0:0:0:
402,192,98596,128,0,98940:0:0:0:0:
109,192,98940,128,8,99285:0:0:0:0:
475,192,99285,1,6,0:0:0:0:
36,192,99285,1,2,0:0:0:0:
109,192,99630,1,8,0:0:0:0:
402,192,99630,1,0,0:0:0:0:
256,192,99974,1,0,0:0:0:0:
402,192,100147,1,2,0:0:0:0:
182,192,100319,1,8,0:0:0:0:
36,192,100491,1,0,0:0:0:0:
329,192,100664,1,2,0:0:0:0:
475,192,100664,1,2,0:0:0:0:
402,192,101008,1,8,0:0:0:0:
256,192,101008,1,0,0:0:0:0:
36,192,101353,1,0,0:0:0:0:
182,192,101525,1,2,0:0:0:0:
475,192,101697,1,8,0:0:0:0:
329,192,101870,1,0,0:0:0:0:
182,192,102042,1,2,0:0:0:0:
36,192,102042,1,2,0:0:0:0:
256,192,102387,1,8,0:0:0:0:
109,192,102387,1,0,0:0:0:0:
182,192,102731,1,0,0:0:0:0:
329,192,102731,1,0,0:0:0:0:
402,192,102904,1,2,0:0:0:0:
109,192,103076,1,8,0:0:0:0:
256,192,103076,1,0,0:0:0:0:
329,192,103248,1,0,0:0:0:0:
475,192,103420,128,2,103765:0:0:0:0:
36,192,103765,128,8,104110:0:0:0:0:
402,192,104110,128,0,104454:0:0:0:0:
109,192,104454,128,8,104799:0:0:0:0:
329,192,104799,1,2,0:0:0:0:
475,192,104799,1,2,0:0:0:0:
256,192,104971,1,0,0:0:0:0:
182,192,105143,1,8,0:0:0:0:
402,192,105143,1,0,0:0:0:0:
109,192,105316,1,0,0:0:0:0:
36,192,105488,1,0,0:0:0:0:
109,192,105660,1,2,0:0:0:0:
182,192,105833,1,8,0:0:0:0:
402,192,105833,1,0,0:0:0:0:
256,192,106005,1,0,0:0:0:0:
329,192,106177,1,2,0:0:0:0:
402,192,106350,1,0,0:0:0:0:
475,192,106522,1,8,0:0:0:0:
36,192,106522,1,0,0:0:0:0:
402,192,106694,1,0,0:0:0:0:
329,192,106867,1,0,0:0:0:0:
256,192,107039,1,2,0:0:0:0:
182,192,107211,1,8,0:0:0:0:
475,192,107211,1,0,0:0:0:0:
109,192,107383,1,0,0:0:0:0:
36,192,107556,1,2,0:0:0:0:
109,192,107728,1,0,0:0:0:0:
182,192,107900,1,8,0:0:0:0:
475,192,107900,1,0,0:0:0:0:
256,192,108073,1,0,0:0:0:0:
329,192,108245,1,0,0:0:0:0:
402,192,108417,1,2,0:0:0:0:
475,192,108590,1,8,0:0:0:0:
109,192,108590,1,0,0:0:0:0:
402,192,108762,1,0,0:0:0:0:
329,192,108934,128,2,109279:0:0:0:0:
36,192,108934,128,2,109279:0:0:0:0:
109,192,109279,1,0,0:0:0:0:
402,192,109279,1,0,0:0:0:0:
475,192,109623,128,0,109968:0:0:0:0:
182,192,109623,128,0,109968:0:0:0:0:
402,192,109968,1,8,0:0:0:0:
109,192,109968,1,0,0:0:0:0:
329,192,110313,1,4,0:0:0:0:
36,192,110313,1,0,0:0:0:0:
182,192,110485,1,0,0:0:0:0:
329,192,110657,1,0,0:0:0:0:
475,192,110830,1,0,0:0:0:0:
402,192,111174,1,0,0:0:0:0:
256,192,111346,1,0,0:0:0:0:
109,192,111519,1,0,0:0:0:0:
329,192,111863,1,0,0:0:0:0:
182,192,112036,1,0,0:0:0:0:
36,192,112208,1,0,0:0:0:0:
475,192,112553,1,0,0:0:0:0:
329,192,112725,1,0,0:0:0:0:
182,192,112897,1,0,0:0:0:0:
