osu file format v13

[General]
AudioFilename: Dear You.mp3
AudioLeadIn: 2000
PreviewTime: 88171
Countdown: 0
SampleSet: Soft
StackLeniency: 0.7
Mode: 3
LetterboxInBreaks: 0
SpecialStyle: 0
WidescreenStoryboard: 0

[Editor]
Bookmarks: 10720,33120,55175,66202
DistanceSpacing: 0.5
BeatDivisor: 4
GridSize: 4
TimelineZoom: 1.6

[Metadata]
Title:Dear You
TitleUnicode:Dear You
Artist:DJ Genericname
ArtistUnicode:DJ Genericname
Creator:Taiwan-NAK
Version:4K MX
Source:Higurashi no Naku Koro ni
Tags:Simple_Star Rumia-
BeatmapID:376923
BeatmapSetID:153316

[Difficulty]
HPDrainRate:8.5
CircleSize:4
OverallDifficulty:8.5
ApproachRate:9
SliderMultiplier:1.6
SliderTickRate:1

[Events]
//Background and Video events
0,0,"Dear You.jpg",0,0
//Break Periods
//Storyboard Layer 0 (Background)
//Storyboard Layer 1 (Fail)
//Storyboard Layer 2 (Pass)
//Storyboard Layer 3 (Foreground)
//Storyboard Sound Samples
//Background Colour Transformations
3,100,163,162,255

[TimingPoints]
38,344.609729481362,4,2,1,35,1,0
5551,-100,4,2,1,35,0,0
10720,-50,4,2,1,35,0,0
10807,-100,4,2,1,35,0,0
10893,-200,4,2,1,35,0,0
10979,-400,4,2,1,35,0,0
11065,-100,4,2,1,40,0,0
33120,-100,4,2,1,30,0,0
52418,-100,4,2,1,40,0,0
55175,-100,4,2,1,30,0,0
76885,-50,4,2,1,40,0,0
76972,-100,4,2,1,40,0,0
77058,-200,4,2,1,40,0,0
77144,-400,4,2,1,40,0,0
77230,-100,4,2,1,40,0,0
88257,-100,4,2,1,35,0,1
110312,-100,4,2,1,30,0,0

[Colours]
Combo1 : 255,0,128
Combo2 : 0,128,255
Combo3 : 128,0,255

[HitObjects]
64,192,38,5,4,0:0:0:0:
448,192,38,1,4,0:0:0:0:
192,192,210,1,0,0:0:0:0:
448,192,382,1,0,0:0:0:0:
320,192,554,1,0,0:0:0:0:
64,192,727,1,0,0:0:0:0:
192,192,899,1,0,0:0:0:0:
320,192,1071,1,0,0:0:0:0:
448,192,1244,1,0,0:0:0:0:
192,192,1416,1,0,0:0:0:0:
320,192,1588,1,0,0:0:0:0:
448,192,1761,1,0,0:0:0:0:
320,192,1933,1,0,0:0:0:0:
64,192,2105,1,0,0:0:0:0:
192,192,2277,1,0,0:0:0:0:
320,192,2450,1,0,0:0:0:0:
448,192,2622,1,0,0:0:0:0:
192,192,2794,1,0,0:0:0:0:
320,192,2967,1,0,0:0:0:0:
192,192,3139,1,0,0:0:0:0:
64,192,3311,1,0,0:0:0:0:
448,192,3484,1,0,0:0:0:0:
320,192,3656,1,0,0:0:0:0:
192,192,3828,1,0,0:0:0:0:
64,192,4001,1,0,0:0:0:0:
320,192,4173,1,0,0:0:0:0:
192,192,4345,1,0,0:0:0:0:
448,192,4517,1,0,0:0:0:0:
320,192,4690,1,0,0:0:0:0:
64,192,4862,1,0,0:0:0:0:
192,192,5034,1,0,0:0:0:0:
448,192,5207,1,0,0:0:0:0:
320,192,5379,1,0,0:0:0:0:
64,192,5551,128,0,6240:0:0:0:0:
448,192,5551,1,0,0:0:0:0:
192,192,5724,1,0,0:0:0:0:
448,192,5896,1,0,0:0:0:0:
320,192,6068,1,0,0:0:0:0:
448,192,6240,128,0,6413:0:0:0:0:
192,192,6240,1,0,0:0:0:0:
320,192,6413,128,0,6585:0:0:0:0:
64,192,6413,1,0,0:0:0:0:
64,192,6585,128,0,6930:0:0:0:0:
448,192,6585,1,0,0:0:0:0:
320,192,6757,1,0,0:0:0:0:
320,192,6930,128,0,7274:0:0:0:0:
192,192,6930,1,0,0:0:0:0:
192,192,7102,1,0,0:0:0:0:
448,192,7274,128,0,7619:0:0:0:0:
64,192,7274,1,0,0:0:0:0:
192,192,7447,1,0,0:0:0:0:
64,192,7619,128,0,7791:0:0:0:0:
320,192,7619,1,0,0:0:0:0:
192,192,7791,128,0,7964:0:0:0:0:
448,192,7791,1,0,0:0:0:0:
448,192,7964,128,0,8308:0:0:0:0:
64,192,7964,1,0,0:0:0:0:
320,192,8136,1,0,0:0:0:0:
192,192,8308,1,0,0:0:0:0:
320,192,8308,128,0,8825:0:0:0:0:
64,192,8480,1,0,0:0:0:0:
192,192,8653,1,0,0:0:0:0:
64,192,8825,128,0,8997:0:0:0:0:
448,192,8825,1,0,0:0:0:0:
192,192,8997,128,0,9170:0:0:0:0:
448,192,8997,1,0,0:0:0:0:
320,192,9170,128,0,9342:0:0:0:0:
64,192,9170,1,0,0:0:0:0:
448,192,9342,128,0,9687:0:0:0:0:
192,192,9342,1,0,0:0:0:0:
320,192,9514,1,0,0:0:0:0:
64,192,9687,128,0,10720:0:0:0:0:
192,192,9687,1,0,0:0:0:0:
448,192,9859,1,0,0:0:0:0:
320,192,10031,1,0,0:0:0:0:
192,192,10203,1,0,0:0:0:0:
448,192,10376,1,0,0:0:0:0:
320,192,10548,1,0,0:0:0:0:
192,192,10720,128,8,11065:0:0:0:0:
448,192,10720,1,0,0:0:0:0:
64,192,11065,1,4,0:0:0:0:
448,192,11065,1,2,0:0:0:0:
192,192,11237,1,0,0:0:0:0:
320,192,11323,1,0,0:0:0:0:
64,192,11410,1,8,0:0:0:0:
448,192,11410,1,0,0:0:0:0:
64,192,11582,1,0,0:0:0:0:
192,192,11668,1,0,0:0:0:0:
448,192,11754,1,0,0:0:0:0:
320,192,11840,1,0,0:0:0:0:
192,192,11927,1,2,0:0:0:0:
64,192,11927,1,0,0:0:0:0:
320,192,12013,1,0,0:0:0:0:
448,192,12099,1,8,0:0:0:0:
64,192,12099,1,0,0:0:0:0:
320,192,12271,1,0,0:0:0:0:
192,192,12357,1,0,0:0:0:0:
64,192,12443,1,0,0:0:0:0:
448,192,12443,1,2,0:0:0:0:
448,192,12616,1,0,0:0:0:0:
320,192,12702,1,0,0:0:0:0:
64,192,12788,1,8,0:0:0:0:
192,192,12788,1,0,0:0:0:0:
320,192,12960,1,0,0:0:0:0:
192,192,13047,1,0,0:0:0:0:
448,192,13133,1,0,0:0:0:0:
320,192,13219,1,0,0:0:0:0:
64,192,13305,1,2,0:0:0:0:
448,192,13305,1,0,0:0:0:0:
192,192,13391,1,0,0:0:0:0:
64,192,13477,1,8,0:0:0:0:
448,192,13477,1,0,0:0:0:0:
192,192,13650,1,0,0:0:0:0:
320,192,13736,1,0,0:0:0:0:
192,192,13822,1,2,0:0:0:0:
448,192,13822,1,2,0:0:0:0:
64,192,13994,1,0,0:0:0:0:
192,192,14080,1,0,0:0:0:0:
448,192,14166,1,8,0:0:0:0:
320,192,14166,1,0,0:0:0:0:
192,192,14339,1,0,0:0:0:0:
64,192,14425,1,0,0:0:0:0:
320,192,14511,1,0,0:0:0:0:
448,192,14511,1,0,0:0:0:0:
64,192,14597,1,0,0:0:0:0:
192,192,14683,1,2,0:0:0:0:
448,192,14683,1,0,0:0:0:0:
320,192,14770,1,0,0:0:0:0:
64,192,14856,1,8,0:0:0:0:
448,192,14856,1,0,0:0:0:0:
192,192,15028,1,0,0:0:0:0:
320,192,15114,1,0,0:0:0:0:
64,192,15200,1,2,0:0:0:0:
448,192,15200,1,0,0:0:0:0:
192,192,15373,1,0,0:0:0:0:
448,192,15373,1,0,0:0:0:0:
320,192,15545,1,8,0:0:0:0:
64,192,15545,1,0,0:0:0:0:
448,192,15545,1,0,0:0:0:0:
192,192,15717,1,0,0:0:0:0:
320,192,15803,1,0,0:0:0:0:
448,192,15890,1,0,0:0:0:0:
192,192,15890,1,0,0:0:0:0:
64,192,15976,1,0,0:0:0:0:
320,192,16062,1,0,0:0:0:0:
192,192,16062,1,0,0:0:0:0:
64,192,16234,1,0,0:0:0:0:
448,192,16234,1,0,0:0:0:0:
320,192,16234,1,8,0:0:0:0:
448,192,16406,1,0,0:0:0:0:
192,192,16406,1,0,0:0:0:0:
64,192,16493,1,0,0:0:0:0:
192,192,16579,1,2,0:0:0:0:
320,192,16579,1,0,0:0:0:0:
320,192,16751,1,0,0:0:0:0:
448,192,16837,1,0,0:0:0:0:
320,192,16923,1,8,0:0:0:0:
64,192,16923,1,0,0:0:0:0:
448,192,17096,1,0,0:0:0:0:
320,192,17182,1,0,0:0:0:0:
448,192,17268,1,0,0:0:0:0:
64,192,17268,1,0,0:0:0:0:
192,192,17354,1,0,0:0:0:0:
320,192,17440,1,2,0:0:0:0:
448,192,17440,1,0,0:0:0:0:
64,192,17613,1,8,0:0:0:0:
320,192,17613,1,0,0:0:0:0:
192,192,17785,1,0,0:0:0:0:
320,192,17871,1,0,0:0:0:0:
64,192,17957,1,2,0:0:0:0:
448,192,17957,1,2,0:0:0:0:
448,192,18130,1,0,0:0:0:0:
192,192,18130,1,0,0:0:0:0:
320,192,18302,1,8,0:0:0:0:
64,192,18302,1,0,0:0:0:0:
448,192,18474,1,0,0:0:0:0:
320,192,18560,1,0,0:0:0:0:
192,192,18646,1,0,0:0:0:0:
320,192,18733,1,0,0:0:0:0:
64,192,18819,1,2,0:0:0:0:
192,192,18819,1,0,0:0:0:0:
448,192,18991,1,8,0:0:0:0:
192,192,18991,1,0,0:0:0:0:
320,192,19163,1,0,0:0:0:0:
192,192,19249,1,0,0:0:0:0:
64,192,19336,1,2,0:0:0:0:
448,192,19336,1,0,0:0:0:0:
320,192,19508,1,0,0:0:0:0:
64,192,19508,1,0,0:0:0:0:
192,192,19680,1,8,0:0:0:0:
448,192,19680,1,0,0:0:0:0:
64,192,19853,1,0,0:0:0:0:
192,192,19939,1,0,0:0:0:0:
448,192,20025,1,0,0:0:0:0:
320,192,20111,1,0,0:0:0:0:
448,192,20197,1,2,0:0:0:0:
64,192,20197,1,0,0:0:0:0:
320,192,20369,1,8,0:0:0:0:
64,192,20369,1,0,0:0:0:0:
192,192,20542,1,0,0:0:0:0:
320,192,20542,1,0,0:0:0:0:
64,192,20628,1,0,0:0:0:0:
448,192,20714,1,2,0:0:0:0:
192,192,20714,1,0,0:0:0:0:
64,192,20886,1,0,0:0:0:0:
448,192,20886,1,0,0:0:0:0:
192,192,20973,1,0,0:0:0:0:
64,192,21059,1,0,0:0:0:0:
320,192,21059,1,0,0:0:0:0:
192,192,21231,1,0,0:0:0:0:
320,192,21317,1,0,0:0:0:0:
64,192,21403,1,0,0:0:0:0:
448,192,21403,1,0,0:0:0:0:
192,192,21489,1,0,0:0:0:0:
320,192,21576,1,0,0:0:0:0:
448,192,21576,1,0,0:0:0:0:
64,192,21748,128,0,22093:0:0:0:0:
320,192,21748,1,8,0:0:0:0:
320,192,21920,128,0,22093:0:0:0:0:
192,192,22093,1,6,0:0:0:0:
448,192,22093,1,4,0:0:0:0:
192,192,22265,1,0,0:0:0:0:
320,192,22351,1,0,0:0:0:0:
64,192,22437,1,8,0:0:0:0:
448,192,22437,1,0,0:0:0:0:
192,192,22609,1,0,0:0:0:0:
320,192,22696,1,0,0:0:0:0:
64,192,22782,1,0,0:0:0:0:
448,192,22782,1,0,0:0:0:0:
192,192,22868,1,0,0:0:0:0:
64,192,22954,1,2,0:0:0:0:
320,192,22954,1,0,0:0:0:0:
320,192,23126,1,8,0:0:0:0:
192,192,23126,1,0,0:0:0:0:
448,192,23299,1,0,0:0:0:0:
64,192,23299,1,0,0:0:0:0:
320,192,23385,1,0,0:0:0:0:
192,192,23471,1,2,0:0:0:0:
448,192,23471,1,0,0:0:0:0:
64,192,23643,1,0,0:0:0:0:
320,192,23816,1,8,0:0:0:0:
448,192,23816,1,0,0:0:0:0:
192,192,23902,1,0,0:0:0:0:
64,192,23988,1,0,0:0:0:0:
320,192,24074,1,0,0:0:0:0:
192,192,24160,1,0,0:0:0:0:
448,192,24246,1,0,0:0:0:0:
64,192,24332,1,2,0:0:0:0:
320,192,24332,1,0,0:0:0:0:
64,192,24505,1,8,0:0:0:0:
448,192,24505,1,0,0:0:0:0:
448,192,24677,1,0,0:0:0:0:
192,192,24677,1,0,0:0:0:0:
320,192,24763,1,0,0:0:0:0:
64,192,24849,1,2,0:0:0:0:
448,192,24849,1,2,0:0:0:0:
320,192,25022,1,0,0:0:0:0:
64,192,25022,1,0,0:0:0:0:
192,192,25194,1,8,0:0:0:0:
320,192,25194,1,0,0:0:0:0:
448,192,25366,1,0,0:0:0:0:
320,192,25452,1,0,0:0:0:0:
192,192,25539,1,0,0:0:0:0:
320,192,25625,1,0,0:0:0:0:
192,192,25711,1,2,0:0:0:0:
64,192,25711,1,0,0:0:0:0:
448,192,25883,1,0,0:0:0:0:
64,192,25883,1,0,0:0:0:0:
320,192,25883,1,8,0:0:0:0:
320,192,26056,1,0,0:0:0:0:
192,192,26142,1,0,0:0:0:0:
64,192,26228,1,2,0:0:0:0:
448,192,26228,1,0,0:0:0:0:
320,192,26400,1,0,0:0:0:0:
192,192,26400,1,0,0:0:0:0:
448,192,26572,1,8,0:0:0:0:
192,192,26572,1,0,0:0:0:0:
320,192,26745,1,0,0:0:0:0:
192,192,26831,1,0,0:0:0:0:
448,192,26917,1,2,0:0:0:0:
320,192,27003,1,0,0:0:0:0:
192,192,27089,1,0,0:0:0:0:
64,192,27089,1,0,0:0:0:0:
64,192,27262,1,8,0:0:0:0:
448,192,27262,1,0,0:0:0:0:
192,192,27434,1,0,0:0:0:0:
448,192,27434,1,0,0:0:0:0:
320,192,27520,1,0,0:0:0:0:
448,192,27606,1,2,0:0:0:0:
64,192,27606,1,2,0:0:0:0:
192,192,27606,1,0,0:0:0:0:
320,192,27779,1,0,0:0:0:0:
192,192,27865,1,0,0:0:0:0:
448,192,27951,1,8,0:0:0:0:
64,192,27951,1,0,0:0:0:0:
192,192,28123,1,0,0:0:0:0:
320,192,28209,1,0,0:0:0:0:
64,192,28295,1,0,0:0:0:0:
192,192,28382,1,0,0:0:0:0:
320,192,28468,1,2,0:0:0:0:
448,192,28468,1,0,0:0:0:0:
320,192,28640,1,8,0:0:0:0:
64,192,28640,1,0,0:0:0:0:
448,192,28812,1,0,0:0:0:0:
192,192,28812,1,0,0:0:0:0:
320,192,28899,1,0,0:0:0:0:
64,192,28985,1,2,0:0:0:0:
448,192,28985,1,0,0:0:0:0:
192,192,28985,1,0,0:0:0:0:
192,192,29157,1,0,0:0:0:0:
320,192,29243,1,0,0:0:0:0:
448,192,29329,1,8,0:0:0:0:
64,192,29329,1,0,0:0:0:0:
64,192,29502,1,0,0:0:0:0:
192,192,29588,1,0,0:0:0:0:
320,192,29674,1,0,0:0:0:0:
448,192,29674,1,0,0:0:0:0:
192,192,29760,1,0,0:0:0:0:
64,192,29846,1,2,0:0:0:0:
448,192,29846,1,0,0:0:0:0:
320,192,29932,1,0,0:0:0:0:
192,192,30019,1,8,0:0:0:0:
448,192,30019,1,0,0:0:0:0:
320,192,30191,1,0,0:0:0:0:
192,192,30277,1,0,0:0:0:0:
64,192,30363,1,2,0:0:0:0:
448,192,30363,1,0,0:0:0:0:
320,192,30363,1,0,0:0:0:0:
192,192,30535,1,0,0:0:0:0:
320,192,30535,1,0,0:0:0:0:
192,192,30708,1,0,0:0:0:0:
64,192,30708,1,0,0:0:0:0:
448,192,30880,1,0,0:0:0:0:
320,192,30966,1,0,0:0:0:0:
192,192,31052,1,0,0:0:0:0:
64,192,31052,1,0,0:0:0:0:
320,192,31139,1,0,0:0:0:0:
448,192,31225,1,2,0:0:0:0:
64,192,31225,1,0,0:0:0:0:
320,192,31397,1,8,0:0:0:0:
448,192,31397,1,0,0:0:0:0:
192,192,31569,1,0,0:0:0:0:
448,192,31655,1,0,0:0:0:0:
192,192,31742,1,2,0:0:0:0:
64,192,31742,1,0,0:0:0:0:
192,192,31914,1,0,0:0:0:0:
320,192,31914,1,2,0:0:0:0:
64,192,32086,1,8,0:0:0:0:
448,192,32086,1,0,0:0:0:0:
320,192,32086,1,0,0:0:0:0:
448,192,32259,1,0,0:0:0:0:
192,192,32259,1,0,0:0:0:0:
320,192,32431,1,0,0:0:0:0:
64,192,32431,1,0,0:0:0:0:
192,192,32517,1,0,0:0:0:0:
64,192,32603,1,0,0:0:0:0:
448,192,32603,1,0,0:0:0:0:
320,192,32689,1,0,0:0:0:0:
448,192,32775,1,8,0:0:0:0:
64,192,32775,1,0,0:0:0:0:
192,192,32775,1,0,0:0:0:0:
320,192,32948,1,0,0:0:0:0:
64,192,32948,1,0,0:0:0:0:
64,192,33120,1,4,0:0:0:0:
192,192,33120,1,4,0:0:0:0:
448,192,33120,128,0,33637:0:0:0:0:
320,192,33206,1,0,0:0:0:0:
192,192,33292,1,0,0:0:0:0:
320,192,33378,1,0,0:0:0:0:
192,192,33465,1,0,0:0:0:0:
64,192,33465,1,0,0:0:0:0:
64,192,33637,1,0,0:0:0:0:
192,192,33723,1,0,0:0:0:0:
448,192,33809,128,0,33982:0:0:0:0:
320,192,33809,1,0,0:0:0:0:
320,192,33982,128,0,34154:0:0:0:0:
64,192,33982,1,0,0:0:0:0:
64,192,34154,128,0,34498:0:0:0:0:
448,192,34154,1,0,0:0:0:0:
192,192,34326,128,0,34498:0:0:0:0:
320,192,34412,128,0,34498:0:0:0:0:
448,192,34498,1,0,0:0:0:0:
320,192,34671,1,0,0:0:0:0:
320,192,34843,128,0,35188:0:0:0:0:
448,192,34843,1,0,0:0:0:0:
64,192,34843,1,0,0:0:0:0:
64,192,35015,1,0,0:0:0:0:
192,192,35102,1,0,0:0:0:0:
64,192,35188,128,0,35360:0:0:0:0:
448,192,35188,1,0,0:0:0:0:
320,192,35274,1,0,0:0:0:0:
192,192,35360,128,0,35532:0:0:0:0:
448,192,35360,1,0,0:0:0:0:
320,192,35532,128,0,35705:0:0:0:0:
64,192,35532,1,0,0:0:0:0:
448,192,35705,128,0,35877:0:0:0:0:
192,192,35705,1,0,0:0:0:0:
320,192,35791,1,0,0:0:0:0:
192,192,35877,128,0,36394:0:0:0:0:
64,192,35877,1,0,0:0:0:0:
448,192,36049,1,0,0:0:0:0:
320,192,36135,1,0,0:0:0:0:
448,192,36222,1,0,0:0:0:0:
64,192,36222,1,0,0:0:0:0:
320,192,36394,1,0,0:0:0:0:
448,192,36480,1,0,0:0:0:0:
192,192,36566,128,0,36738:0:0:0:0:
320,192,36566,1,0,0:0:0:0:
448,192,36738,128,0,36911:0:0:0:0:
64,192,36738,1,0,0:0:0:0:
320,192,36911,128,0,37083:0:0:0:0:
64,192,36911,1,0,0:0:0:0:
192,192,37083,128,0,37255:0:0:0:0:
448,192,37255,128,0,37342:0:0:0:0:
64,192,37255,1,0,0:0:0:0:
448,192,37428,1,0,0:0:0:0:
320,192,37600,128,0,37686:0:0:0:0:
64,192,37600,1,0,0:0:0:0:
320,192,37772,1,0,0:0:0:0:
192,192,37945,128,0,38031:0:0:0:0:
64,192,37945,1,0,0:0:0:0:
192,192,38117,1,0,0:0:0:0:
320,192,38289,1,0,0:0:0:0:
64,192,38289,1,0,0:0:0:0:
448,192,38461,1,0,0:0:0:0:
320,192,38548,1,0,0:0:0:0:
192,192,38634,1,0,0:0:0:0:
64,192,38634,1,0,0:0:0:0:
192,192,38806,1,0,0:0:0:0:
320,192,38892,1,0,0:0:0:0:
64,192,38978,1,0,0:0:0:0:
448,192,38978,1,0,0:0:0:0:
320,192,39151,1,0,0:0:0:0:
448,192,39237,1,0,0:0:0:0:
192,192,39323,1,0,0:0:0:0:
320,192,39409,1,0,0:0:0:0:
64,192,39495,1,0,0:0:0:0:
448,192,39495,1,0,0:0:0:0:
192,192,39581,1,0,0:0:0:0:
448,192,39668,1,0,0:0:0:0:
320,192,39668,1,0,0:0:0:0:
320,192,39840,1,0,0:0:0:0:
448,192,39926,1,0,0:0:0:0:
64,192,40012,1,0,0:0:0:0:
320,192,40012,1,0,0:0:0:0:
192,192,40185,1,0,0:0:0:0:
64,192,40271,1,0,0:0:0:0:
192,192,40357,1,0,0:0:0:0:
448,192,40357,1,0,0:0:0:0:
320,192,40529,1,0,0:0:0:0:
192,192,40615,1,0,0:0:0:0:
448,192,40701,1,0,0:0:0:0:
320,192,40788,1,0,0:0:0:0:
192,192,40874,1,0,0:0:0:0:
64,192,40874,1,0,0:0:0:0:
64,192,41046,1,0,0:0:0:0:
448,192,41046,1,0,0:0:0:0:
320,192,41218,1,0,0:0:0:0:
192,192,41305,1,0,0:0:0:0:
64,192,41391,1,0,0:0:0:0:
448,192,41391,1,0,0:0:0:0:
320,192,41563,1,0,0:0:0:0:
448,192,41649,1,0,0:0:0:0:
320,192,41735,1,0,0:0:0:0:
64,192,41735,1,0,0:0:0:0:
64,192,41908,1,0,0:0:0:0:
192,192,41994,1,0,0:0:0:0:
448,192,42080,1,0,0:0:0:0:
320,192,42080,1,0,0:0:0:0:
192,192,42166,1,0,0:0:0:0:
64,192,42252,1,0,0:0:0:0:
448,192,42252,1,0,0:0:0:0:
192,192,42424,1,0,0:0:0:0:
64,192,42424,1,0,0:0:0:0:
320,192,42597,1,0,0:0:0:0:
448,192,42683,1,0,0:0:0:0:
64,192,42769,1,0,0:0:0:0:
192,192,42769,1,0,0:0:0:0:
192,192,42941,1,0,0:0:0:0:
320,192,42941,1,0,0:0:0:0:
448,192,43114,1,0,0:0:0:0:
320,192,43114,1,0,0:0:0:0:
64,192,43114,1,0,0:0:0:0:
192,192,43286,1,0,0:0:0:0:
320,192,43372,1,0,0:0:0:0:
64,192,43458,1,0,0:0:0:0:
448,192,43458,1,0,0:0:0:0:
192,192,43544,1,0,0:0:0:0:
448,192,43631,1,0,0:0:0:0:
320,192,43631,1,0,0:0:0:0:
192,192,43717,1,0,0:0:0:0:
64,192,43803,1,0,0:0:0:0:
448,192,43803,1,0,0:0:0:0:
64,192,43975,1,0,0:0:0:0:
448,192,43975,1,0,0:0:0:0:
192,192,44061,1,0,0:0:0:0:
320,192,44148,1,4,0:0:0:0:
448,192,44148,1,0,0:0:0:0:
64,192,44148,1,0,0:0:0:0:
320,192,44320,1,0,0:0:0:0:
64,192,44492,1,0,0:0:0:0:
448,192,44492,1,0,0:0:0:0:
192,192,44664,1,0,0:0:0:0:
320,192,44751,1,0,0:0:0:0:
64,192,44837,1,0,0:0:0:0:
192,192,44923,1,0,0:0:0:0:
320,192,45009,1,0,0:0:0:0:
448,192,45009,1,0,0:0:0:0:
64,192,45181,1,0,0:0:0:0:
448,192,45181,1,0,0:0:0:0:
320,192,45354,1,0,0:0:0:0:
192,192,45440,1,0,0:0:0:0:
64,192,45526,1,0,0:0:0:0:
448,192,45526,1,0,0:0:0:0:
192,192,45698,1,0,0:0:0:0:
64,192,45784,1,0,0:0:0:0:
192,192,45871,1,0,0:0:0:0:
448,192,45871,1,0,0:0:0:0:
448,192,46043,1,0,0:0:0:0:
320,192,46129,1,0,0:0:0:0:
64,192,46215,1,0,0:0:0:0:
192,192,46215,1,0,0:0:0:0:
320,192,46301,1,0,0:0:0:0:
448,192,46388,1,0,0:0:0:0:
64,192,46388,1,0,0:0:0:0:
192,192,46560,1,0,0:0:0:0:
320,192,46560,1,0,0:0:0:0:
448,192,46732,1,0,0:0:0:0:
320,192,46818,1,0,0:0:0:0:
192,192,46904,1,0,0:0:0:0:
64,192,46904,1,0,0:0:0:0:
448,192,46904,1,0,0:0:0:0:
192,192,47077,1,0,0:0:0:0:
320,192,47163,1,0,0:0:0:0:
64,192,47249,1,0,0:0:0:0:
192,192,47249,1,0,0:0:0:0:
320,192,47421,1,0,0:0:0:0:
192,192,47507,1,0,0:0:0:0:
448,192,47594,1,0,0:0:0:0:
64,192,47594,1,0,0:0:0:0:
192,192,47766,1,0,0:0:0:0:
448,192,47766,1,0,0:0:0:0:
320,192,47938,1,0,0:0:0:0:
448,192,47938,1,0,0:0:0:0:
192,192,48111,1,0,0:0:0:0:
320,192,48197,1,0,0:0:0:0:
192,192,48283,1,0,0:0:0:0:
64,192,48283,1,0,0:0:0:0:
448,192,48455,1,0,0:0:0:0:
64,192,48455,1,0,0:0:0:0:
320,192,48541,1,0,0:0:0:0:
192,192,48627,1,0,0:0:0:0:
64,192,48627,1,0,0:0:0:0:
320,192,48800,1,0,0:0:0:0:
192,192,48886,1,0,0:0:0:0:
320,192,48972,1,0,0:0:0:0:
448,192,48972,1,0,0:0:0:0:
64,192,49144,1,0,0:0:0:0:
448,192,49144,1,0,0:0:0:0:
320,192,49317,1,0,0:0:0:0:
64,192,49317,1,0,0:0:0:0:
192,192,49489,1,0,0:0:0:0:
448,192,49489,1,0,0:0:0:0:
64,192,49575,1,0,0:0:0:0:
192,192,49661,1,0,0:0:0:0:
320,192,49661,1,0,0:0:0:0:
192,192,49834,1,0,0:0:0:0:
320,192,49920,1,0,0:0:0:0:
448,192,50006,1,0,0:0:0:0:
64,192,50006,1,0,0:0:0:0:
192,192,50178,1,0,0:0:0:0:
320,192,50351,1,0,0:0:0:0:
448,192,50351,1,0,0:0:0:0:
320,192,50523,1,0,0:0:0:0:
192,192,50523,1,0,0:0:0:0:
320,192,50695,1,0,0:0:0:0:
64,192,50695,1,0,0:0:0:0:
192,192,50867,1,0,0:0:0:0:
448,192,50867,1,0,0:0:0:0:
448,192,51040,1,0,0:0:0:0:
320,192,51040,1,0,0:0:0:0:
64,192,51040,1,0,0:0:0:0:
192,192,51212,1,0,0:0:0:0:
448,192,51212,1,0,0:0:0:0:
64,192,51384,1,0,0:0:0:0:
448,192,51384,1,0,0:0:0:0:
320,192,51557,1,0,0:0:0:0:
64,192,51557,1,0,0:0:0:0:
192,192,51729,1,0,0:0:0:0:
448,192,51729,1,0,0:0:0:0:
320,192,51815,1,0,0:0:0:0:
64,192,51815,1,0,0:0:0:0:
448,192,51901,1,0,0:0:0:0:
192,192,51901,1,0,0:0:0:0:
320,192,52074,1,0,0:0:0:0:
192,192,52074,1,0,0:0:0:0:
64,192,52246,1,0,0:0:0:0:
320,192,52246,1,0,0:0:0:0:
448,192,52418,1,2,0:0:0:0:
192,192,52418,1,2,0:0:0:0:
448,192,52590,1,2,0:0:0:0:
64,192,52763,1,10,0:0:0:0:
448,192,52763,1,2,0:0:0:0:
448,192,52935,1,2,0:0:0:0:
448,192,53107,1,2,0:0:0:0:
448,192,53280,1,2,0:0:0:0:
192,192,53452,1,10,0:0:0:0:
448,192,53452,1,2,0:0:0:0:
448,192,53624,1,2,0:0:0:0:
448,192,53797,1,2,0:0:0:0:
64,192,53883,1,2,0:0:0:0:
448,192,53969,1,2,0:0:0:0:
64,192,54055,1,2,0:0:0:0:
448,192,54141,1,10,0:0:0:0:
192,192,54227,1,2,0:0:0:0:
448,192,54314,1,2,0:0:0:0:
192,192,54400,1,2,0:0:0:0:
448,192,54486,1,2,0:0:0:0:
320,192,54572,1,2,0:0:0:0:
448,192,54658,5,2,0:0:0:0:
320,192,54744,1,2,0:0:0:0:
64,192,54830,1,10,0:0:0:0:
448,192,54830,1,2,0:0:0:0:
192,192,54917,1,2,0:0:0:0:
320,192,55003,1,2,0:0:0:0:
192,192,55089,1,2,0:0:0:0:
448,192,55175,128,0,55347:0:0:0:0:
64,192,55175,1,6,0:0:0:0:
320,192,55347,128,0,55520:0:0:0:0:
192,192,55520,128,8,55692:0:0:0:0:
64,192,55520,1,0,0:0:0:0:
320,192,55692,128,0,55864:0:0:0:0:
64,192,55864,128,0,56037:0:0:0:0:
448,192,55864,1,0,0:0:0:0:
192,192,56037,128,2,56209:0:0:0:0:
448,192,56037,1,0,0:0:0:0:
320,192,56209,128,8,56381:0:0:0:0:
64,192,56209,1,0,0:0:0:0:
192,192,56381,128,0,56553:0:0:0:0:
448,192,56553,128,2,56726:0:0:0:0:
64,192,56553,1,0,0:0:0:0:
320,192,56726,128,0,56898:0:0:0:0:
192,192,56898,128,8,57070:0:0:0:0:
64,192,56898,1,0,0:0:0:0:
320,192,57070,128,0,57243:0:0:0:0:
64,192,57243,128,0,57415:0:0:0:0:
448,192,57243,1,0,0:0:0:0:
192,192,57415,128,2,57587:0:0:0:0:
448,192,57415,1,0,0:0:0:0:
320,192,57587,128,8,57760:0:0:0:0:
64,192,57587,1,0,0:0:0:0:
448,192,57760,128,0,57932:0:0:0:0:
192,192,57932,128,2,58104:0:0:0:0:
64,192,57932,1,2,0:0:0:0:
320,192,58104,128,0,58277:0:0:0:0:
448,192,58277,128,8,58449:0:0:0:0:
192,192,58277,1,0,0:0:0:0:
320,192,58449,128,0,58621:0:0:0:0:
64,192,58621,128,0,58793:0:0:0:0:
448,192,58621,1,0,0:0:0:0:
192,192,58793,128,0,58966:0:0:0:0:
320,192,58793,1,2,0:0:0:0:
320,192,58966,128,0,59138:0:0:0:0:
448,192,58966,1,8,0:0:0:0:
192,192,59138,128,0,59310:0:0:0:0:
64,192,59310,128,0,59397:0:0:0:0:
320,192,59310,1,2,0:0:0:0:
64,192,59483,128,0,59569:0:0:0:0:
320,192,59483,1,2,0:0:0:0:
448,192,59655,128,0,59827:0:0:0:0:
192,192,59655,1,8,0:0:0:0:
320,192,59827,128,0,60000:0:0:0:0:
64,192,60000,128,0,60172:0:0:0:0:
448,192,60000,1,0,0:0:0:0:
192,192,60172,128,2,60344:0:0:0:0:
448,192,60172,1,0,0:0:0:0:
448,192,60344,128,8,60517:0:0:0:0:
64,192,60344,1,0,0:0:0:0:
320,192,60517,128,0,60689:0:0:0:0:
64,192,60689,128,2,60861:0:0:0:0:
448,192,60689,1,2,0:0:0:0:
192,192,60861,128,0,61033:0:0:0:0:
320,192,61033,128,8,61206:0:0:0:0:
448,192,61033,1,0,0:0:0:0:
192,192,61206,128,0,61378:0:0:0:0:
320,192,61378,1,0,0:0:0:0:
64,192,61378,128,0,61464:0:0:0:0:
320,192,61550,1,2,0:0:0:0:
64,192,61550,128,0,61636:0:0:0:0:
448,192,61723,1,8,0:0:0:0:
192,192,61723,128,0,61895:0:0:0:0:
320,192,61895,128,0,62067:0:0:0:0:
64,192,62067,1,2,0:0:0:0:
448,192,62067,128,2,62240:0:0:0:0:
320,192,62240,128,0,62412:0:0:0:0:
192,192,62412,128,8,62584:0:0:0:0:
64,192,62412,1,0,0:0:0:0:
448,192,62584,128,0,62756:0:0:0:0:
64,192,62756,128,0,62929:0:0:0:0:
320,192,62756,1,0,0:0:0:0:
192,192,62929,128,2,63101:0:0:0:0:
448,192,62929,1,0,0:0:0:0:
320,192,63101,128,8,63273:0:0:0:0:
64,192,63101,1,0,0:0:0:0:
448,192,63273,128,0,63446:0:0:0:0:
64,192,63446,1,2,0:0:0:0:
192,192,63446,128,0,63618:0:0:0:0:
320,192,63618,128,0,63790:0:0:0:0:
448,192,63790,1,8,0:0:0:0:
64,192,63790,128,0,63963:0:0:0:0:
192,192,63963,128,0,64135:0:0:0:0:
64,192,64135,1,0,0:0:0:0:
448,192,64135,128,0,64307:0:0:0:0:
64,192,64307,1,2,0:0:0:0:
320,192,64307,128,0,64480:0:0:0:0:
448,192,64480,1,8,0:0:0:0:
192,192,64480,128,0,64652:0:0:0:0:
64,192,64652,128,0,64824:0:0:0:0:
192,192,64824,1,2,0:0:0:0:
448,192,64824,128,0,64910:0:0:0:0:
192,192,64996,1,2,0:0:0:0:
448,192,64996,128,0,65083:0:0:0:0:
320,192,65169,1,8,0:0:0:0:
192,192,65169,128,0,65341:0:0:0:0:
64,192,65341,128,0,65513:0:0:0:0:
192,192,65513,1,0,0:0:0:0:
448,192,65513,128,0,65686:0:0:0:0:
64,192,65686,1,2,0:0:0:0:
320,192,65686,128,0,65858:0:0:0:0:
448,192,65858,1,8,0:0:0:0:
192,192,65858,128,0,66030:0:0:0:0:
64,192,66030,128,0,66203:0:0:0:0:
448,192,66203,128,4,66547:0:0:0:0:
320,192,66203,1,0,0:0:0:0:
192,192,66375,128,0,66892:0:0:0:0:
320,192,66547,128,0,67064:0:0:0:0:
448,192,66719,128,0,67236:0:0:0:0:
64,192,66892,128,0,67064:0:0:0:0:
192,192,67064,128,0,67236:0:0:0:0:
320,192,67236,128,0,67409:0:0:0:0:
448,192,67409,128,0,67581:0:0:0:0:
192,192,67581,128,0,67926:0:0:0:0:
64,192,67753,128,0,68615:0:0:0:0:
320,192,67926,128,0,68270:0:0:0:0:
192,192,68098,128,0,68443:0:0:0:0:
448,192,68270,128,0,68443:0:0:0:0:
320,192,68443,128,0,68615:0:0:0:0:
192,192,68615,128,0,68787:0:0:0:0:
64,192,68787,128,0,68959:0:0:0:0:
448,192,68959,128,0,69476:0:0:0:0:
320,192,69132,128,0,69649:0:0:0:0:
64,192,69304,128,0,69993:0:0:0:0:
192,192,69476,128,0,69821:0:0:0:0:
448,192,69649,128,0,70166:0:0:0:0:
320,192,69821,128,0,70338:0:0:0:0:
192,192,69993,128,0,70510:0:0:0:0:
64,192,70166,128,0,70682:0:0:0:0:
448,192,70338,128,0,70682:0:0:0:0:
320,192,70510,128,0,70855:0:0:0:0:
192,192,70682,128,0,71027:0:0:0:0:
64,192,70855,128,0,71027:0:0:0:0:
448,192,71027,128,0,71372:0:0:0:0:
320,192,71199,128,0,71372:0:0:0:0:
64,192,71372,128,0,71716:0:0:0:0:
192,192,71544,128,0,71716:0:0:0:0:
448,192,71716,128,0,72750:0:0:0:0:
320,192,71889,128,0,72061:0:0:0:0:
192,192,72061,128,0,72406:0:0:0:0:
320,192,72233,128,0,72578:0:0:0:0:
64,192,72406,128,0,72578:0:0:0:0:
192,192,72578,128,0,72750:0:0:0:0:
320,192,72750,128,0,72922:0:0:0:0:
448,192,72922,128,0,73095:0:0:0:0:
192,192,73095,128,0,73612:0:0:0:0:
64,192,73267,128,0,73612:0:0:0:0:
320,192,73439,128,0,73784:0:0:0:0:
448,192,73612,128,0,73784:0:0:0:0:
64,192,73784,128,0,74473:0:0:0:0:
192,192,73956,128,0,74473:0:0:0:0:
448,192,74129,128,0,74301:0:0:0:0:
320,192,74301,128,0,74473:0:0:0:0:
448,192,74473,128,0,75162:0:0:0:0:
320,192,74646,128,0,74990:0:0:0:0:
64,192,74818,128,0,75507:0:0:0:0:
192,192,74990,128,0,75162:0:0:0:0:
320,192,75162,128,0,75335:0:0:0:0:
448,192,75335,128,0,75507:0:0:0:0:
192,192,75507,128,0,75852:0:0:0:0:
448,192,75679,128,0,75852:0:0:0:0:
320,192,75852,128,0,76885:0:0:0:0:
64,192,75852,1,0,0:0:0:0:
192,192,76024,1,0,0:0:0:0:
64,192,76196,1,0,0:0:0:0:
192,192,76369,1,0,0:0:0:0:
448,192,76541,1,0,0:0:0:0:
192,192,76713,1,0,0:0:0:0:
64,192,76885,128,8,77230:0:0:0:0:
448,192,76885,1,0,0:0:0:0:
320,192,77230,1,6,0:0:0:0:
448,192,77230,1,0,0:0:0:0:
64,192,77402,1,0,0:0:0:0:
192,192,77489,1,0,0:0:0:0:
320,192,77575,1,8,0:0:0:0:
448,192,77575,1,0,0:0:0:0:
64,192,77747,1,0,0:0:0:0:
192,192,77833,1,0,0:0:0:0:
64,192,77919,1,0,0:0:0:0:
448,192,77919,1,0,0:0:0:0:
192,192,78005,1,0,0:0:0:0:
448,192,78092,1,2,0:0:0:0:
320,192,78092,1,0,0:0:0:0:
64,192,78264,1,8,0:0:0:0:
320,192,78264,1,0,0:0:0:0:
448,192,78436,1,0,0:0:0:0:
320,192,78522,1,0,0:0:0:0:
64,192,78609,1,2,0:0:0:0:
192,192,78609,1,2,0:0:0:0:
192,192,78781,1,0,0:0:0:0:
320,192,78867,1,0,0:0:0:0:
192,192,78953,1,8,0:0:0:0:
64,192,78953,1,0,0:0:0:0:
448,192,79125,1,0,0:0:0:0:
320,192,79212,1,0,0:0:0:0:
64,192,79298,1,0,0:0:0:0:
192,192,79384,1,0,0:0:0:0:
64,192,79470,1,2,0:0:0:0:
448,192,79470,1,0,0:0:0:0:
320,192,79556,1,0,0:0:0:0:
448,192,79642,1,8,0:0:0:0:
192,192,79642,1,0,0:0:0:0:
320,192,79815,1,0,0:0:0:0:
192,192,79901,1,0,0:0:0:0:
64,192,79987,1,2,0:0:0:0:
320,192,79987,1,2,0:0:0:0:
192,192,80159,1,0,0:0:0:0:
448,192,80159,1,0,0:0:0:0:
320,192,80332,1,8,0:0:0:0:
64,192,80332,1,0,0:0:0:0:
448,192,80332,1,0,0:0:0:0:
192,192,80504,1,0,0:0:0:0:
320,192,80590,1,0,0:0:0:0:
192,192,80676,1,0,0:0:0:0:
64,192,80676,1,0,0:0:0:0:
192,192,80848,1,2,0:0:0:0:
320,192,80848,1,0,0:0:0:0:
320,192,81021,1,8,0:0:0:0:
448,192,81021,1,0,0:0:0:0:
64,192,81021,1,0,0:0:0:0:
192,192,81193,1,0,0:0:0:0:
320,192,81279,1,0,0:0:0:0:
448,192,81365,1,2,0:0:0:0:
64,192,81365,1,2,0:0:0:0:
448,192,81538,1,2,0:0:0:0:
192,192,81538,1,0,0:0:0:0:
64,192,81710,1,8,0:0:0:0:
448,192,81710,1,0,0:0:0:0:
320,192,81710,1,0,0:0:0:0:
192,192,81882,1,0,0:0:0:0:
64,192,81968,1,0,0:0:0:0:
448,192,82055,1,0,0:0:0:0:
192,192,82055,1,0,0:0:0:0:
320,192,82141,1,0,0:0:0:0:
64,192,82227,1,2,0:0:0:0:
448,192,82227,1,0,0:0:0:0:
320,192,82399,1,0,0:0:0:0:
64,192,82399,1,0,0:0:0:0:
448,192,82485,1,0,0:0:0:0:
320,192,82572,1,0,0:0:0:0:
192,192,82658,1,0,0:0:0:0:
448,192,82744,1,0,0:0:0:0:
64,192,82744,1,0,0:0:0:0:
320,192,82830,1,0,0:0:0:0:
192,192,82916,1,0,0:0:0:0:
64,192,83002,1,0,0:0:0:0:
192,192,83088,1,8,0:0:0:0:
320,192,83088,1,8,0:0:0:0:
320,192,83605,1,2,0:0:0:0:
192,192,83605,1,0,0:0:0:0:
448,192,83778,1,0,0:0:0:0:
64,192,83778,1,0,0:0:0:0:
320,192,83864,1,0,0:0:0:0:
192,192,83950,1,0,0:0:0:0:
64,192,84036,1,0,0:0:0:0:
448,192,84122,1,0,0:0:0:0:
192,192,84122,1,0,0:0:0:0:
448,192,84295,1,0,0:0:0:0:
320,192,84381,1,0,0:0:0:0:
192,192,84467,1,8,0:0:0:0:
64,192,84467,1,8,0:0:0:0:
192,192,84984,1,0,0:0:0:0:
320,192,84984,1,2,0:0:0:0:
320,192,85156,1,8,0:0:0:0:
448,192,85156,1,0,0:0:0:0:
64,192,85156,1,0,0:0:0:0:
64,192,85328,1,0,0:0:0:0:
192,192,85415,1,0,0:0:0:0:
320,192,85501,1,2,0:0:0:0:
448,192,85501,1,0,0:0:0:0:
448,192,85673,1,2,0:0:0:0:
192,192,85673,1,2,0:0:0:0:
320,192,85845,1,2,0:0:0:0:
448,192,85845,1,2,0:0:0:0:
64,192,85845,1,10,0:0:0:0:
192,192,86018,1,2,0:0:0:0:
448,192,86018,1,2,0:0:0:0:
320,192,86190,1,2,0:0:0:0:
192,192,86190,1,2,0:0:0:0:
320,192,86362,1,2,0:0:0:0:
64,192,86362,1,2,0:0:0:0:
64,192,86535,1,2,0:0:0:0:
192,192,86535,1,10,0:0:0:0:
448,192,86535,1,2,0:0:0:0:
320,192,86707,1,2,0:0:0:0:
448,192,86793,1,0,0:0:0:0:
320,192,86879,1,2,0:0:0:0:
64,192,86879,1,2,0:0:0:0:
192,192,86965,1,2,0:0:0:0:
448,192,86965,1,2,0:0:0:0:
64,192,87051,1,2,0:0:0:0:
320,192,87051,1,2,0:0:0:0:
192,192,87138,1,2,0:0:0:0:
448,192,87138,1,2,0:0:0:0:
64,192,87224,1,10,0:0:0:0:
320,192,87224,1,2,0:0:0:0:
192,192,87310,1,2,0:0:0:0:
448,192,87310,1,2,0:0:0:0:
64,192,87396,1,2,0:0:0:0:
320,192,87396,1,2,0:0:0:0:
448,192,87482,1,2,0:0:0:0:
192,192,87482,1,2,0:0:0:0:
448,192,87568,1,2,0:0:0:0:
64,192,87568,1,2,0:0:0:0:
320,192,87655,1,2,0:0:0:0:
192,192,87655,1,2,0:0:0:0:
64,192,87741,1,2,0:0:0:0:
448,192,87741,1,2,0:0:0:0:
192,192,87827,1,2,0:0:0:0:
320,192,87827,1,2,0:0:0:0:
448,192,87913,1,10,0:0:0:0:
64,192,87913,1,2,0:0:0:0:
192,192,87999,1,2,0:0:0:0:
320,192,87999,1,2,0:0:0:0:
64,192,88085,1,2,0:0:0:0:
448,192,88085,1,2,0:0:0:0:
192,192,88171,1,2,0:0:0:0:
320,192,88171,1,2,0:0:0:0:
448,192,88258,1,6,0:0:0:0:
64,192,88258,1,2,0:0:0:0:
192,192,88258,1,2,0:0:0:0:
320,192,88344,1,0,0:0:0:0:
64,192,88430,1,0,0:0:0:0:
192,192,88516,1,0,0:0:0:0:
320,192,88602,1,8,0:0:0:0:
448,192,88602,1,0,0:0:0:0:
320,192,88775,1,0,0:0:0:0:
192,192,88861,1,0,0:0:0:0:
448,192,88947,1,0,0:0:0:0:
64,192,88947,1,0,0:0:0:0:
192,192,89119,1,2,0:0:0:0:
448,192,89119,1,0,0:0:0:0:
320,192,89205,1,0,0:0:0:0:
64,192,89291,1,8,0:0:0:0:
192,192,89291,1,0,0:0:0:0:
448,192,89378,1,0,0:0:0:0:
320,192,89464,1,0,0:0:0:0:
192,192,89550,1,0,0:0:0:0:
320,192,89636,1,2,0:0:0:0:
64,192,89636,1,2,0:0:0:0:
448,192,89636,1,0,0:0:0:0:
192,192,89722,1,0,0:0:0:0:
320,192,89808,1,0,0:0:0:0:
64,192,89894,1,0,0:0:0:0:
192,192,89981,1,8,0:0:0:0:
448,192,89981,1,0,0:0:0:0:
64,192,90153,1,0,0:0:0:0:
192,192,90239,1,0,0:0:0:0:
448,192,90325,1,0,0:0:0:0:
320,192,90325,1,0,0:0:0:0:
192,192,90411,1,0,0:0:0:0:
64,192,90498,1,2,0:0:0:0:
448,192,90498,1,0,0:0:0:0:
320,192,90670,1,8,0:0:0:0:
64,192,90670,1,0,0:0:0:0:
320,192,90842,1,0,0:0:0:0:
448,192,90842,1,0,0:0:0:0:
192,192,90928,1,0,0:0:0:0:
448,192,91014,1,2,0:0:0:0:
64,192,91014,1,0,0:0:0:0:
320,192,91014,1,0,0:0:0:0:
64,192,91187,1,0,0:0:0:0:
320,192,91273,1,0,0:0:0:0:
448,192,91359,1,8,0:0:0:0:
192,192,91359,1,0,0:0:0:0:
64,192,91531,1,0,0:0:0:0:
448,192,91618,1,0,0:0:0:0:
320,192,91704,1,0,0:0:0:0:
192,192,91790,1,0,0:0:0:0:
64,192,91876,1,2,0:0:0:0:
448,192,91876,1,0,0:0:0:0:
192,192,92048,1,8,0:0:0:0:
320,192,92048,1,0,0:0:0:0:
192,192,92221,1,0,0:0:0:0:
320,192,92307,1,0,0:0:0:0:
448,192,92393,1,2,0:0:0:0:
64,192,92393,1,0,0:0:0:0:
192,192,92393,1,0,0:0:0:0:
320,192,92565,1,2,0:0:0:0:
192,192,92565,1,0,0:0:0:0:
448,192,92738,1,0,0:0:0:0:
320,192,92738,1,0,0:0:0:0:
64,192,92738,1,8,0:0:0:0:
192,192,92910,1,0,0:0:0:0:
448,192,92910,1,0,0:0:0:0:
320,192,92996,1,0,0:0:0:0:
448,192,93082,1,0,0:0:0:0:
64,192,93082,1,0,0:0:0:0:
192,192,93168,1,0,0:0:0:0:
320,192,93254,1,2,0:0:0:0:
448,192,93254,1,0,0:0:0:0:
64,192,93427,1,8,0:0:0:0:
320,192,93427,1,8,0:0:0:0:
448,192,93599,1,0,0:0:0:0:
64,192,93599,1,0,0:0:0:0:
320,192,93685,1,0,0:0:0:0:
64,192,93771,1,2,0:0:0:0:
448,192,93771,1,2,0:0:0:0:
192,192,93857,1,0,0:0:0:0:
320,192,93944,1,0,0:0:0:0:
448,192,93944,1,0,0:0:0:0:
64,192,94030,1,0,0:0:0:0:
192,192,94116,1,8,0:0:0:0:
448,192,94116,1,0,0:0:0:0:
320,192,94288,1,0,0:0:0:0:
192,192,94374,1,0,0:0:0:0:
448,192,94461,1,0,0:0:0:0:
64,192,94461,1,0,0:0:0:0:
320,192,94547,1,0,0:0:0:0:
448,192,94633,1,2,0:0:0:0:
192,192,94633,1,0,0:0:0:0:
64,192,94805,1,8,0:0:0:0:
192,192,94805,1,0,0:0:0:0:
64,192,94977,1,0,0:0:0:0:
192,192,95064,1,0,0:0:0:0:
320,192,95150,1,2,0:0:0:0:
448,192,95150,1,2,0:0:0:0:
64,192,95150,1,0,0:0:0:0:
320,192,95322,1,0,0:0:0:0:
448,192,95408,1,0,0:0:0:0:
320,192,95494,1,8,0:0:0:0:
64,192,95494,1,0,0:0:0:0:
448,192,95667,1,0,0:0:0:0:
192,192,95667,1,0,0:0:0:0:
64,192,95753,1,0,0:0:0:0:
320,192,95839,1,0,0:0:0:0:
192,192,95839,1,0,0:0:0:0:
448,192,95925,1,0,0:0:0:0:
64,192,96011,1,2,0:0:0:0:
320,192,96011,1,0,0:0:0:0:
64,192,96184,1,8,0:0:0:0:
448,192,96184,1,0,0:0:0:0:
320,192,96184,1,0,0:0:0:0:
192,192,96270,1,0,0:0:0:0:
448,192,96356,1,0,0:0:0:0:
64,192,96356,1,0,0:0:0:0:
320,192,96442,1,0,0:0:0:0:
448,192,96528,1,2,0:0:0:0:
64,192,96528,1,0,0:0:0:0:
192,192,96528,1,0,0:0:0:0:
320,192,96701,1,0,0:0:0:0:
64,192,96787,1,0,0:0:0:0:
192,192,96873,1,8,0:0:0:0:
448,192,96873,1,0,0:0:0:0:
64,192,97045,1,0,0:0:0:0:
192,192,97131,1,0,0:0:0:0:
320,192,97217,1,0,0:0:0:0:
448,192,97217,1,0,0:0:0:0:
64,192,97304,1,0,0:0:0:0:
192,192,97390,1,2,0:0:0:0:
448,192,97390,1,0,0:0:0:0:
320,192,97562,1,8,0:0:0:0:
64,192,97562,1,0,0:0:0:0:
448,192,97648,1,0,0:0:0:0:
192,192,97734,1,0,0:0:0:0:
320,192,97821,1,0,0:0:0:0:
448,192,97907,1,2,0:0:0:0:
64,192,97907,1,0,0:0:0:0:
192,192,97907,1,0,0:0:0:0:
64,192,98079,1,0,0:0:0:0:
320,192,98079,1,0,0:0:0:0:
192,192,98165,1,0,0:0:0:0:
320,192,98251,1,8,0:0:0:0:
64,192,98251,1,0,0:0:0:0:
448,192,98251,1,0,0:0:0:0:
448,192,98424,1,0,0:0:0:0:
64,192,98424,1,0,0:0:0:0:
192,192,98510,1,0,0:0:0:0:
320,192,98596,1,0,0:0:0:0:
448,192,98596,1,0,0:0:0:0:
192,192,98682,1,0,0:0:0:0:
64,192,98768,1,0,0:0:0:0:
448,192,98768,1,0,0:0:0:0:
320,192,98940,1,0,0:0:0:0:
64,192,98940,1,0,0:0:0:0:
320,192,99113,1,0,0:0:0:0:
192,192,99199,1,0,0:0:0:0:
448,192,99285,1,6,0:0:0:0:
320,192,99285,1,0,0:0:0:0:
64,192,99285,1,0,0:0:0:0:
192,192,99371,1,0,0:0:0:0:
448,192,99457,1,0,0:0:0:0:
320,192,99544,1,0,0:0:0:0:
448,192,99630,1,8,0:0:0:0:
64,192,99630,1,0,0:0:0:0:
320,192,99716,1,0,0:0:0:0:
64,192,99802,1,0,0:0:0:0:
192,192,99888,1,0,0:0:0:0:
448,192,99974,1,0,0:0:0:0:
64,192,99974,1,0,0:0:0:0:
192,192,100147,1,2,0:0:0:0:
448,192,100147,1,0,0:0:0:0:
64,192,100233,1,0,0:0:0:0:
192,192,100319,1,8,0:0:0:0:
320,192,100319,1,0,0:0:0:0:
320,192,100491,1,0,0:0:0:0:
192,192,100577,1,0,0:0:0:0:
448,192,100664,1,2,0:0:0:0:
64,192,100664,1,2,0:0:0:0:
320,192,100664,1,0,0:0:0:0:
64,192,100836,1,0,0:0:0:0:
192,192,100922,1,0,0:0:0:0:
320,192,101008,1,8,0:0:0:0:
448,192,101008,1,0,0:0:0:0:
320,192,101180,1,0,0:0:0:0:
192,192,101267,1,0,0:0:0:0:
64,192,101353,1,0,0:0:0:0:
448,192,101353,1,0,0:0:0:0:
320,192,101439,1,0,0:0:0:0:
448,192,101525,1,2,0:0:0:0:
192,192,101525,1,0,0:0:0:0:
64,192,101611,1,0,0:0:0:0:
320,192,101697,1,8,0:0:0:0:
192,192,101697,1,0,0:0:0:0:
64,192,101870,1,0,0:0:0:0:
320,192,101870,1,0,0:0:0:0:
192,192,101956,1,0,0:0:0:0:
320,192,102042,1,2,0:0:0:0:
448,192,102042,1,2,0:0:0:0:
64,192,102042,1,0,0:0:0:0:
192,192,102214,1,0,0:0:0:0:
320,192,102300,1,0,0:0:0:0:
448,192,102387,1,8,0:0:0:0:
192,192,102387,1,0,0:0:0:0:
64,192,102473,1,0,0:0:0:0:
192,192,102559,1,0,0:0:0:0:
320,192,102645,1,0,0:0:0:0:
64,192,102731,1,0,0:0:0:0:
448,192,102731,1,0,0:0:0:0:
320,192,102817,1,0,0:0:0:0:
192,192,102904,1,2,0:0:0:0:
64,192,102904,1,0,0:0:0:0:
320,192,102990,1,0,0:0:0:0:
448,192,103076,1,8,0:0:0:0:
64,192,103076,1,0,0:0:0:0:
192,192,103162,1,0,0:0:0:0:
64,192,103248,1,0,0:0:0:0:
192,192,103334,1,0,0:0:0:0:
320,192,103420,1,2,0:0:0:0:
448,192,103420,1,2,0:0:0:0:
64,192,103420,1,0,0:0:0:0:
320,192,103593,1,2,0:0:0:0:
192,192,103593,1,0,0:0:0:0:
64,192,103765,1,8,0:0:0:0:
192,192,103765,1,0,0:0:0:0:
448,192,103937,1,0,0:0:0:0:
320,192,104023,1,0,0:0:0:0:
192,192,104110,1,0,0:0:0:0:
64,192,104110,1,0,0:0:0:0:
320,192,104196,1,0,0:0:0:0:
448,192,104282,1,2,0:0:0:0:
64,192,104368,1,0,0:0:0:0:
192,192,104454,1,8,0:0:0:0:
448,192,104454,1,0,0:0:0:0:
320,192,104540,1,0,0:0:0:0:
448,192,104627,1,0,0:0:0:0:
64,192,104627,1,0,0:0:0:0:
320,192,104713,1,0,0:0:0:0:
192,192,104799,1,2,0:0:0:0:
64,192,104799,1,0,0:0:0:0:
448,192,104799,1,0,0:0:0:0:
192,192,104971,1,0,0:0:0:0:
320,192,105057,1,0,0:0:0:0:
448,192,105143,1,8,0:0:0:0:
192,192,105143,1,0,0:0:0:0:
64,192,105316,1,0,0:0:0:0:
192,192,105402,1,0,0:0:0:0:
320,192,105488,1,0,0:0:0:0:
448,192,105488,1,0,0:0:0:0:
64,192,105574,1,0,0:0:0:0:
192,192,105660,1,2,0:0:0:0:
320,192,105660,1,0,0:0:0:0:
448,192,105747,1,0,0:0:0:0:
64,192,105833,1,8,0:0:0:0:
192,192,105833,1,0,0:0:0:0:
320,192,106005,1,0,0:0:0:0:
320,192,106091,1,0,0:0:0:0:
64,192,106177,1,2,0:0:0:0:
192,192,106177,1,0,0:0:0:0:
448,192,106177,1,0,0:0:0:0:
320,192,106350,1,0,0:0:0:0:
192,192,106436,1,0,0:0:0:0:
448,192,106522,1,8,0:0:0:0:
64,192,106522,1,0,0:0:0:0:
320,192,106608,1,0,0:0:0:0:
192,192,106694,1,0,0:0:0:0:
320,192,106780,1,0,0:0:0:0:
192,192,106867,1,0,0:0:0:0:
64,192,106867,1,0,0:0:0:0:
448,192,106953,1,0,0:0:0:0:
320,192,107039,1,2,0:0:0:0:
64,192,107039,1,0,0:0:0:0:
448,192,107211,1,8,0:0:0:0:
64,192,107211,1,0,0:0:0:0:
192,192,107297,1,0,0:0:0:0:
320,192,107383,1,0,0:0:0:0:
448,192,107470,1,0,0:0:0:0:
320,192,107556,1,2,0:0:0:0:
64,192,107556,1,0,0:0:0:0:
192,192,107556,1,0,0:0:0:0:
64,192,107728,1,0,0:0:0:0:
192,192,107814,1,0,0:0:0:0:
64,192,107900,1,8,0:0:0:0:
448,192,107900,1,0,0:0:0:0:
320,192,108073,1,0,0:0:0:0:
192,192,108159,1,0,0:0:0:0:
448,192,108245,1,0,0:0:0:0:
64,192,108245,1,0,0:0:0:0:
192,192,108331,1,0,0:0:0:0:
320,192,108417,1,2,0:0:0:0:
448,192,108417,1,0,0:0:0:0:
192,192,108503,1,0,0:0:0:0:
448,192,108590,1,8,0:0:0:0:
64,192,108590,1,0,0:0:0:0:
320,192,108676,1,0,0:0:0:0:
192,192,108762,1,0,0:0:0:0:
448,192,108762,1,0,0:0:0:0:
64,192,108848,1,0,0:0:0:0:
192,192,108934,1,2,0:0:0:0:
320,192,108934,1,2,0:0:0:0:
448,192,108934,1,0,0:0:0:0:
320,192,109106,1,2,0:0:0:0:
192,192,109106,1,2,0:0:0:0:
448,192,109279,1,8,0:0:0:0:
192,192,109279,1,2,0:0:0:0:
64,192,109279,1,2,0:0:0:0:
320,192,109451,1,0,0:0:0:0:
192,192,109537,1,0,0:0:0:0:
320,192,109623,1,0,0:0:0:0:
64,192,109623,1,0,0:0:0:0:
448,192,109623,1,0,0:0:0:0:
192,192,109710,1,0,0:0:0:0:
320,192,109796,1,2,0:0:0:0:
64,192,109796,1,2,0:0:0:0:
64,192,109968,1,0,0:0:0:0:
448,192,109968,1,0,0:0:0:0:
320,192,109968,1,8,0:0:0:0:
192,192,110140,1,0,0:0:0:0:
448,192,110140,1,0,0:0:0:0:
64,192,110313,1,4,0:0:0:0:
320,192,110313,1,0,0:0:0:0:
448,192,110485,1,0,0:0:0:0:
448,192,110657,1,0,0:0:0:0:
320,192,110830,1,0,0:0:0:0:
192,192,111174,1,0,0:0:0:0:
192,192,111346,1,0,0:0:0:0:
320,192,111519,1,0,0:0:0:0:
64,192,111863,1,0,0:0:0:0:
64,192,112036,1,0,0:0:0:0:
192,192,112208,1,0,0:0:0:0:
320,192,112553,1,0,0:0:0:0:
320,192,112725,1,0,0:0:0:0:
192,192,112897,1,0,0:0:0:0:
