osu file format v14

[General]
AudioFilename: Dear You.mp3
AudioLeadIn: 0
PreviewTime: 88171
Countdown: 0
SampleSet: Soft
StackLeniency: 0.7
Mode: 3
LetterboxInBreaks: 0
SpecialStyle: 0
WidescreenStoryboard: 0

[Editor]
Bookmarks: 11066,55350,88032,88262,88313,110469
DistanceSpacing: 0.5
BeatDivisor: 4
GridSize: 8
TimelineZoom: 1.4184

[Metadata]
Title:Dear You
TitleUnicode:Dear You
Artist:DJ Genericname
ArtistUnicode:DJ Genericname
Creator:Satoshi Kazuki
Version:EZ
Source:ひぐらしのなく頃に
Tags:higurashi no naku koro ni Lenfried-
BeatmapID:656194
BeatmapSetID:286309

[Difficulty]
HPDrainRate:6
CircleSize:4
OverallDifficulty:6.5
ApproachRate:7
SliderMultiplier:1.59999990463257
SliderTickRate:1

[Events]
//Background and Video events
0,0,"Dear You.jpg",0,0
//Break Periods
//Storyboard Layer 0 (Background)
//Storyboard Layer 1 (Fail)
//Storyboard Layer 2 (Pass)
//Storyboard Layer 3 (Foreground)
//Storyboard Sound Samples

[TimingPoints]
38,344.609729481362,4,2,1,35,1,0
88258,-100,4,2,1,35,0,1
110313,-100,4,2,1,35,0,0

[HitObjects]
64,192,38,5,4,0:0:0:0:
320,192,382,1,0,0:0:0:0:
192,192,727,1,0,0:0:0:0:
448,192,1071,1,0,0:0:0:0:
64,192,1416,1,0,0:0:0:0:
320,192,1761,1,0,0:0:0:0:
192,192,2105,1,0,0:0:0:0:
448,192,2450,1,0,0:0:0:0:
64,192,2794,1,0,0:0:0:0:
448,192,3139,1,0,0:0:0:0:
320,192,3484,1,0,0:0:0:0:
64,192,3828,1,0,0:0:0:0:
320,192,4173,1,0,0:0:0:0:
448,192,4517,1,0,0:0:0:0:
192,192,4862,1,0,0:0:0:0:
64,192,5207,1,0,0:0:0:0:
448,192,5551,1,0,0:0:0:0:
64,192,5896,1,0,0:0:0:0:
192,192,6240,1,0,0:0:0:0:
320,192,6585,1,0,0:0:0:0:
64,192,6930,1,0,0:0:0:0:
448,192,7274,1,0,0:0:0:0:
192,192,7619,1,0,0:0:0:0:
320,192,7964,1,0,0:0:0:0:
64,192,8308,1,0,0:0:0:0:
448,192,8653,1,0,0:0:0:0:
192,192,8997,1,0,0:0:0:0:
320,192,9342,1,0,0:0:0:0:
64,192,9687,1,0,0:0:0:0:
448,192,10031,1,0,0:0:0:0:
192,192,10376,1,0,0:0:0:0:
320,192,10720,1,8,0:0:0:0:
64,192,10720,1,0,0:0:0:0:
192,192,11065,1,4,0:0:0:0:
448,192,11065,1,2,0:0:0:0:
64,192,11410,1,8,0:0:0:0:
320,192,11754,1,0,0:0:0:0:
192,192,12099,1,8,0:0:0:0:
64,192,12443,1,2,0:0:0:0:
320,192,12788,1,8,0:0:0:0:
448,192,13133,1,0,0:0:0:0:
192,192,13477,1,8,0:0:0:0:
64,192,13822,1,2,0:0:0:0:
192,192,14166,1,8,0:0:0:0:
320,192,14511,1,0,0:0:0:0:
448,192,14856,1,8,0:0:0:0:
64,192,15200,128,0,15545:0:0:0:0:
448,192,15545,128,8,15890:0:0:0:0:
320,192,15890,128,0,16234:0:0:0:0:
448,192,16234,1,8,0:0:0:0:
192,192,16579,1,2,0:0:0:0:
64,192,16923,1,8,0:0:0:0:
320,192,17268,1,0,0:0:0:0:
448,192,17613,1,8,0:0:0:0:
64,192,17957,1,2,0:0:0:0:
320,192,18302,1,8,0:0:0:0:
448,192,18646,1,0,0:0:0:0:
192,192,18991,1,8,0:0:0:0:
64,192,19336,1,2,0:0:0:0:
320,192,19680,1,8,0:0:0:0:
448,192,20025,1,0,0:0:0:0:
192,192,20369,1,8,0:0:0:0:
320,192,20714,1,2,0:0:0:0:
448,192,21059,1,8,0:0:0:0:
192,192,21403,1,0,0:0:0:0:
64,192,21748,1,8,0:0:0:0:
192,192,22093,1,4,0:0:0:0:
320,192,22093,1,2,0:0:0:0:
448,192,22437,1,8,0:0:0:0:
192,192,22782,1,0,0:0:0:0:
64,192,23126,1,8,0:0:0:0:
320,192,23471,1,2,0:0:0:0:
192,192,23816,1,8,0:0:0:0:
64,192,24160,1,0,0:0:0:0:
320,192,24505,1,8,0:0:0:0:
448,192,24849,1,2,0:0:0:0:
192,192,25194,1,8,0:0:0:0:
320,192,25539,1,0,0:0:0:0:
64,192,25883,1,8,0:0:0:0:
192,192,26228,1,2,0:0:0:0:
64,192,26572,1,8,0:0:0:0:
320,192,26917,1,0,0:0:0:0:
448,192,27262,1,8,0:0:0:0:
192,192,27606,1,2,0:0:0:0:
320,192,27951,1,8,0:0:0:0:
64,192,28295,1,0,0:0:0:0:
320,192,28640,1,8,0:0:0:0:
192,192,28985,1,2,0:0:0:0:
448,192,29329,1,8,0:0:0:0:
320,192,29674,1,0,0:0:0:0:
64,192,30019,1,8,0:0:0:0:
192,192,30363,1,2,0:0:0:0:
448,192,30708,1,8,0:0:0:0:
192,192,31052,1,0,0:0:0:0:
320,192,31397,1,8,0:0:0:0:
192,192,31742,1,2,0:0:0:0:
64,192,32086,1,8,0:0:0:0:
320,192,32431,1,0,0:0:0:0:
64,192,32775,1,8,0:0:0:0:
448,192,32775,1,0,0:0:0:0:
192,192,33120,1,4,0:0:0:0:
320,192,33120,1,2,0:0:0:0:
64,192,33465,1,8,0:0:0:0:
320,192,33809,1,0,0:0:0:0:
192,192,34154,1,8,0:0:0:0:
64,192,34498,1,2,0:0:0:0:
320,192,34843,1,8,0:0:0:0:
448,192,35188,1,0,0:0:0:0:
192,192,35532,1,8,0:0:0:0:
64,192,35877,1,2,0:0:0:0:
320,192,36222,1,8,0:0:0:0:
192,192,36566,1,0,0:0:0:0:
448,192,36911,1,8,0:0:0:0:
192,192,37255,128,0,37600:0:0:0:0:
64,192,37600,128,8,37945:0:0:0:0:
320,192,37945,128,0,38289:0:0:0:0:
192,192,38289,1,8,0:0:0:0:
448,192,38634,1,2,0:0:0:0:
192,192,38978,1,8,0:0:0:0:
64,192,39323,1,0,0:0:0:0:
320,192,39668,1,8,0:0:0:0:
192,192,40012,1,2,0:0:0:0:
64,192,40357,1,8,0:0:0:0:
320,192,40701,1,0,0:0:0:0:
448,192,41046,1,8,0:0:0:0:
320,192,41391,1,2,0:0:0:0:
64,192,41735,1,8,0:0:0:0:
192,192,42080,1,0,0:0:0:0:
320,192,42424,1,8,0:0:0:0:
64,192,42769,1,2,0:0:0:0:
448,192,43114,1,8,0:0:0:0:
320,192,43458,1,0,0:0:0:0:
192,192,43803,1,8,0:0:0:0:
64,192,44148,1,2,0:0:0:0:
448,192,44148,1,4,0:0:0:0:
192,192,44492,1,8,0:0:0:0:
64,192,44837,1,0,0:0:0:0:
320,192,45181,1,8,0:0:0:0:
448,192,45526,1,2,0:0:0:0:
192,192,45871,1,8,0:0:0:0:
64,192,46215,1,0,0:0:0:0:
320,192,46560,1,8,0:0:0:0:
192,192,46904,1,2,0:0:0:0:
64,192,47249,1,8,0:0:0:0:
448,192,47594,1,0,0:0:0:0:
192,192,47938,1,8,0:0:0:0:
320,192,48283,128,0,48627:0:0:0:0:
192,192,48627,128,8,48972:0:0:0:0:
64,192,48972,128,0,49317:0:0:0:0:
320,192,49317,1,8,0:0:0:0:
192,192,49661,1,2,0:0:0:0:
448,192,50006,1,8,0:0:0:0:
192,192,50351,1,0,0:0:0:0:
64,192,50695,1,8,0:0:0:0:
320,192,51040,1,2,0:0:0:0:
192,192,51384,1,8,0:0:0:0:
448,192,51729,1,0,0:0:0:0:
64,192,52074,1,8,0:0:0:0:
192,192,52418,1,2,0:0:0:0:
448,192,52763,1,8,0:0:0:0:
320,192,53107,1,2,0:0:0:0:
192,192,53452,1,8,0:0:0:0:
448,192,53797,128,0,55175:0:0:0:0:
320,192,54830,1,0,0:0:0:0:
192,192,55175,1,4,0:0:0:0:
64,192,55175,1,0,0:0:0:0:
448,192,55520,1,0,0:0:0:0:
320,192,55520,1,8,0:0:0:0:
64,192,56209,1,8,0:0:0:0:
192,192,56209,1,0,0:0:0:0:
448,192,56898,1,8,0:0:0:0:
320,192,56898,1,0,0:0:0:0:
192,192,57587,1,8,0:0:0:0:
64,192,57587,1,0,0:0:0:0:
448,192,58277,1,0,0:0:0:0:
320,192,58277,1,8,0:0:0:0:
320,192,58966,1,0,0:0:0:0:
192,192,58966,1,8,0:0:0:0:
64,192,59655,1,8,0:0:0:0:
192,192,59655,1,0,0:0:0:0:
448,192,60344,1,8,0:0:0:0:
320,192,60344,1,0,0:0:0:0:
64,192,61033,1,0,0:0:0:0:
320,192,61033,1,8,0:0:0:0:
320,192,61723,1,0,0:0:0:0:
64,192,61723,1,8,0:0:0:0:
192,192,62412,1,0,0:0:0:0:
448,192,62412,1,8,0:0:0:0:
448,192,63101,1,0,0:0:0:0:
192,192,63101,1,8,0:0:0:0:
192,192,63790,1,0,0:0:0:0:
64,192,63790,1,8,0:0:0:0:
320,192,64480,1,8,0:0:0:0:
448,192,64480,1,0,0:0:0:0:
64,192,65169,1,0,0:0:0:0:
320,192,65169,1,8,0:0:0:0:
320,192,65858,1,0,0:0:0:0:
64,192,65858,1,8,0:0:0:0:
192,192,66203,1,4,0:0:0:0:
320,192,66203,1,0,0:0:0:0:
448,192,66547,1,0,0:0:0:0:
64,192,66892,1,0,0:0:0:0:
320,192,67236,1,0,0:0:0:0:
448,192,67581,1,0,0:0:0:0:
192,192,67926,1,0,0:0:0:0:
320,192,68270,1,0,0:0:0:0:
64,192,68615,1,0,0:0:0:0:
192,192,68959,1,0,0:0:0:0:
320,192,69304,1,0,0:0:0:0:
448,192,69649,1,0,0:0:0:0:
320,192,69993,1,0,0:0:0:0:
192,192,70338,1,0,0:0:0:0:
448,192,70682,1,0,0:0:0:0:
64,192,71027,1,0,0:0:0:0:
320,192,71372,1,0,0:0:0:0:
448,192,71716,1,0,0:0:0:0:
64,192,72061,1,0,0:0:0:0:
320,192,72406,1,0,0:0:0:0:
192,192,72750,1,0,0:0:0:0:
448,192,73095,1,0,0:0:0:0:
64,192,73439,1,0,0:0:0:0:
320,192,73784,1,0,0:0:0:0:
192,192,74129,1,0,0:0:0:0:
64,192,74473,1,0,0:0:0:0:
192,192,74818,1,0,0:0:0:0:
320,192,75162,1,0,0:0:0:0:
448,192,75507,1,0,0:0:0:0:
192,192,75852,1,0,0:0:0:0:
64,192,76196,1,0,0:0:0:0:
320,192,76541,1,0,0:0:0:0:
192,192,76885,1,8,0:0:0:0:
448,192,76885,1,0,0:0:0:0:
320,192,77230,1,4,0:0:0:0:
64,192,77230,1,2,0:0:0:0:
192,192,77575,1,8,0:0:0:0:
320,192,77919,1,0,0:0:0:0:
192,192,78264,1,8,0:0:0:0:
448,192,78609,1,2,0:0:0:0:
64,192,78953,1,8,0:0:0:0:
320,192,79298,1,0,0:0:0:0:
448,192,79642,1,8,0:0:0:0:
192,192,79987,1,2,0:0:0:0:
64,192,80332,1,8,0:0:0:0:
192,192,80676,1,0,0:0:0:0:
448,192,81021,1,8,0:0:0:0:
320,192,81365,1,0,0:0:0:0:
64,192,81710,1,0,0:0:0:0:
320,192,82055,1,0,0:0:0:0:
192,192,82399,1,8,0:0:0:0:
64,192,82744,1,0,0:0:0:0:
320,192,83088,1,8,0:0:0:0:
320,192,83778,1,8,0:0:0:0:
192,192,84122,1,0,0:0:0:0:
448,192,84467,1,8,0:0:0:0:
448,192,85156,1,8,0:0:0:0:
192,192,85501,1,2,0:0:0:0:
320,192,85845,1,8,0:0:0:0:
64,192,86190,1,2,0:0:0:0:
192,192,86535,1,8,0:0:0:0:
320,192,86879,128,0,88258:0:0:0:0:
64,192,87913,1,0,0:0:0:0:
192,192,88258,1,4,0:0:0:0:
448,192,88258,1,2,0:0:0:0:
320,192,88602,1,8,0:0:0:0:
192,192,88947,1,0,0:0:0:0:
320,192,89291,1,8,0:0:0:0:
64,192,89636,1,2,0:0:0:0:
448,192,89981,1,8,0:0:0:0:
320,192,90325,1,0,0:0:0:0:
192,192,90670,1,8,0:0:0:0:
448,192,91014,1,2,0:0:0:0:
64,192,91359,1,8,0:0:0:0:
192,192,91704,1,0,0:0:0:0:
320,192,92048,1,8,0:0:0:0:
192,192,92393,1,2,0:0:0:0:
448,192,92738,1,8,0:0:0:0:
64,192,93082,1,0,0:0:0:0:
320,192,93427,1,8,0:0:0:0:
192,192,93771,1,2,0:0:0:0:
448,192,94116,1,8,0:0:0:0:
192,192,94461,1,0,0:0:0:0:
64,192,94805,1,8,0:0:0:0:
320,192,95150,1,2,0:0:0:0:
448,192,95494,1,8,0:0:0:0:
192,192,95839,1,0,0:0:0:0:
320,192,96184,1,8,0:0:0:0:
192,192,96528,1,2,0:0:0:0:
64,192,96873,1,8,0:0:0:0:
192,192,97217,1,0,0:0:0:0:
320,192,97562,1,8,0:0:0:0:
448,192,97907,1,2,0:0:0:0:
320,192,98251,1,8,0:0:0:0:
64,192,98596,1,0,0:0:0:0:
192,192,98940,1,8,0:0:0:0:
320,192,98940,1,0,0:0:0:0:
64,192,99285,1,4,0:0:0:0:
448,192,99285,1,2,0:0:0:0:
320,192,99630,1,8,0:0:0:0:
192,192,99974,1,0,0:0:0:0:
448,192,100319,1,8,0:0:0:0:
64,192,100664,1,2,0:0:0:0:
320,192,101008,1,8,0:0:0:0:
192,192,101353,1,0,0:0:0:0:
64,192,101697,1,8,0:0:0:0:
320,192,102042,1,2,0:0:0:0:
448,192,102387,1,8,0:0:0:0:
64,192,102731,1,0,0:0:0:0:
448,192,103076,1,8,0:0:0:0:
192,192,103420,1,2,0:0:0:0:
320,192,103765,1,8,0:0:0:0:
64,192,104110,1,0,0:0:0:0:
192,192,104454,1,8,0:0:0:0:
448,192,104799,1,2,0:0:0:0:
192,192,105143,1,8,0:0:0:0:
64,192,105488,1,0,0:0:0:0:
320,192,105833,1,8,0:0:0:0:
192,192,106177,1,2,0:0:0:0:
64,192,106522,1,8,0:0:0:0:
320,192,106867,1,0,0:0:0:0:
448,192,107211,1,8,0:0:0:0:
192,192,107556,1,2,0:0:0:0:
64,192,107900,1,8,0:0:0:0:
320,192,108245,1,0,0:0:0:0:
448,192,108590,1,8,0:0:0:0:
64,192,108934,1,2,0:0:0:0:
320,192,109279,1,8,0:0:0:0:
448,192,109623,1,0,0:0:0:0:
192,192,109968,1,8,0:0:0:0:
320,192,109968,1,0,0:0:0:0:
448,192,110313,128,0,113759:0:0:0:0:
64,192,110313,128,4,113759:0:0:0:0:
