osu file format v9

[General]
AudioFilename: Dear You.mp3
AudioLeadIn: 2000
PreviewTime: 88171
Countdown: 0
SampleSet: Soft
StackLeniency: 0.7
Mode: 0
LetterboxInBreaks: 0

[Editor]
Bookmarks: 17957,66202
DistanceSpacing: 1
BeatDivisor: 4
GridSize: 4

[Metadata]
Title:Dear You
Artist:DJ Genericname
Creator:Rue
Version:Dear Normal
Source:
Tags:Reiji-RJ DnB Yuduki Drum and Bass Remix Higurashi no Naku Koro ni

[Difficulty]
HPDrainRate:4
CircleSize:3
OverallDifficulty:4
ApproachRate:5
SliderMultiplier:1
SliderTickRate:1

[Events]
//Background and Video events
0,0,"wallpaper-623395.jpg"
//Break Periods
2,55375,65002
//Storyboard Layer 0 (Background)
//Storyboard Layer 1 (Fail)
//Storyboard Layer 2 (Pass)
//Storyboard Layer 3 (Foreground)
//Storyboard Sound Samples
//Background Colour Transformations
3,100,163,162,255

[TimingPoints]
38,344.609729481362,4,2,0,30,1,0
5465,-100,4,1,0,20,0,0
5637,-100,4,2,0,30,0,0
6843,-100,4,1,0,20,0,0
7015,-100,4,2,0,30,0,0
9600,-100,4,1,0,30,0,0
9772,-100,4,2,0,30,0,0
10203,-100,4,1,0,30,0,0
10462,-100,4,2,0,30,0,0
10634,-66.6666666666667,4,1,0,50,0,0
10806,-100,4,2,0,30,0,0
10978,-100,4,2,1,70,0,0
16492,-100,4,1,1,70,0,0
16665,-100,4,2,1,70,0,0
20628,-100,4,2,1,50,0,0
21317,-100,4,2,1,30,0,0
21489,-100,4,2,1,50,0,0
22006,-100,4,1,1,70,0,0
22178,-100,4,2,1,70,0,0
27520,-100,4,1,1,70,0,0
27692,-100,4,2,1,70,0,0
32000,-100,4,2,1,50,0,0
32689,-100,4,1,1,45,0,0
32861,-100,4,2,1,70,0,0
33120,-100,4,1,1,100,0,0
33206,-100,4,2,1,70,0,0
38547,-100,4,1,1,70,0,0
38720,-100,4,2,1,70,0,0
43027,-100,4,2,1,40,0,0
43199,-100,4,2,1,70,0,0
43716,-100,4,1,1,45,0,0
43889,-100,4,2,1,70,0,0
44061,-100,4,1,1,70,0,0
44233,-100,4,2,1,70,0,0
49575,-100,4,1,1,70,0,0
49747,-100,4,2,1,70,0,0
53710,-100,4,2,1,50,0,0
64565,-100,4,2,1,70,0,0
71630,-100,4,2,1,45,0,0
71802,-100,4,2,1,70,0,0
75765,-100,4,2,1,50,0,0
76110,-100,4,2,0,50,0,0
76282,-100,4,2,1,30,0,0
76368,-100,4,1,0,30,0,0
76627,-100,4,2,0,50,0,0
76799,-100,4,2,1,50,0,0
77144,-100,4,2,1,70,0,0
87826,-100,4,1,1,45,0,0
87999,-100,4,1,1,90,0,0
88257,-100,4,1,1,90,0,1
88343,-100,4,2,1,70,0,1
92996,-100,4,1,1,60,0,1
93340,-100,4,1,1,70,0,1
93685,-100,4,1,1,70,0,0
93771,-100,4,1,1,70,0,1
93857,-100,4,2,1,70,0,1
98509,-100,4,1,1,60,0,1
98854,-100,4,1,1,70,0,1
99199,-100,4,1,1,70,0,0
99285,-100,4,1,1,70,0,1
99371,-100,4,2,1,70,0,1
104023,-100,4,1,1,60,0,1
104368,-100,4,1,1,70,0,1
104712,-100,4,1,1,70,0,0
104798,-100,4,1,1,70,0,1
104885,-100,4,2,1,70,0,1
110312,-100,4,2,1,30,0,0
113672,-100,4,2,1,5,0,0

[Colours]
Combo1 : 255,0,128
Combo2 : 0,128,255
Combo3 : 128,0,255

[HitObjects]
44,164,38,2,0,B|76:56,1,100,4|2
152,132,726,2,0,B|208:48,1,100,0|2
264,132,1416,6,0,B|300:96|344:72,1,100,0|2
360,172,2105,2,0,B|408:152|464:160,1,100,0|2
416,252,2794,6,0,B|368:276|304:268,1,100,0|2
244,196,3483,2,0,B|292:168|360:176,1,100,0|2
436,140,4173,6,0,B|460:92|460:28,2,100,0|2|0
376,220,5207,1,2
360,120,5551,5,4
420,40,5895,1,2
320,48,6240,2,0,B|216:56,1,100,0|2
144,120,6929,5,0
76,196,7274,1,2
176,204,7619,2,0,B|284:192,1,100,0|2
280,292,8308,6,0,B|380:280,1,100,0|2
480,264,8997,2,0,B|492:208|472:164,1,100,0|2
380,132,9686,2,0,B|368:180|392:224,2,75,0|0|0
396,84,10375,2,0,B|412:36,2,50
296,56,11065,6,0,B|176:68,1,100,12|2
152,156,11754,2,0,B|208:152,2,50,2|0|8
208,240,12443,2,0,B|307:230,1,100,8|2
372,308,13132,2,0,B|322:311,2,50,2|0|4
420,220,13821,6,0,B|388:176|380:112,1,100,8|2
340,36,14511,2,0,B|304:80|240:100,1,100,0|8
168,136,15200,2,0,B|204:176|212:232,2,100,8|2|0
112,52,16234,1,4
212,48,16578,6,0,B|328:40|420:92,1,200,4|8
480,152,17612,1,2
384,180,17957,2,0,B|336:204|280:212,1,100,8|2
216,276,18646,1,0
132,224,18991,1,2
204,156,19335,6,0,B|220:108|208:48,1,100,8|2
300,104,20024,2,0,B|292:156|304:204,2,100,0|8|8
392,144,21058,1,2
488,120,21403,1,4
420,48,21748,1,2
320,60,22092,6,0,B|336:108|328:172,1,100,4|2
424,188,22781,2,0,B|408:240|432:300,1,100,0|8
336,324,23471,2,0,B|216:308,1,100,8|0
136,304,24160,2,0,B|88:336,2,50,2|0|4
132,204,24849,6,0,B|120:152|136:92,1,100,8|2
220,152,25538,2,0,B|232:204|216:256,1,100,0|8
312,204,26227,2,0,B|299:251|311:303,2,100,2|8|0
332,108,27261,1,4
256,44,27606,6,0,B|140:28,1,100,4|2
76,88,28295,2,0,B|116:124|128:196,1,100,0|8
160,268,28984,2,0,B|236:192,1,100,8|2
296,120,29674,2,0,B|344:140|392:120,1,100,0|4
328,44,30363,6,0,B|256:24|180:44,2,150,8|2|8
424,72,31741,1,2
356,144,32086,2,0,B|256:164|152:144,1,200,4|4
68,96,33120,6,0,B|44:148|68:196,1,100,4|2
116,280,33809,2,0,B|68:308,2,50,2|0|8
204,324,34498,2,0,B|256:336|308:324,1,100,8|2
372,264,35187,1,0
424,180,35532,1,8
380,88,35877,6,0,B|284:184|388:280,1,200,8|2
292,308,36910,1,8
196,304,37255,2,0,B|88:292,2,100,2|8|0
256,224,38289,1,4
156,216,38633,6,0,B|144:100|212:24,1,200,4|2
256,108,39667,2,0,B|232:152|244:216,2,100,8|0|8
336,168,40701,2,0,B|348:220|320:284,1,100,2|8
236,308,41390,6,0,B|124:292,1,100,12|8
96,192,42079,2,2,B|8:180,2,75,2|0|2
148,200,42769,1,2
156,100,43113,2,0,B|256:80|360:100,1,200,4|4
444,56,44147,6,0,B|420:164,1,100,4|8
476,236,44836,2,0,B|496:296,2,50,2|0|8
368,248,45526,1,2
296,320,45870,1,8
196,320,46215,2,0,B|164:364,2,50,2|0|8
116,264,46904,6,0,B|164:164|164:60,1,200,4|2
68,48,47938,1,8
48,144,48282,2,0,B|40:192|12:240,2,100,2|8|2
140,108,49316,1,4
156,208,49661,6,0,B|256:228|364:208,1,200,4|2
432,148,50695,1,8
356,80,51039,6,0,B|257:61|157:81,1,200,2|0
84,148,52073,1,8
156,216,52418,6,0,B|256:236|364:216,1,200,4|2
432,148,53452,1,8
256,192,53796,12,4,55175
332,244,66202,6,0,B|404:241|456:180|434:94,1,200,4|0
332,136,67236,1,2
256,192,67581,2,0,B|192:104|76:112,1,200,2|0
36,200,68614,1,2
56,312,68959,6,0,B|160:328|272:304,1,200,2|0
324,232,69993,1,2
392,160,70337,2,0,B|436:124|440:64,2,100,2|0|2
296,192,71371,1,2
256,100,71716,6,0,B|56:68,1,200,4|0
72,176,72750,1,2
96,272,73094,2,0,B|216:268|260:376,1,200,2|0
352,340,74128,1,2
440,292,74473,6,0,B|464:192|444:88,1,200
360,140,75507,1,2
304,56,75851,2,0,B|392:36,2,75,2|0|0
256,72,76540,1,0
160,96,76885,1,4
60,116,77230,6,0,B|108:144|128:212,1,100,8|2
220,192,77919,2,0,B|248:144,2,50,2|0|8
172,280,78608,2,0,B|220:304|272:280,1,100,8|2
368,292,79297,2,0,B|384:340,2,50,2|0|8
336,196,79987,5,2
432,164,80331,1,8
360,96,80676,2,0,B|292:24|172:52,1,200,0|2
84,88,81710,5,8
80,288,82399,1,8
180,304,82743,2,0,B|300:320,1,100,4|2
424,280,83605,2,0,B|352:272,1,50,0|8
292,224,84122,6,0,B|320:176|324:108,1,100,2|8
424,36,84983,2,0,B|400:60|400:92,1,50,0|8
312,40,85500,2,0,B|208:32,1,100,2|8
112,40,86190,2,0,B|64:64|48:128,1,100,0|8
36,216,86879,2,0,B|120:180|192:336|320:288,1,300,4|4
412,316,88257,6,0,B|480:220|484:120,1,200,6|2
484,28,89291,1,8
392,64,89636,2,0,B|344:88|276:80,1,100,2|8
204,36,90325,1,2
216,136,90669,1,8
128,100,91014,6,0,B|72:180|76:300,1,200,4|2
172,312,92048,1,8
256,256,92393,1,2
340,312,92737,1,8
424,256,93082,2,0,B|480:236,1,50
460,156,93426,2,0,B|400:184,1,50
368,112,93771,6,0,B|340:52|260:20|176:36,1,200,6|2
108,76,94805,1,8
172,152,95149,6,0,B|200:212|280:244|364:228,1,200,4|2
404,152,96183,1,8
340,76,96528,6,0,B|296:28|224:12|152:24,1,200,4|2
72,76,97562,1,8
100,172,97906,5,4
192,212,98251,1,8
276,160,98595,2,0,B|320:132,1,50
256,76,98940,2,0,B|264:24,1,50
172,92,99285,6,0,B|164:180|112:304,1,200,6|2
40,232,100319,1,8
52,348,100663,2,0,B|96:372|160:372,1,100,2|8
252,324,101352,2,0,B|244:376,2,50,2|0|8
264,224,102042,5,4
344,284,102386,1,8
428,228,102731,2,0,B|444:176|488:136,1,100,2|8
380,124,103420,2,0,B|372:76|388:16,1,100,2|8
288,40,104109,2,0,B|236:36,1,50
216,116,104454,2,0,B|160:120,1,50
140,36,104798,6,0,B|88:48|44:108,1,100,6|2
92,192,105488,2,0,B|40:176,2,50,2|0|8
192,220,106177,1,2
116,284,106522,1,8
212,316,106866,2,0,B|188:364,2,50,2|0|8
312,316,107555,6,0,B|352:272|364:216,1,100,4|8
452,192,108245,2,0,B|456:284,2,75,2|0|2
448,140,108934,2,0,B|416:36|288:16,1,200,4|2
204,44,109968,1,4
256,192,110312,12,0,113758
