osu file format v14

[General]
AudioFilename: DJ Genericname - Dear You.mp3
AudioLeadIn: 0
PreviewTime: 88258
Countdown: 0
SampleSet: Soft
StackLeniency: 0.7
Mode: 0
LetterboxInBreaks: 1
WidescreenStoryboard: 1

[Editor]
Bookmarks: 33120,63446,77230,88258
DistanceSpacing: 1.3
BeatDivisor: 4
GridSize: 4
TimelineZoom: 1

[Metadata]
Title:Dear You
TitleUnicode:Dear You
Artist:DJ Genericname
ArtistUnicode:DJ Genericname
Creator:NewtonsCradle
Version:Hard
Source:ひぐらしのなく頃に
Tags:drum and bass dnb higurashi no naku koro ni
BeatmapID:1076525
BeatmapSetID:505453

[Difficulty]
HPDrainRate:6
CircleSize:4
OverallDifficulty:7
ApproachRate:8
SliderMultiplier:1.1
SliderTickRate:1

[Events]
//Background and Video events
0,0,"dear you.jpg",0,0
//Break Periods
2,66403,76480
//Storyboard Layer 0 (Background)
//Storyboard Layer 1 (Fail)
//Storyboard Layer 2 (Pass)
//Storyboard Layer 3 (Foreground)
//Storyboard Sound Samples

[TimingPoints]
38,344.609729481362,4,2,1,25,1,0
9687,-57.1428571428571,4,2,1,25,0,0
10720,-50,4,2,1,50,0,0
11065,-100,4,2,1,50,0,0
88258,-100,4,2,1,50,0,1
110657,-100,4,2,1,50,0,0
113069,-100,4,2,1,25,0,0

[HitObjects]
324,48,38,6,0,P|384:72|400:108,1,55
331,119,382,2,0,P|361:175|350:213,1,55
371,234,727,1,0,0:0:0:0:
321,285,899,1,0,0:0:0:0:
251,269,1071,1,0,0:0:0:0:
200,320,1244,1,0,0:0:0:0:
134,291,1416,6,0,P|109:232|123:195,1,55
180,238,1760,2,0,P|199:177|234:158,1,55
237,130,2105,1,0,0:0:0:0:
287,79,2277,1,0,0:0:0:0:
357,95,2449,1,0,0:0:0:0:
408,44,2622,1,0,0:0:0:0:
472,76,2794,6,0,P|474:130|449:178,1,110
336,264,3484,1,0,0:0:0:0:
264,268,3656,1,0,0:0:0:0:
204,232,3828,1,0,0:0:0:0:
128,112,4173,2,0,P|218:138|264:105,1,110
364,92,4862,1,0,0:0:0:0:
376,344,5207,1,0,0:0:0:0:
310,314,5379,1,0,0:0:0:0:
244,285,5551,6,0,P|175:269|130:286,2,110,0|0|0,2:0|2:0|2:0,2:0:0:0:
277,221,6413,1,0,2:0:0:0:
257,152,6585,2,0,P|231:118|201:108,1,55
156,80,6930,6,0,P|90:108|44:99,2,110
184,148,7792,1,0,0:0:0:0:
156,212,7964,2,0,P|181:245|211:255,1,55,0|0,0:0|3:0,0:0:0:0:
264,256,8308,6,0,P|329:283|356:322,2,110
296,192,9170,1,0,0:0:0:0:
336,132,9342,2,8,P|344:90|333:61,1,55,8|8,0:0|3:0,0:0:0:0:
328,8,9687,6,0,P|392:8|428:40,1,96.2500009179115
456,144,10031,2,8,P|424:199|378:214,1,96.2500009179115
272,188,10376,2,0,P|240:132|249:85,1,96.2500009179115,0|0,3:0|3:0,3:0:0:0:
343,59,10720,2,0,P|376:102|376:156,1,110
304,128,11065,6,0,P|232:149|210:186,1,110
188,344,11754,1,0,0:0:0:0:
256,364,11926,1,0,0:0:0:0:
324,344,12099,2,0,P|364:321|376:300,1,55
436,256,12443,2,0,P|460:216|460:192,1,55
390,196,12788,2,0,P|361:144|367:109,1,55
343,72,13133,1,0,0:0:0:0:
272,72,13305,1,0,0:0:0:0:
204,88,13477,2,0,P|167:117|159:139,1,55,8|0,3:0|3:0,3:0:0:0:
135,232,13822,6,0,P|206:206|225:168,1,110
240,320,14511,1,0,0:0:0:0:
308,336,14683,1,0,0:0:0:0:
376,308,14856,2,0,P|400:268|400:244,1,55
408,188,15200,2,8,P|410:160|401:134,1,55,8|8,3:0|3:0,3:0:0:0:
334,109,15545,2,8,P|309:121|291:142,1,55,8|8,3:0|3:0,3:0:0:0:
304,213,15890,2,8,P|326:228|353:232,1,55,8|8,3:0|3:0,3:0:0:0:
424,244,16234,1,0,0:0:0:0:
304,320,16579,6,0,P|229:332|194:309,1,110
256,184,17268,1,0,0:0:0:0:
208,132,17440,1,0,0:0:0:0:
232,64,17613,2,8,P|259:58|286:61,1,55
348,96,17957,2,0,P|367:117|377:142,1,55
304,152,18302,2,0,P|285:173|275:198,1,55
212,160,18647,1,0,0:0:0:0:
156,116,18819,1,0,0:0:0:0:
84,116,18991,2,8,P|73:142|72:169,1,55
88,240,19336,6,0,P|134:211|187:217,1,110,0|0,0:3|0:3,0:3:0:0:
292,316,20025,1,0,0:0:0:0:
328,252,20197,1,0,0:0:0:0:
288,192,20369,2,0,P|265:209|251:232,1,55
224,304,20714,2,0,P|172:321|119:310,1,110
216,204,21403,2,0,P|269:214|321:196,1,110
208,108,22093,6,0,P|156:125|103:114,1,110
228,192,22782,1,0,0:0:0:0:
232,264,22954,1,0,0:0:0:0:
276,320,23126,2,0,P|334:329|365:311,1,55
384,284,23471,2,8,P|383:224|360:197,1,55
316,256,23816,2,8,P|264:225|252:192,1,55
259,157,24161,1,8,0:0:0:0:
200,196,24333,1,8,0:0:0:0:
148,244,24505,2,8,P|119:296|125:331,1,55,0|8,0:0|0:0,0:0:0:0:
100,220,24849,6,0,P|82:168|42:132,1,110
184,144,25538,1,0,0:0:0:0:
236,96,25710,1,0,0:0:0:0:
308,80,25883,2,0,P|352:95|367:113,1,55
408,148,26227,2,8,P|426:167|436:193,1,55,8|8,3:0|3:0,3:0:0:0:
401,255,26572,2,8,P|374:261|347:257,1,55,8|8,3:0|3:0,3:0:0:0:
312,196,26917,2,8,P|319:169|336:148,1,55,8|8,3:0|3:0,3:0:0:0:
396,108,27261,1,0,0:0:0:0:
260,60,27606,6,0,P|230:105|181:127,1,110,0|0,0:0|0:0,0:3:0:0:
228,264,28295,1,8,0:0:0:0:
176,216,28468,1,8,0:0:0:0:
108,196,28640,2,0,P|49:207|26:234,1,55,0|0,2:3|2:3,2:3:0:0:
20,268,28985,2,8,P|25:294|40:317,1,55,8|8,2:3|2:3,2:3:0:0:
92,268,29330,2,8,P|150:260|175:236,1,55,8|8,2:3|2:3,2:3:0:0:
116,200,29675,1,0,2:3:0:0:
180,168,29847,1,0,2:3:0:0:
252,164,30019,2,8,P|304:190|320:222,1,55,8|8,3:3|2:3,2:3:0:0:
372,184,30363,6,0,P|342:110|288:86,1,110
464,84,31052,1,0,0:0:0:0:
472,156,31225,1,0,0:0:0:0:
448,224,31397,2,8,P|404:264|370:268,1,55,8|8,3:3|3:3,3:3:0:0:
338,264,31742,2,0,P|270:306|256:363,1,110,0|0,3:0|3:0,3:0:0:0:
240,188,32431,2,8,P|237:108|194:67,1,110,8|8,3:0|3:0,3:0:0:0:
352,144,33120,6,0,P|431:155|478:120,1,110,0|0,0:0|0:0,3:0:0:0:
344,52,33809,1,0,0:0:0:0:
276,28,33982,1,0,0:0:0:0:
204,36,34154,2,8,P|163:58|151:79,1,55
116,123,34498,2,8,P|100:146|95:173,1,55,8|8,3:0|3:0,3:0:0:0:
168,168,34843,2,8,P|195:170|221:160,1,55,8|8,3:0|3:0,3:0:0:0:
276,112,35188,1,8,0:0:0:0:
348,116,35360,1,0,0:0:0:0:
408,76,35532,2,8,P|396:52|375:35,1,55,8|8,3:0|3:0,3:0:0:0:
304,36,35877,6,8,P|249:94|250:153,1,110,0|0,0:0|0:0,0:0:0:0:
128,40,36566,1,0,0:0:0:0:
104,108,36739,1,0,0:0:0:0:
120,176,36911,2,8,P|135:220|153:235,1,55,8|8,3:0|3:0,3:0:0:0:
190,277,37255,2,8,P|210:296|235:306,1,55,8|8,3:0|3:0,3:0:0:0:
298,272,37600,2,8,P|304:245|300:217,1,55,8|8,3:0|3:0,3:0:0:0:
238,182,37945,2,8,P|212:189|191:207,1,55,8|8,3:0|3:0,3:0:0:0:
152,267,38289,1,8,3:0:0:0:
292,232,38634,6,0,P|303:152|268:105,1,110
372,248,39323,1,0,0:0:0:0:
421,193,39496,1,0,0:0:0:0:
492,192,39668,2,8,P|476:147|458:132,1,55,8|8,3:0|3:0,3:0:0:0:
400,132,40012,2,0,P|377:148|363:172,1,55,0|0,3:0|3:0,3:0:0:0:
388,240,40357,2,8,P|413:251|440:251,1,55,8|8,3:0|3:0,3:0:0:0:
428,180,40701,1,0,0:0:0:0:
392,116,40874,1,0,0:0:0:0:
332,76,41046,2,8,P|306:64|279:64,1,55,8|8,3:0|3:0,3:0:0:0:
272,136,41391,6,8,P|223:71|165:63,1,110
192,204,42080,1,0,0:0:0:0:
248,248,42253,1,0,0:0:0:0:
316,264,42424,2,0,P|343:261|367:247,1,55,0|0,3:0|3:0,3:0:0:0:
436,236,42769,2,0,P|381:298|380:348,1,110
340,188,43458,2,0,P|356:136|398:101,1,110
248,172,44148,6,0,P|193:234|192:284,1,110
148,120,44837,1,0,0:0:0:0:
80,92,45010,1,0,0:0:0:0:
92,164,45181,2,0,B|107:213|51:241,1,55,0|0,3:0|0:0,0:0:0:0:
140,264,45526,2,0,B|175:225|227:259,1,55,0|0,3:0|0:0,0:0:0:0:
204,172,45871,2,8,B|153:160|157:98,1,55,8|8,3:0|0:0,0:0:0:0:
132,76,46216,1,0,0:0:0:0:
100,12,46389,1,0,0:0:0:0:
60,72,46560,2,0,B|32:115|78:157,1,55,0|0,3:0|0:0,0:0:0:0:
84,188,46905,6,0,P|127:155|181:152,1,110,0|0,3:0|3:0,3:0:0:0:
324,176,47594,1,0,3:0:0:0:
388,212,47767,1,0,3:0:0:0:
324,252,47938,2,8,P|279:236|264:218,1,55,8|8,3:0|3:0,3:0:0:0:
223,182,48282,2,8,P|203:161|193:136,1,55,8|8,3:0|3:0,3:0:0:0:
228,74,48627,2,8,P|254:67|282:71,1,55,8|8,3:0|3:0,3:0:0:0:
318,134,48972,2,8,P|310:159|292:180,1,55,8|8,3:0|3:0,3:0:0:0:
233,220,49316,1,8,3:0:0:0:
143,332,49662,6,0,P|100:264|43:250,1,110
215,283,50351,1,0,0:0:0:0:
276,237,50523,1,0,0:0:0:0:
207,210,50695,2,0,B|169:175|203:123,1,55,0|0,3:0|0:0,0:0:0:0:
246,90,51040,2,0,B|295:74|323:130,1,55,8|0,3:0|3:0,3:0:0:0:
332,188,51385,2,8,B|320:238|258:234,1,55,8|8,3:0|0:0,0:0:0:0:
262,162,51730,1,0,0:0:0:0:
246,90,51903,1,0,0:0:0:0:
218,24,52074,2,0,B|174:-3|132:42,1,55,0|0,3:0|0:0,0:0:0:0:
173,89,52419,6,0,P|94:102|58:150,1,110,0|0,3:0|3:0,3:0:0:0:
190,203,53108,1,0,0:0:0:0:
250,241,53281,1,0,0:0:0:0:
250,170,53452,2,0,B|243:118|181:116,1,55,8|8,3:0|0:0,0:0:0:0:
153,102,53797,2,0,P|210:41|259:35,1,110
259,175,54486,2,0,P|198:232|192:281,1,110
334,264,55175,6,0,P|310:204|274:188,1,55
264,256,55519,2,0,P|208:226|170:237,1,55
133,283,55864,2,0,P|147:346|179:368,1,55
200,301,56208,2,0,P|251:340|290:336,1,55
310,347,56553,1,0,0:0:0:0:
384,347,56726,1,0,0:0:0:0:
424,284,56898,2,0,L|364:240,1,55
310,218,57243,1,0,0:0:0:0:
272,154,57415,1,8,0:0:0:0:
309,90,57587,2,0,L|380:120,1,55
410,159,57932,6,0,P|420:222|397:254,1,55
354,200,58276,2,0,P|321:253|283:263,1,55
285,193,58621,2,0,P|224:212|189:195,1,55
236,144,58965,2,0,P|177:119|161:83,1,55
231,72,59310,2,0,P|166:28|122:46,1,110
70,68,60000,2,0,P|135:112|179:94,1,110
344,124,60689,6,0,P|384:175|380:214,1,55
316,189,61033,2,0,P|314:253|286:280,1,55
238,222,61378,2,0,P|190:265|187:304,1,55
256,289,61722,2,0,P|247:352|270:384,1,55
317,330,62067,1,0,3:0:0:0:
369,277,62240,1,0,3:0:0:0:
336,204,62412,2,0,P|273:195|241:218,1,55
225,238,62757,1,0,3:0:0:0:
153,220,62929,1,8,3:0:0:0:
132,144,63101,2,0,P|157:135|185:137,1,55,8|0,0:0|0:0,0:0:0:0:
249,42,63446,6,0,P|292:88|292:127,1,55
227,108,63790,2,0,P|230:170|205:200,1,55
157,191,64135,1,0,0:0:0:0:
134,265,64307,1,0,0:0:0:0:
224,337,64480,1,0,0:0:0:0:
247,263,64652,1,0,0:0:0:0:
265,194,64824,6,0,P|244:133|209:114,1,55
194,181,65168,2,0,P|138:148|99:156,1,55
135,221,65513,2,0,P|180:281|226:288,1,110
212,127,66203,1,0,0:0:0:0:
405,188,77230,6,0,P|381:128|345:112,1,55
335,180,77574,2,0,P|279:150|241:161,1,55
279,221,77919,2,0,P|202:237|182:268,1,110
324,292,78609,6,0,P|384:268|400:232,1,55
332,222,78953,2,0,P|362:166|351:128,1,55
291,166,79298,2,0,P|275:89|244:69,1,110
380,140,79987,2,8,P|454:164|487:147,1,110
356,228,80676,2,8,P|297:280|295:317,1,110,8|8,3:0|3:0,3:0:0:0:
248,172,81365,2,0,L|288:196,8,27.5
127,100,82399,5,0,0:0:0:0:
130,177,82744,2,0,B|147:243|223:250,1,110
385,284,83778,5,0,0:0:0:0:
382,207,84123,2,0,B|365:141|289:134,1,110
253,289,85156,5,0,0:0:0:0:
199,215,85501,2,0,L|165:278,1,55
313,215,85845,2,0,L|347:278,1,55
162,136,86190,2,0,L|128:199,1,55
350,136,86534,2,0,L|384:199,1,55
194,61,86879,5,0,0:0:0:0:
316,63,87051,1,0,0:0:0:0:
162,136,87224,1,0,0:0:0:0:
350,136,87396,1,0,0:0:0:0:
255,278,87568,5,0,0:0:0:0:
255,250,87654,1,0,0:0:0:0:
255,223,87740,1,0,0:0:0:0:
255,195,87826,1,0,0:0:0:0:
255,168,87912,1,0,0:0:0:0:
252,49,88258,6,0,P|173:67|150:100,1,110
292,132,88947,1,0,0:0:0:0:
324,196,89119,1,0,0:0:0:0:
372,248,89291,2,0,P|428:271|442:306,1,55
444,340,89636,2,0,P|489:299|490:261,1,55
500,236,89981,2,0,P|459:191|421:190,1,55
408,152,90325,1,0,0:0:0:0:
340,136,90498,1,0,0:0:0:0:
268,144,90670,2,0,P|211:167|197:202,1,55
132,212,91015,6,0,B|184:264|240:248|240:248|284:280,1,165
348,328,91704,1,0,0:0:0:0:
392,264,91876,2,0,P|396:216|388:192,1,55
364,84,92221,1,0,0:0:0:0:
288,80,92393,2,0,P|239:133|245:187,1,110
312,292,93082,2,8,P|382:307|426:275,1,110
336,208,93771,6,0,P|257:226|234:259,1,110
112,180,94460,1,0,3:0:0:0:
95,249,94632,1,0,3:0:0:0:
120,316,94805,2,0,P|161:361|199:362,1,55
224,360,95149,2,0,P|269:319|270:281,1,55
272,256,95494,2,0,P|231:211|193:210,1,55
168,216,95838,1,0,0:0:0:0:
124,160,96011,1,0,0:0:0:0:
164,100,96184,2,0,P|187:85|214:83,1,55,8|0,0:0|0:0,0:0:0:0:
212,156,96528,6,0,B|264:208|320:192|320:192|364:224,1,165
428,204,97217,1,0,0:0:0:0:
428,132,97390,2,0,P|384:108|368:108,1,55
308,100,97734,1,0,0:0:0:0:
236,100,97906,2,0,P|187:153|193:207,1,110
324,144,98596,2,0,P|332:90|373:56,1,110
424,192,99285,6,0,P|375:245|381:299,1,110
320,148,99974,1,0,0:0:0:0:
264,192,100146,1,0,0:0:0:0:
196,172,100319,2,0,P|151:131|150:93,1,55
132,72,100663,2,0,P|87:113|86:151,1,55
88,176,101008,2,8,P|129:220|167:222,1,55,0|8,3:0|3:0,3:0:0:0:
224,232,101352,1,0,0:0:0:0:
204,164,101525,1,0,0:0:0:0:
164,104,101697,2,8,P|122:59|84:58,1,55,0|8,3:0|3:0,3:0:0:0:
64,36,102042,6,0,P|59:89|23:130,1,110
164,92,102731,1,0,0:0:0:0:
208,148,102903,1,0,0:0:0:0:
232,216,103076,2,8,P|234:276|208:304,1,55,0|8,3:0|3:0,3:0:0:0:
168,288,103420,2,0,P|221:337|275:331,1,110
380,264,104110,2,0,P|395:193|363:149,1,110,0|0,3:0|3:0,3:0:0:0:
260,92,104799,6,8,P|191:113|169:163,1,110,8|8,3:0|3:0,3:0:0:0:
316,160,105488,1,0,0:0:0:0:
372,113,105660,1,0,0:0:0:0:
444,112,105833,2,0,P|489:153|490:191,1,55
480,216,106177,2,0,P|421:234|388:216,1,55
372,192,106522,2,0,P|385:132|417:112,1,55
328,88,106866,1,0,0:0:0:0:
260,104,107039,1,0,0:0:0:0:
196,140,107211,2,0,P|178:160|170:186,1,55,0|0,3:0|0:0,0:0:0:0:
228,252,107556,6,0,B|200:272|164:284|132:272|108:248|108:248|56:248,1,165,0|0,3:0|3:0,3:0:0:0:
32,188,108245,1,0,3:0:0:0:
100,180,108417,2,0,L|132:124,1,55
160,68,108762,1,0,3:0:0:0:
232,72,108934,2,0,P|265:135|245:186,1,110,0|0,3:0|3:0,3:0:0:0:
396,200,109623,2,0,P|334:238|326:292,1,110,0|0,3:0|3:0,3:0:0:0:
188,316,110313,1,0,0:0:0:0:
256,192,110485,12,0,113069,0:0:0:0:
